Tags
Language
Tags
November 2022
Su Mo Tu We Th Fr Sa
30 31 1 2 3 4 5
6 7 8 9 10 11 12
13 14 15 16 17 18 19
20 21 22 23 24 25 26
27 28 29 30 1 2 3

VA - 70s Soul Jams - Ministry Of Sound (2018)

Posted By: Rtax
VA - 70s Soul Jams - Ministry Of Sound (2018)

VA - 70s Soul Jams - Ministry Of Sound (2018)
EAC Rip | FLAC (tracks, cue, log) - 1.7 GB
3:54:27 | Soul, Disco, Funk | Label: Ministry Of Sound

3CD set. Monumental 60-track collection features Marvin Gaye, Chic, Anita Ward, Stevie Wonder, The O'Jays, The Commodores, Candi Staton, James Brown, Kool & The Gang, Rose Royce, Earth Wind & Fire, The Isley Brothers, Curtis Mayfield, Al Green, Shuggie Otis and others!

Tracklist
Disc: 1
1 Boogie Wonderland - Earth, Wind & Fire with The Emotions
2 Ladies Night - Kool & The Gang
3 Good Times - Chic
4 Got to Be Real - Cheryl Lynn
5 Ain't No Stoppin' Us Now - McFadden & Whitehead
6 Boogie Nights - Heatwave
7 I Don't Believe You Want to Get Up and Dance (Oops Upside Your Head) - The Gap Band
8 Best of My Love - The Emotions
9 Strut Your Funky Stuff - Frantique
10 Disco Inferno - The Trammps
11 Shame - Evelyn "Champagne" King
12 Ring My Bell - Anita Ward
13 Young Hearts Run Free - Candi Staton
14 You Know How to Love Me - Phyllis Hyman
15 And the Beat Goes On - The Whispers
16 Don't Let Love Get You Down - Archie Bell & The Drells
17 Native New Yorker - Odyssey
18 Pick Up the Pieces - Average White Band
19 Love Train - The O'Jays
20 Move On Up - Curtis Mayfield

Disc: 2
1 Shake Your Body (Down to the Ground) - The Jacksons
2 Get Up (I Feel Like Being A) Sex Machine - James Brown
3 That Lady, Pts. 1 & 2 - The Isley Brothers
4 Boogie Oogie Oogie - A Taste of Honey
5 Love Rollercoaster - Ohio Players
6 Play That Funky Music - Wild Cherry
7 Give Up the Funk (Tear the Roof Off the Sucker) - Parliament
8 Mary Jane - Rick James
9 You and I - Delegation
10 I Love Music - The O'Jays
11 Now That We've Found Love - Third World
12 You'll Never Find Another Love Like Mine - Lou Rawls
13 I Don't Want to Be a Freak (But I Can't Help Myself) - Dynasty
14 Life on Mars - Dexter Wansel
15 Running Away - Roy Ayers
16 O-o-h Child - The Five Stairsteps
17 I'd Rather Be With You - Bootsy Collins
18 Slide - Slave
19 Wicky Wacky - The Fatback Band
20 Family Affair - Sly & The Family Stone

Disc: 3
1 Got to Give It Up - Marvin Gaye
2 Easy - The Commodores
3 Fantasy - Earth, Wind & Fire
4 Let's Stay Together - Al Green
5 She's Gone - Daryl Hall & John Oates
6 Summer Breeze, Pt. 1 - The Isley Brothers
7 Always and Forever - Heatwave
8 Midnight Train to Georgia - Gladys Knight & The Pips
9 Georgy Porgy - Toto feat. Cheryl Lynn
10 Close the Door - Teddy Pendergrass
11 Love Don't Live Here Anymore - Rose Royce
12 Strawberry Letter 23 - Shuggie Otis
13 You Make Me Feel Brand New - The Stylistics
14 Me and Mrs. Jones - Billy Paul
15 If You Don't Know Me by Now - Harold Melvin & The Blue Notes feat. Teddy Pendergrass
16 Back Stabbers - The O'Jays
17 Give Me Just a Little More Time - Chairmen Of The Board
18 Lost In Music - Sister Sledge
19 Saturday Night, Sunday Morning - Thelma Houston
20 Lovely Day - Bill Withers
Exact Audio Copy V1.3 from 2. September 2016

EAC extraction logfile from 23. June 2019, 11:24

Various Artists / 70s Soul Jams

Used drive : PLEXTOR PX-891SAF Adapter: 1 ID: 0

Read mode : Secure
Utilize accurate stream : Yes
Defeat audio cache : Yes
Make use of C2 pointers : No

Read offset correction : 6
Overread into Lead-In and Lead-Out : No
Fill up missing offset samples with silence : Yes
Delete leading and trailing silent blocks : No
Null samples used in CRC calculations : Yes
Used interface : Native Win32 interface for Win NT & 2000
Gap handling : Appended to previous track

Used output format : User Defined Encoder
Selected bitrate : 1024 kBit/s
Quality : High
Add ID3 tag : No
Command line compressor : C:\Program Files (x86)\Exact Audio Copy\Flac\flac.exe
Additional command line options : -8 -V -T "ARTIST=%artist%" -T "TITLE=%title%" -T "ALBUM=%albumtitle%" -T "DATE=%year%" -T "TRACKNUMBER=%tracknr%" -T "GENRE=%genre%" -T "PERFORMER=%albuminterpret%" -T "COMPOSER=%composer%" %haslyrics%–tag-from-file=LYRICS="%lyricsfile%"%haslyrics% -T "ALBUMARTIST=%albumartist%" -T "DISCNUMBER=%cdnumber%" -T "TOTALDISCS=%totalcds%" -T "TOTALTRACKS=%numtracks%" -T "COMMENT=%comment%" %source% -o %dest%


TOC of the extracted CD

Track | Start | Length | Start sector | End sector
––––––––––––––––––––––––––––-
1 | 0:00.00 | 4:38.31 | 0 | 20880
2 | 4:38.31 | 3:21.14 | 20881 | 35969
3 | 7:59.45 | 3:31.70 | 35970 | 51864
4 | 11:31.40 | 3:44.03 | 51865 | 68667
5 | 15:15.43 | 3:42.30 | 68668 | 85347
6 | 18:57.73 | 3:46.30 | 85348 | 102327
7 | 22:44.28 | 3:34.14 | 102328 | 118391
8 | 26:18.42 | 3:39.17 | 118392 | 134833
9 | 29:57.59 | 3:48.27 | 134834 | 151960
10 | 33:46.11 | 3:42.17 | 151961 | 168627
11 | 37:28.28 | 2:51.14 | 168628 | 181466
12 | 40:19.42 | 4:25.58 | 181467 | 201399
13 | 44:45.25 | 4:01.28 | 201400 | 219502
14 | 48:46.53 | 3:54.61 | 219503 | 237113
15 | 52:41.39 | 4:56.06 | 237114 | 259319
16 | 57:37.45 | 4:14.65 | 259320 | 278434
17 | 61:52.35 | 3:26.51 | 278435 | 293935
18 | 65:19.11 | 3:49.59 | 293936 | 311169
19 | 69:08.70 | 3:05.27 | 311170 | 325071
20 | 72:14.22 | 4:03.07 | 325072 | 343303


Track 1

Filename D:\#New wav + flac\VA - 70s Soul Jams\cd 1\01. Earth, Wind & Fire Feat. The Emotions - Boogie Wonderland.wav

Pre-gap length 0:00:02.00

Peak level 98.8 %
Extraction speed 5.9 X
Track quality 100.0 %
Test CRC 0C895DAF
Copy CRC 0C895DAF
Accurately ripped (confidence 3) [8D5C086B] (AR v2)
Copy OK

Track 2

Filename D:\#New wav + flac\VA - 70s Soul Jams\cd 1\02. Kool & the Gang - Ladies Night.wav

Peak level 98.8 %
Extraction speed 4.9 X
Track quality 99.9 %
Test CRC E0D7FB0E
Copy CRC E0D7FB0E
Accurately ripped (confidence 3) [FA5075FC] (AR v2)
Copy OK

Track 3

Filename D:\#New wav + flac\VA - 70s Soul Jams\cd 1\03. Chic - Good Times.wav

Peak level 98.8 %
Extraction speed 6.5 X
Track quality 100.0 %
Test CRC 5EE0C426
Copy CRC 5EE0C426
Accurately ripped (confidence 3) [5047FAB3] (AR v2)
Copy OK

Track 4

Filename D:\#New wav + flac\VA - 70s Soul Jams\cd 1\04. Cheryl Lynn - Got to Be Real.wav

Peak level 98.8 %
Extraction speed 7.0 X
Track quality 100.0 %
Test CRC 0C53EAF6
Copy CRC 0C53EAF6
Accurately ripped (confidence 3) [1FCD765C] (AR v2)
Copy OK

Track 5

Filename D:\#New wav + flac\VA - 70s Soul Jams\cd 1\05. McFadden & Whitehead - Ain't No Stoppin' Us Now.wav

Peak level 98.8 %
Extraction speed 5.9 X
Track quality 99.9 %
Test CRC CA361590
Copy CRC CA361590
Accurately ripped (confidence 3) [61E70635] (AR v2)
Copy OK

Track 6

Filename D:\#New wav + flac\VA - 70s Soul Jams\cd 1\06. Heatwave - Boogie Nights.wav

Peak level 98.8 %
Extraction speed 6.2 X
Track quality 99.9 %
Test CRC 49B89A2C
Copy CRC 49B89A2C
Accurately ripped (confidence 3) [196CE98B] (AR v2)
Copy OK

Track 7

Filename D:\#New wav + flac\VA - 70s Soul Jams\cd 1\07. The Gap Band - Oops Upside Your Head.wav

Peak level 98.8 %
Extraction speed 7.9 X
Track quality 100.0 %
Test CRC 4C848EF1
Copy CRC 4C848EF1
Accurately ripped (confidence 3) [279BA22E] (AR v2)
Copy OK

Track 8

Filename D:\#New wav + flac\VA - 70s Soul Jams\cd 1\08. The Emotions - Best of My Love.wav

Peak level 98.8 %
Extraction speed 8.3 X
Track quality 100.0 %
Test CRC 559E8B60
Copy CRC 559E8B60
Accurately ripped (confidence 3) [5BB47A75] (AR v2)
Copy OK

Track 9

Filename D:\#New wav + flac\VA - 70s Soul Jams\cd 1\09. Frantique - Strut Your Funky Stuff.wav

Peak level 98.8 %
Extraction speed 8.6 X
Track quality 100.0 %
Test CRC 6F73A9BE
Copy CRC 6F73A9BE
Accurately ripped (confidence 3) [2E6597DB] (AR v2)
Copy OK

Track 10

Filename D:\#New wav + flac\VA - 70s Soul Jams\cd 1\10. The Trammps - Disco Inferno.wav

Peak level 98.8 %
Extraction speed 8.8 X
Track quality 100.0 %
Test CRC 6F1BEAEA
Copy CRC 6F1BEAEA
Accurately ripped (confidence 3) [2310FBB9] (AR v2)
Copy OK

Track 11

Filename D:\#New wav + flac\VA - 70s Soul Jams\cd 1\11. Evelyn ''Champagne'' King - Shame.wav

Peak level 98.8 %
Extraction speed 8.7 X
Track quality 100.0 %
Test CRC 0AD39793
Copy CRC 0AD39793
Accurately ripped (confidence 3) [26E6C5E0] (AR v2)
Copy OK

Track 12

Filename D:\#New wav + flac\VA - 70s Soul Jams\cd 1\12. Anita Ward - Ring My Bell.wav

Peak level 98.8 %
Extraction speed 9.6 X
Track quality 100.0 %
Test CRC DAA2A63C
Copy CRC DAA2A63C
Accurately ripped (confidence 3) [053F263C] (AR v2)
Copy OK

Track 13

Filename D:\#New wav + flac\VA - 70s Soul Jams\cd 1\13. Candi Staton - Young Hearts Run Free.wav

Peak level 98.8 %
Extraction speed 7.9 X
Track quality 99.9 %
Test CRC 2B71607E
Copy CRC 2B71607E
Accurately ripped (confidence 3) [577E6822] (AR v2)
Copy OK

Track 14

Filename D:\#New wav + flac\VA - 70s Soul Jams\cd 1\14. Phyllis Hyman - You Know How to Love Me.wav

Peak level 98.8 %
Extraction speed 9.9 X
Track quality 100.0 %
Test CRC B99F97F4
Copy CRC B99F97F4
Accurately ripped (confidence 3) [1B4BBB6B] (AR v2)
Copy OK

Track 15

Filename D:\#New wav + flac\VA - 70s Soul Jams\cd 1\15. The Whispers - And The Beat Goes On.wav

Peak level 98.8 %
Extraction speed 10.6 X
Track quality 100.0 %
Test CRC 94A9B739
Copy CRC 94A9B739
Accurately ripped (confidence 3) [9B62E901] (AR v2)
Copy OK

Track 16

Filename D:\#New wav + flac\VA - 70s Soul Jams\cd 1\16. Archie Bell & The Drells - Don't Let Love Get You Down.wav

Peak level 98.8 %
Extraction speed 10.6 X
Track quality 100.0 %
Test CRC 50A835BC
Copy CRC 50A835BC
Accurately ripped (confidence 3) [93318842] (AR v2)
Copy OK

Track 17

Filename D:\#New wav + flac\VA - 70s Soul Jams\cd 1\17. Odyssey - Native New Yorker.wav

Peak level 98.8 %
Extraction speed 10.4 X
Track quality 100.0 %
Test CRC F0444297
Copy CRC F0444297
Accurately ripped (confidence 3) [7AC2565B] (AR v2)
Copy OK

Track 18

Filename D:\#New wav + flac\VA - 70s Soul Jams\cd 1\18. Average White Band - Pick Up the Pieces.wav

Peak level 98.8 %
Extraction speed 10.9 X
Track quality 100.0 %
Test CRC 81B06257
Copy CRC 81B06257
Accurately ripped (confidence 3) [20DACD32] (AR v2)
Copy OK

Track 19

Filename D:\#New wav + flac\VA - 70s Soul Jams\cd 1\19. The O'Jays - Love Train.wav

Peak level 98.8 %
Extraction speed 10.8 X
Track quality 100.0 %
Test CRC E8203C6D
Copy CRC E8203C6D
Accurately ripped (confidence 3) [FBC67C8F] (AR v2)
Copy OK

Track 20

Filename D:\#New wav + flac\VA - 70s Soul Jams\cd 1\20. Curtis Mayfield - Move On Up.wav

Peak level 98.8 %
Extraction speed 11.3 X
Track quality 100.0 %
Test CRC B1FB8ACA
Copy CRC B1FB8ACA
Accurately ripped (confidence 3) [3841050F] (AR v2)
Copy OK


All tracks accurately ripped

No errors occurred

End of status report

–– CUETools DB Plugin V2.1.6

[CTDB TOCID: q9T6wdU.G38empd.qb4RXQ3tgt4-] found
Submit result: q9T6wdU.G38empd.qb4RXQ3tgt4- has been confirmed
Track | CTDB Status
1 | (4/4) Accurately ripped
2 | (4/4) Accurately ripped
3 | (4/4) Accurately ripped
4 | (4/4) Accurately ripped
5 | (4/4) Accurately ripped
6 | (4/4) Accurately ripped
7 | (4/4) Accurately ripped
8 | (4/4) Accurately ripped
9 | (4/4) Accurately ripped
10 | (4/4) Accurately ripped
11 | (4/4) Accurately ripped
12 | (4/4) Accurately ripped
13 | (4/4) Accurately ripped
14 | (4/4) Accurately ripped
15 | (4/4) Accurately ripped
16 | (4/4) Accurately ripped
17 | (4/4) Accurately ripped
18 | (4/4) Accurately ripped
19 | (4/4) Accurately ripped
20 | (4/4) Accurately ripped


==== Log checksum 756E6D501A7AB0B9E9CE7BE77B17338F0D91E3DC2347D5CD7F2B8A84CC7A6C36 ====

––––––––––––––––––––––––––––––

Exact Audio Copy V1.3 from 2. September 2016

EAC extraction logfile from 23. June 2019, 11:24

Various Artists / 70s Soul Jams

Used drive : PLEXTOR PX-891SAF Adapter: 1 ID: 0

Read mode : Secure
Utilize accurate stream : Yes
Defeat audio cache : Yes
Make use of C2 pointers : No

Read offset correction : 6
Overread into Lead-In and Lead-Out : No
Fill up missing offset samples with silence : Yes
Delete leading and trailing silent blocks : No
Null samples used in CRC calculations : Yes
Used interface : Native Win32 interface for Win NT & 2000
Gap handling : Appended to previous track

Used output format : User Defined Encoder
Selected bitrate : 1024 kBit/s
Quality : High
Add ID3 tag : No
Command line compressor : C:\Program Files (x86)\Exact Audio Copy\Flac\flac.exe
Additional command line options : -8 -V -T "ARTIST=%artist%" -T "TITLE=%title%" -T "ALBUM=%albumtitle%" -T "DATE=%year%" -T "TRACKNUMBER=%tracknr%" -T "GENRE=%genre%" -T "PERFORMER=%albuminterpret%" -T "COMPOSER=%composer%" %haslyrics%–tag-from-file=LYRICS="%lyricsfile%"%haslyrics% -T "ALBUMARTIST=%albumartist%" -T "DISCNUMBER=%cdnumber%" -T "TOTALDISCS=%totalcds%" -T "TOTALTRACKS=%numtracks%" -T "COMMENT=%comment%" %source% -o %dest%


TOC of the extracted CD

Track | Start | Length | Start sector | End sector
––––––––––––––––––––––––––––-
1 | 0:00.00 | 4:38.31 | 0 | 20880
2 | 4:38.31 | 3:21.14 | 20881 | 35969
3 | 7:59.45 | 3:31.70 | 35970 | 51864
4 | 11:31.40 | 3:44.03 | 51865 | 68667
5 | 15:15.43 | 3:42.30 | 68668 | 85347
6 | 18:57.73 | 3:46.30 | 85348 | 102327
7 | 22:44.28 | 3:34.14 | 102328 | 118391
8 | 26:18.42 | 3:39.17 | 118392 | 134833
9 | 29:57.59 | 3:48.27 | 134834 | 151960
10 | 33:46.11 | 3:42.17 | 151961 | 168627
11 | 37:28.28 | 2:51.14 | 168628 | 181466
12 | 40:19.42 | 4:25.58 | 181467 | 201399
13 | 44:45.25 | 4:01.28 | 201400 | 219502
14 | 48:46.53 | 3:54.61 | 219503 | 237113
15 | 52:41.39 | 4:56.06 | 237114 | 259319
16 | 57:37.45 | 4:14.65 | 259320 | 278434
17 | 61:52.35 | 3:26.51 | 278435 | 293935
18 | 65:19.11 | 3:49.59 | 293936 | 311169
19 | 69:08.70 | 3:05.27 | 311170 | 325071
20 | 72:14.22 | 4:03.07 | 325072 | 343303


Track 1

Filename D:\#New wav + flac\VA - 70s Soul Jams\cd 1\01. Earth, Wind & Fire Feat. The Emotions - Boogie Wonderland.wav

Pre-gap length 0:00:02.00

Peak level 98.8 %
Extraction speed 5.9 X
Track quality 100.0 %
Test CRC 0C895DAF
Copy CRC 0C895DAF
Accurately ripped (confidence 3) [8D5C086B] (AR v2)
Copy OK

Track 2

Filename D:\#New wav + flac\VA - 70s Soul Jams\cd 1\02. Kool & the Gang - Ladies Night.wav

Peak level 98.8 %
Extraction speed 4.9 X
Track quality 99.9 %
Test CRC E0D7FB0E
Copy CRC E0D7FB0E
Accurately ripped (confidence 3) [FA5075FC] (AR v2)
Copy OK

Track 3

Filename D:\#New wav + flac\VA - 70s Soul Jams\cd 1\03. Chic - Good Times.wav

Peak level 98.8 %
Extraction speed 6.5 X
Track quality 100.0 %
Test CRC 5EE0C426
Copy CRC 5EE0C426
Accurately ripped (confidence 3) [5047FAB3] (AR v2)
Copy OK

Track 4

Filename D:\#New wav + flac\VA - 70s Soul Jams\cd 1\04. Cheryl Lynn - Got to Be Real.wav

Peak level 98.8 %
Extraction speed 7.0 X
Track quality 100.0 %
Test CRC 0C53EAF6
Copy CRC 0C53EAF6
Accurately ripped (confidence 3) [1FCD765C] (AR v2)
Copy OK

Track 5

Filename D:\#New wav + flac\VA - 70s Soul Jams\cd 1\05. McFadden & Whitehead - Ain't No Stoppin' Us Now.wav

Peak level 98.8 %
Extraction speed 5.9 X
Track quality 99.9 %
Test CRC CA361590
Copy CRC CA361590
Accurately ripped (confidence 3) [61E70635] (AR v2)
Copy OK

Track 6

Filename D:\#New wav + flac\VA - 70s Soul Jams\cd 1\06. Heatwave - Boogie Nights.wav

Peak level 98.8 %
Extraction speed 6.2 X
Track quality 99.9 %
Test CRC 49B89A2C
Copy CRC 49B89A2C
Accurately ripped (confidence 3) [196CE98B] (AR v2)
Copy OK

Track 7

Filename D:\#New wav + flac\VA - 70s Soul Jams\cd 1\07. The Gap Band - Oops Upside Your Head.wav

Peak level 98.8 %
Extraction speed 7.9 X
Track quality 100.0 %
Test CRC 4C848EF1
Copy CRC 4C848EF1
Accurately ripped (confidence 3) [279BA22E] (AR v2)
Copy OK

Track 8

Filename D:\#New wav + flac\VA - 70s Soul Jams\cd 1\08. The Emotions - Best of My Love.wav

Peak level 98.8 %
Extraction speed 8.3 X
Track quality 100.0 %
Test CRC 559E8B60
Copy CRC 559E8B60
Accurately ripped (confidence 3) [5BB47A75] (AR v2)
Copy OK

Track 9

Filename D:\#New wav + flac\VA - 70s Soul Jams\cd 1\09. Frantique - Strut Your Funky Stuff.wav

Peak level 98.8 %
Extraction speed 8.6 X
Track quality 100.0 %
Test CRC 6F73A9BE
Copy CRC 6F73A9BE
Accurately ripped (confidence 3) [2E6597DB] (AR v2)
Copy OK

Track 10

Filename D:\#New wav + flac\VA - 70s Soul Jams\cd 1\10. The Trammps - Disco Inferno.wav

Peak level 98.8 %
Extraction speed 8.8 X
Track quality 100.0 %
Test CRC 6F1BEAEA
Copy CRC 6F1BEAEA
Accurately ripped (confidence 3) [2310FBB9] (AR v2)
Copy OK

Track 11

Filename D:\#New wav + flac\VA - 70s Soul Jams\cd 1\11. Evelyn ''Champagne'' King - Shame.wav

Peak level 98.8 %
Extraction speed 8.7 X
Track quality 100.0 %
Test CRC 0AD39793
Copy CRC 0AD39793
Accurately ripped (confidence 3) [26E6C5E0] (AR v2)
Copy OK

Track 12

Filename D:\#New wav + flac\VA - 70s Soul Jams\cd 1\12. Anita Ward - Ring My Bell.wav

Peak level 98.8 %
Extraction speed 9.6 X
Track quality 100.0 %
Test CRC DAA2A63C
Copy CRC DAA2A63C
Accurately ripped (confidence 3) [053F263C] (AR v2)
Copy OK

Track 13

Filename D:\#New wav + flac\VA - 70s Soul Jams\cd 1\13. Candi Staton - Young Hearts Run Free.wav

Peak level 98.8 %
Extraction speed 7.9 X
Track quality 99.9 %
Test CRC 2B71607E
Copy CRC 2B71607E
Accurately ripped (confidence 3) [577E6822] (AR v2)
Copy OK

Track 14

Filename D:\#New wav + flac\VA - 70s Soul Jams\cd 1\14. Phyllis Hyman - You Know How to Love Me.wav

Peak level 98.8 %
Extraction speed 9.9 X
Track quality 100.0 %
Test CRC B99F97F4
Copy CRC B99F97F4
Accurately ripped (confidence 3) [1B4BBB6B] (AR v2)
Copy OK

Track 15

Filename D:\#New wav + flac\VA - 70s Soul Jams\cd 1\15. The Whispers - And The Beat Goes On.wav

Peak level 98.8 %
Extraction speed 10.6 X
Track quality 100.0 %
Test CRC 94A9B739
Copy CRC 94A9B739
Accurately ripped (confidence 3) [9B62E901] (AR v2)
Copy OK

Track 16

Filename D:\#New wav + flac\VA - 70s Soul Jams\cd 1\16. Archie Bell & The Drells - Don't Let Love Get You Down.wav

Peak level 98.8 %
Extraction speed 10.6 X
Track quality 100.0 %
Test CRC 50A835BC
Copy CRC 50A835BC
Accurately ripped (confidence 3) [93318842] (AR v2)
Copy OK

Track 17

Filename D:\#New wav + flac\VA - 70s Soul Jams\cd 1\17. Odyssey - Native New Yorker.wav

Peak level 98.8 %
Extraction speed 10.4 X
Track quality 100.0 %
Test CRC F0444297
Copy CRC F0444297
Accurately ripped (confidence 3) [7AC2565B] (AR v2)
Copy OK

Track 18

Filename D:\#New wav + flac\VA - 70s Soul Jams\cd 1\18. Average White Band - Pick Up the Pieces.wav

Peak level 98.8 %
Extraction speed 10.9 X
Track quality 100.0 %
Test CRC 81B06257
Copy CRC 81B06257
Accurately ripped (confidence 3) [20DACD32] (AR v2)
Copy OK

Track 19

Filename D:\#New wav + flac\VA - 70s Soul Jams\cd 1\19. The O'Jays - Love Train.wav

Peak level 98.8 %
Extraction speed 10.8 X
Track quality 100.0 %
Test CRC E8203C6D
Copy CRC E8203C6D
Accurately ripped (confidence 3) [FBC67C8F] (AR v2)
Copy OK

Track 20

Filename D:\#New wav + flac\VA - 70s Soul Jams\cd 1\20. Curtis Mayfield - Move On Up.wav

Peak level 98.8 %
Extraction speed 11.3 X
Track quality 100.0 %
Test CRC B1FB8ACA
Copy CRC B1FB8ACA
Accurately ripped (confidence 3) [3841050F] (AR v2)
Copy OK


All tracks accurately ripped

No errors occurred

End of status report

–– CUETools DB Plugin V2.1.6

[CTDB TOCID: q9T6wdU.G38empd.qb4RXQ3tgt4-] found
Submit result: q9T6wdU.G38empd.qb4RXQ3tgt4- has been confirmed
Track | CTDB Status
1 | (4/4) Accurately ripped
2 | (4/4) Accurately ripped
3 | (4/4) Accurately ripped
4 | (4/4) Accurately ripped
5 | (4/4) Accurately ripped
6 | (4/4) Accurately ripped
7 | (4/4) Accurately ripped
8 | (4/4) Accurately ripped
9 | (4/4) Accurately ripped
10 | (4/4) Accurately ripped
11 | (4/4) Accurately ripped
12 | (4/4) Accurately ripped
13 | (4/4) Accurately ripped
14 | (4/4) Accurately ripped
15 | (4/4) Accurately ripped
16 | (4/4) Accurately ripped
17 | (4/4) Accurately ripped
18 | (4/4) Accurately ripped
19 | (4/4) Accurately ripped
20 | (4/4) Accurately ripped


==== Log checksum 756E6D501A7AB0B9E9CE7BE77B17338F0D91E3DC2347D5CD7F2B8A84CC7A6C36 ====


Exact Audio Copy V1.3 from 2. September 2016

EAC extraction logfile from 23. June 2019, 12:10

Various Artists / 70s Soul Jams

Used drive : PLEXTOR PX-891SAF Adapter: 1 ID: 0

Read mode : Secure
Utilize accurate stream : Yes
Defeat audio cache : Yes
Make use of C2 pointers : No

Read offset correction : 6
Overread into Lead-In and Lead-Out : No
Fill up missing offset samples with silence : Yes
Delete leading and trailing silent blocks : No
Null samples used in CRC calculations : Yes
Used interface : Native Win32 interface for Win NT & 2000
Gap handling : Appended to previous track

Used output format : User Defined Encoder
Selected bitrate : 1024 kBit/s
Quality : High
Add ID3 tag : No
Command line compressor : C:\Program Files (x86)\Exact Audio Copy\Flac\flac.exe
Additional command line options : -8 -V -T "ARTIST=%artist%" -T "TITLE=%title%" -T "ALBUM=%albumtitle%" -T "DATE=%year%" -T "TRACKNUMBER=%tracknr%" -T "GENRE=%genre%" -T "PERFORMER=%albuminterpret%" -T "COMPOSER=%composer%" %haslyrics%–tag-from-file=LYRICS="%lyricsfile%"%haslyrics% -T "ALBUMARTIST=%albumartist%" -T "DISCNUMBER=%cdnumber%" -T "TOTALDISCS=%totalcds%" -T "TOTALTRACKS=%numtracks%" -T "COMMENT=%comment%" %source% -o %dest%


TOC of the extracted CD

Track | Start | Length | Start sector | End sector
––––––––––––––––––––––––––––-
1 | 0:00.00 | 3:57.33 | 0 | 17807
2 | 3:57.33 | 4:05.53 | 17808 | 36235
3 | 8:03.11 | 4:29.37 | 36236 | 56447
4 | 12:32.48 | 3:07.25 | 56448 | 70497
5 | 15:39.73 | 3:30.71 | 70498 | 86318
6 | 19:10.69 | 3:07.20 | 86319 | 100363
7 | 22:18.14 | 3:30.25 | 100364 | 116138
8 | 25:48.39 | 4:36.11 | 116139 | 136849
9 | 30:24.50 | 5:11.40 | 136850 | 160214
10 | 35:36.15 | 3:29.23 | 160215 | 175912
11 | 39:05.38 | 3:50.28 | 175913 | 193190
12 | 42:55.66 | 3:48.68 | 193191 | 210358
13 | 46:44.59 | 4:46.21 | 210359 | 231829
14 | 51:31.05 | 4:37.19 | 231830 | 252623
15 | 56:08.24 | 3:18.71 | 252624 | 267544
16 | 59:27.20 | 2:56.45 | 267545 | 280789
17 | 62:23.65 | 2:47.15 | 280790 | 293329
18 | 65:11.05 | 4:32.03 | 293330 | 313732
19 | 69:43.08 | 3:51.65 | 313733 | 331122
20 | 73:34.73 | 4:11.50 | 331123 | 349997


Track 1

Filename D:\#New wav + flac\VA - 70s Soul Jams\cd 3\01. Marvin Gaye - Got to Give it Up.wav

Pre-gap length 0:00:02.00

Peak level 98.8 %
Extraction speed 5.7 X
Track quality 100.0 %
Test CRC 69A1E1B4
Copy CRC 69A1E1B4
Accurately ripped (confidence 3) [1951F426] (AR v2)
Copy OK

Track 2

Filename D:\#New wav + flac\VA - 70s Soul Jams\cd 3\02. Commodores - Easy.wav

Peak level 98.8 %
Extraction speed 6.2 X
Track quality 100.0 %
Test CRC 9CA6A259
Copy CRC 9CA6A259
Accurately ripped (confidence 3) [E6422461] (AR v2)
Copy OK

Track 3

Filename D:\#New wav + flac\VA - 70s Soul Jams\cd 3\03. Earth, Wind & Fire - Fantasy.wav

Peak level 98.8 %
Extraction speed 6.8 X
Track quality 100.0 %
Test CRC FC9B218C
Copy CRC FC9B218C
Accurately ripped (confidence 3) [DD0F3F15] (AR v2)
Copy OK

Track 4

Filename D:\#New wav + flac\VA - 70s Soul Jams\cd 3\04. Al Green - Let's Stay Together.wav

Peak level 98.8 %
Extraction speed 6.8 X
Track quality 100.0 %
Test CRC 6B5D665C
Copy CRC 6B5D665C
Accurately ripped (confidence 3) [F39C5056] (AR v2)
Copy OK

Track 5

Filename D:\#New wav + flac\VA - 70s Soul Jams\cd 3\05. Daryl Hall & John Oates - She's Gone.wav

Peak level 98.8 %
Extraction speed 7.3 X
Track quality 100.0 %
Test CRC 657F0C81
Copy CRC 657F0C81
Accurately ripped (confidence 3) [63E188A6] (AR v2)
Copy OK

Track 6

Filename D:\#New wav + flac\VA - 70s Soul Jams\cd 3\06. The Isley Brothers - Summer Breeze (Part 1).wav

Peak level 98.8 %
Extraction speed 7.3 X
Track quality 100.0 %
Test CRC 6AD0A28B
Copy CRC 6AD0A28B
Accurately ripped (confidence 3) [4802DAA5] (AR v2)
Copy OK

Track 7

Filename D:\#New wav + flac\VA - 70s Soul Jams\cd 3\07. Heatwave - Always & Forever.wav

Peak level 98.8 %
Extraction speed 7.8 X
Track quality 100.0 %
Test CRC 23B3340E
Copy CRC 23B3340E
Accurately ripped (confidence 3) [C235354A] (AR v2)
Copy OK

Track 8

Filename D:\#New wav + flac\VA - 70s Soul Jams\cd 3\08. Gladys Knight & The Pips - Midnight Train to Georgia.wav

Peak level 98.8 %
Extraction speed 8.5 X
Track quality 100.0 %
Test CRC 7B00782A
Copy CRC 7B00782A
Accurately ripped (confidence 3) [C0051FBD] (AR v2)
Copy OK

Track 9

Filename D:\#New wav + flac\VA - 70s Soul Jams\cd 3\09. Toto Feat. Cheryl Lynn - Georgy Porgy.wav

Peak level 98.8 %
Extraction speed 8.9 X
Track quality 100.0 %
Test CRC 3509D8DF
Copy CRC 3509D8DF
Accurately ripped (confidence 3) [94836F8C] (AR v2)
Copy OK

Track 10

Filename D:\#New wav + flac\VA - 70s Soul Jams\cd 3\10. Teddy Pendergrass - Close the Door.wav

Peak level 98.8 %
Extraction speed 8.9 X
Track quality 100.0 %
Test CRC 406685AA
Copy CRC 406685AA
Accurately ripped (confidence 3) [36F8EA05] (AR v2)
Copy OK

Track 11

Filename D:\#New wav + flac\VA - 70s Soul Jams\cd 3\11. Rose Royce - Love Don't Live Here Anymore.wav

Peak level 98.8 %
Extraction speed 7.5 X
Track quality 99.9 %
Test CRC 26870F6D
Copy CRC 26870F6D
Accurately ripped (confidence 3) [BDBAC599] (AR v2)
Copy OK

Track 12

Filename D:\#New wav + flac\VA - 70s Soul Jams\cd 3\12. Shuggie Otis - Strawberry Letter 23.wav

Peak level 98.8 %
Extraction speed 9.6 X
Track quality 100.0 %
Test CRC 2F4AF7BF
Copy CRC 2F4AF7BF
Accurately ripped (confidence 3) [F3D28130] (AR v2)
Copy OK

Track 13

Filename D:\#New wav + flac\VA - 70s Soul Jams\cd 3\13. The Stylistics - You Make Me Feel Brand New.wav

Peak level 98.8 %
Extraction speed 10.1 X
Track quality 100.0 %
Test CRC 66ACDE6F
Copy CRC 66ACDE6F
Accurately ripped (confidence 3) [1557866C] (AR v2)
Copy OK

Track 14

Filename D:\#New wav + flac\VA - 70s Soul Jams\cd 3\14. Billy Paul - Me & Mrs. Jones.wav

Peak level 98.8 %
Extraction speed 10.4 X
Track quality 100.0 %
Test CRC F1ED50AC
Copy CRC F1ED50AC
Accurately ripped (confidence 3) [1DC2DE11] (AR v2)
Copy OK

Track 15

Filename D:\#New wav + flac\VA - 70s Soul Jams\cd 3\15. Harold Melvin & The Blue Notes - If You Don't Know Me By Now.wav

Peak level 98.8 %
Extraction speed 10.2 X
Track quality 100.0 %
Test CRC 3F120C8D
Copy CRC 3F120C8D
Accurately ripped (confidence 3) [942702B5] (AR v2)
Copy OK

Track 16

Filename D:\#New wav + flac\VA - 70s Soul Jams\cd 3\16. The O'Jays - Back Stabbers.wav

Peak level 98.8 %
Extraction speed 7.9 X
Track quality 99.9 %
Test CRC 93BD8285
Copy CRC 93BD8285
Accurately ripped (confidence 3) [F289B1AE] (AR v2)
Copy OK

Track 17

Filename D:\#New wav + flac\VA - 70s Soul Jams\cd 3\17. Chairmen of the Board - Give Me Just a Little More Time.wav

Peak level 98.8 %
Extraction speed 10.3 X
Track quality 100.0 %
Test CRC 6D5DA661
Copy CRC 6D5DA661
Accurately ripped (confidence 3) [7CC6FA7D] (AR v2)
Copy OK

Track 18

Filename D:\#New wav + flac\VA - 70s Soul Jams\cd 3\18. Sister Sledge - Lost in Music.wav

Peak level 98.8 %
Extraction speed 11.2 X
Track quality 100.0 %
Test CRC 6D7E3B58
Copy CRC 6D7E3B58
Accurately ripped (confidence 3) [443E7F08] (AR v2)
Copy OK

Track 19

Filename D:\#New wav + flac\VA - 70s Soul Jams\cd 3\19. Thelma Houston - Saturday Night, Sunday Morning.wav

Peak level 98.8 %
Extraction speed 11.1 X
Track quality 100.0 %
Test CRC 767BDFD8
Copy CRC 767BDFD8
Accurately ripped (confidence 3) [2559F0E3] (AR v2)
Copy OK

Track 20

Filename D:\#New wav + flac\VA - 70s Soul Jams\cd 3\20. Bill Withers - Lovely Day.wav

Peak level 98.8 %
Extraction speed 9.4 X
Track quality 99.9 %
Test CRC 5BB3DEAA
Copy CRC 5BB3DEAA
Accurately ripped (confidence 3) [870AE1B8] (AR v2)
Copy OK


All tracks accurately ripped

No errors occurred

End of status report

–– CUETools DB Plugin V2.1.6

[CTDB TOCID: Li8iVhIiSQF.95QC.KkFhkzyRL0-] found
Submit result: Li8iVhIiSQF.95QC.KkFhkzyRL0- has been confirmed
Track | CTDB Status
1 | (4/4) Accurately ripped
2 | (4/4) Accurately ripped
3 | (4/4) Accurately ripped
4 | (4/4) Accurately ripped
5 | (4/4) Accurately ripped
6 | (4/4) Accurately ripped
7 | (4/4) Accurately ripped
8 | (4/4) Accurately ripped
9 | (4/4) Accurately ripped
10 | (4/4) Accurately ripped
11 | (4/4) Accurately ripped
12 | (4/4) Accurately ripped
13 | (4/4) Accurately ripped
14 | (4/4) Accurately ripped
15 | (4/4) Accurately ripped
16 | (4/4) Accurately ripped
17 | (4/4) Accurately ripped
18 | (4/4) Accurately ripped
19 | (4/4) Accurately ripped
20 | (4/4) Accurately ripped


==== Log checksum A570FB35BEA7AF456A7A3D97D049357FC67C52AD5AC38C0F74C6B05220C7A0F7 ====

––––––––––––––––––––––––––––––

Exact Audio Copy V1.3 from 2. September 2016

EAC extraction logfile from 23. June 2019, 12:10

Various Artists / 70s Soul Jams

Used drive : PLEXTOR PX-891SAF Adapter: 1 ID: 0

Read mode : Secure
Utilize accurate stream : Yes
Defeat audio cache : Yes
Make use of C2 pointers : No

Read offset correction : 6
Overread into Lead-In and Lead-Out : No
Fill up missing offset samples with silence : Yes
Delete leading and trailing silent blocks : No
Null samples used in CRC calculations : Yes
Used interface : Native Win32 interface for Win NT & 2000
Gap handling : Appended to previous track

Used output format : User Defined Encoder
Selected bitrate : 1024 kBit/s
Quality : High
Add ID3 tag : No
Command line compressor : C:\Program Files (x86)\Exact Audio Copy\Flac\flac.exe
Additional command line options : -8 -V -T "ARTIST=%artist%" -T "TITLE=%title%" -T "ALBUM=%albumtitle%" -T "DATE=%year%" -T "TRACKNUMBER=%tracknr%" -T "GENRE=%genre%" -T "PERFORMER=%albuminterpret%" -T "COMPOSER=%composer%" %haslyrics%–tag-from-file=LYRICS="%lyricsfile%"%haslyrics% -T "ALBUMARTIST=%albumartist%" -T "DISCNUMBER=%cdnumber%" -T "TOTALDISCS=%totalcds%" -T "TOTALTRACKS=%numtracks%" -T "COMMENT=%comment%" %source% -o %dest%


TOC of the extracted CD

Track | Start | Length | Start sector | End sector
––––––––––––––––––––––––––––-
1 | 0:00.00 | 3:57.33 | 0 | 17807
2 | 3:57.33 | 4:05.53 | 17808 | 36235
3 | 8:03.11 | 4:29.37 | 36236 | 56447
4 | 12:32.48 | 3:07.25 | 56448 | 70497
5 | 15:39.73 | 3:30.71 | 70498 | 86318
6 | 19:10.69 | 3:07.20 | 86319 | 100363
7 | 22:18.14 | 3:30.25 | 100364 | 116138
8 | 25:48.39 | 4:36.11 | 116139 | 136849
9 | 30:24.50 | 5:11.40 | 136850 | 160214
10 | 35:36.15 | 3:29.23 | 160215 | 175912
11 | 39:05.38 | 3:50.28 | 175913 | 193190
12 | 42:55.66 | 3:48.68 | 193191 | 210358
13 | 46:44.59 | 4:46.21 | 210359 | 231829
14 | 51:31.05 | 4:37.19 | 231830 | 252623
15 | 56:08.24 | 3:18.71 | 252624 | 267544
16 | 59:27.20 | 2:56.45 | 267545 | 280789
17 | 62:23.65 | 2:47.15 | 280790 | 293329
18 | 65:11.05 | 4:32.03 | 293330 | 313732
19 | 69:43.08 | 3:51.65 | 313733 | 331122
20 | 73:34.73 | 4:11.50 | 331123 | 349997


Track 1

Filename D:\#New wav + flac\VA - 70s Soul Jams\cd 3\01. Marvin Gaye - Got to Give it Up.wav

Pre-gap length 0:00:02.00

Peak level 98.8 %
Extraction speed 5.7 X
Track quality 100.0 %
Test CRC 69A1E1B4
Copy CRC 69A1E1B4
Accurately ripped (confidence 3) [1951F426] (AR v2)
Copy OK

Track 2

Filename D:\#New wav + flac\VA - 70s Soul Jams\cd 3\02. Commodores - Easy.wav

Peak level 98.8 %
Extraction speed 6.2 X
Track quality 100.0 %
Test CRC 9CA6A259
Copy CRC 9CA6A259
Accurately ripped (confidence 3) [E6422461] (AR v2)
Copy OK

Track 3

Filename D:\#New wav + flac\VA - 70s Soul Jams\cd 3\03. Earth, Wind & Fire - Fantasy.wav

Peak level 98.8 %
Extraction speed 6.8 X
Track quality 100.0 %
Test CRC FC9B218C
Copy CRC FC9B218C
Accurately ripped (confidence 3) [DD0F3F15] (AR v2)
Copy OK

Track 4

Filename D:\#New wav + flac\VA - 70s Soul Jams\cd 3\04. Al Green - Let's Stay Together.wav

Peak level 98.8 %
Extraction speed 6.8 X
Track quality 100.0 %
Test CRC 6B5D665C
Copy CRC 6B5D665C
Accurately ripped (confidence 3) [F39C5056] (AR v2)
Copy OK

Track 5

Filename D:\#New wav + flac\VA - 70s Soul Jams\cd 3\05. Daryl Hall & John Oates - She's Gone.wav

Peak level 98.8 %
Extraction speed 7.3 X
Track quality 100.0 %
Test CRC 657F0C81
Copy CRC 657F0C81
Accurately ripped (confidence 3) [63E188A6] (AR v2)
Copy OK

Track 6

Filename D:\#New wav + flac\VA - 70s Soul Jams\cd 3\06. The Isley Brothers - Summer Breeze (Part 1).wav

Peak level 98.8 %
Extraction speed 7.3 X
Track quality 100.0 %
Test CRC 6AD0A28B
Copy CRC 6AD0A28B
Accurately ripped (confidence 3) [4802DAA5] (AR v2)
Copy OK

Track 7

Filename D:\#New wav + flac\VA - 70s Soul Jams\cd 3\07. Heatwave - Always & Forever.wav

Peak level 98.8 %
Extraction speed 7.8 X
Track quality 100.0 %
Test CRC 23B3340E
Copy CRC 23B3340E
Accurately ripped (confidence 3) [C235354A] (AR v2)
Copy OK

Track 8

Filename D:\#New wav + flac\VA - 70s Soul Jams\cd 3\08. Gladys Knight & The Pips - Midnight Train to Georgia.wav

Peak level 98.8 %
Extraction speed 8.5 X
Track quality 100.0 %
Test CRC 7B00782A
Copy CRC 7B00782A
Accurately ripped (confidence 3) [C0051FBD] (AR v2)
Copy OK

Track 9

Filename D:\#New wav + flac\VA - 70s Soul Jams\cd 3\09. Toto Feat. Cheryl Lynn - Georgy Porgy.wav

Peak level 98.8 %
Extraction speed 8.9 X
Track quality 100.0 %
Test CRC 3509D8DF
Copy CRC 3509D8DF
Accurately ripped (confidence 3) [94836F8C] (AR v2)
Copy OK

Track 10

Filename D:\#New wav + flac\VA - 70s Soul Jams\cd 3\10. Teddy Pendergrass - Close the Door.wav

Peak level 98.8 %
Extraction speed 8.9 X
Track quality 100.0 %
Test CRC 406685AA
Copy CRC 406685AA
Accurately ripped (confidence 3) [36F8EA05] (AR v2)
Copy OK

Track 11

Filename D:\#New wav + flac\VA - 70s Soul Jams\cd 3\11. Rose Royce - Love Don't Live Here Anymore.wav

Peak level 98.8 %
Extraction speed 7.5 X
Track quality 99.9 %
Test CRC 26870F6D
Copy CRC 26870F6D
Accurately ripped (confidence 3) [BDBAC599] (AR v2)
Copy OK

Track 12

Filename D:\#New wav + flac\VA - 70s Soul Jams\cd 3\12. Shuggie Otis - Strawberry Letter 23.wav

Peak level 98.8 %
Extraction speed 9.6 X
Track quality 100.0 %
Test CRC 2F4AF7BF
Copy CRC 2F4AF7BF
Accurately ripped (confidence 3) [F3D28130] (AR v2)
Copy OK

Track 13

Filename D:\#New wav + flac\VA - 70s Soul Jams\cd 3\13. The Stylistics - You Make Me Feel Brand New.wav

Peak level 98.8 %
Extraction speed 10.1 X
Track quality 100.0 %
Test CRC 66ACDE6F
Copy CRC 66ACDE6F
Accurately ripped (confidence 3) [1557866C] (AR v2)
Copy OK

Track 14

Filename D:\#New wav + flac\VA - 70s Soul Jams\cd 3\14. Billy Paul - Me & Mrs. Jones.wav

Peak level 98.8 %
Extraction speed 10.4 X
Track quality 100.0 %
Test CRC F1ED50AC
Copy CRC F1ED50AC
Accurately ripped (confidence 3) [1DC2DE11] (AR v2)
Copy OK

Track 15

Filename D:\#New wav + flac\VA - 70s Soul Jams\cd 3\15. Harold Melvin & The Blue Notes - If You Don't Know Me By Now.wav

Peak level 98.8 %
Extraction speed 10.2 X
Track quality 100.0 %
Test CRC 3F120C8D
Copy CRC 3F120C8D
Accurately ripped (confidence 3) [942702B5] (AR v2)
Copy OK

Track 16

Filename D:\#New wav + flac\VA - 70s Soul Jams\cd 3\16. The O'Jays - Back Stabbers.wav

Peak level 98.8 %
Extraction speed 7.9 X
Track quality 99.9 %
Test CRC 93BD8285
Copy CRC 93BD8285
Accurately ripped (confidence 3) [F289B1AE] (AR v2)
Copy OK

Track 17

Filename D:\#New wav + flac\VA - 70s Soul Jams\cd 3\17. Chairmen of the Board - Give Me Just a Little More Time.wav

Peak level 98.8 %
Extraction speed 10.3 X
Track quality 100.0 %
Test CRC 6D5DA661
Copy CRC 6D5DA661
Accurately ripped (confidence 3) [7CC6FA7D] (AR v2)
Copy OK

Track 18

Filename D:\#New wav + flac\VA - 70s Soul Jams\cd 3\18. Sister Sledge - Lost in Music.wav

Peak level 98.8 %
Extraction speed 11.2 X
Track quality 100.0 %
Test CRC 6D7E3B58
Copy CRC 6D7E3B58
Accurately ripped (confidence 3) [443E7F08] (AR v2)
Copy OK

Track 19

Filename D:\#New wav + flac\VA - 70s Soul Jams\cd 3\19. Thelma Houston - Saturday Night, Sunday Morning.wav

Peak level 98.8 %
Extraction speed 11.1 X
Track quality 100.0 %
Test CRC 767BDFD8
Copy CRC 767BDFD8
Accurately ripped (confidence 3) [2559F0E3] (AR v2)
Copy OK

Track 20

Filename D:\#New wav + flac\VA - 70s Soul Jams\cd 3\20. Bill Withers - Lovely Day.wav

Peak level 98.8 %
Extraction speed 9.4 X
Track quality 99.9 %
Test CRC 5BB3DEAA
Copy CRC 5BB3DEAA
Accurately ripped (confidence 3) [870AE1B8] (AR v2)
Copy OK


All tracks accurately ripped

No errors occurred

End of status report

–– CUETools DB Plugin V2.1.6

[CTDB TOCID: Li8iVhIiSQF.95QC.KkFhkzyRL0-] found
Submit result: Li8iVhIiSQF.95QC.KkFhkzyRL0- has been confirmed
Track | CTDB Status
1 | (4/4) Accurately ripped
2 | (4/4) Accurately ripped
3 | (4/4) Accurately ripped
4 | (4/4) Accurately ripped
5 | (4/4) Accurately ripped
6 | (4/4) Accurately ripped
7 | (4/4) Accurately ripped
8 | (4/4) Accurately ripped
9 | (4/4) Accurately ripped
10 | (4/4) Accurately ripped
11 | (4/4) Accurately ripped
12 | (4/4) Accurately ripped
13 | (4/4) Accurately ripped
14 | (4/4) Accurately ripped
15 | (4/4) Accurately ripped
16 | (4/4) Accurately ripped
17 | (4/4) Accurately ripped
18 | (4/4) Accurately ripped
19 | (4/4) Accurately ripped
20 | (4/4) Accurately ripped


==== Log checksum A570FB35BEA7AF456A7A3D97D049357FC67C52AD5AC38C0F74C6B05220C7A0F7 ====
Exact Audio Copy V1.3 from 2. September 2016

EAC extraction logfile from 23. June 2019, 11:46

Various Artists / 70s Soul Jams

Used drive : PLEXTOR PX-891SAF Adapter: 1 ID: 0

Read mode : Secure
Utilize accurate stream : Yes
Defeat audio cache : Yes
Make use of C2 pointers : No

Read offset correction : 6
Overread into Lead-In and Lead-Out : No
Fill up missing offset samples with silence : Yes
Delete leading and trailing silent blocks : No
Null samples used in CRC calculations : Yes
Used interface : Native Win32 interface for Win NT & 2000
Gap handling : Appended to previous track

Used output format : User Defined Encoder
Selected bitrate : 1024 kBit/s
Quality : High
Add ID3 tag : No
Command line compressor : C:\Program Files (x86)\Exact Audio Copy\Flac\flac.exe
Additional command line options : -8 -V -T "ARTIST=%artist%" -T "TITLE=%title%" -T "ALBUM=%albumtitle%" -T "DATE=%year%" -T "TRACKNUMBER=%tracknr%" -T "GENRE=%genre%" -T "PERFORMER=%albuminterpret%" -T "COMPOSER=%composer%" %haslyrics%–tag-from-file=LYRICS="%lyricsfile%"%haslyrics% -T "ALBUMARTIST=%albumartist%" -T "DISCNUMBER=%cdnumber%" -T "TOTALDISCS=%totalcds%" -T "TOTALTRACKS=%numtracks%" -T "COMMENT=%comment%" %source% -o %dest%


TOC of the extracted CD

Track | Start | Length | Start sector | End sector
––––––––––––––––––––––––––––-
1 | 0:00.00 | 3:41.42 | 0 | 16616
2 | 3:41.42 | 2:41.65 | 16617 | 28756
3 | 6:23.32 | 5:32.46 | 28757 | 53702
4 | 11:56.03 | 3:35.47 | 53703 | 69874
5 | 15:31.50 | 2:44.43 | 69875 | 82217
6 | 18:16.18 | 3:05.53 | 82218 | 96145
7 | 21:21.71 | 3:39.00 | 96146 | 112570
8 | 25:00.71 | 4:44.47 | 112571 | 133917
9 | 29:45.43 | 5:12.14 | 133918 | 157331
10 | 34:57.57 | 3:35.65 | 157332 | 173521
11 | 38:33.47 | 3:47.46 | 173522 | 190592
12 | 42:21.18 | 4:26.25 | 190593 | 210567
13 | 46:47.43 | 3:19.27 | 210568 | 225519
14 | 50:06.70 | 5:50.42 | 225520 | 251811
15 | 55:57.37 | 3:15.56 | 251812 | 266492
16 | 59:13.18 | 3:13.16 | 266493 | 280983
17 | 62:26.34 | 4:58.35 | 280984 | 303368
18 | 67:24.69 | 6:42.35 | 303369 | 333553
19 | 74:07.29 | 3:11.62 | 333554 | 347940
20 | 77:19.16 | 3:05.38 | 347941 | 361853


Track 1

Filename D:\#New wav + flac\VA - 70s Soul Jams\cd 2\01. The Jacksons - Shake Your Body (Down to the Ground).wav

Pre-gap length 0:00:02.00

Peak level 98.8 %
Extraction speed 5.7 X
Track quality 100.0 %
Test CRC 156CDDF9
Copy CRC 156CDDF9
Accurately ripped (confidence 3) [1ABC8205] (AR v2)
Copy OK

Track 2

Filename D:\#New wav + flac\VA - 70s Soul Jams\cd 2\02. James Brown - Get Up (I Feel Like Being A) Sex Machine.wav

Peak level 98.8 %
Extraction speed 5.8 X
Track quality 100.0 %
Test CRC C0550647
Copy CRC C0550647
Accurately ripped (confidence 3) [E5E9DF69] (AR v2)
Copy OK

Track 3

Filename D:\#New wav + flac\VA - 70s Soul Jams\cd 2\03. The Isley Brothers - That Lady (Part 1 & 2).wav

Peak level 98.8 %
Extraction speed 6.0 X
Track quality 99.9 %
Test CRC 9FE15170
Copy CRC 9FE15170
Accurately ripped (confidence 3) [106C1B9A] (AR v2)
Copy OK

Track 4

Filename D:\#New wav + flac\VA - 70s Soul Jams\cd 2\04. A Taste of Honey - Boogie Oogie Oogie.wav

Peak level 98.8 %
Extraction speed 7.0 X
Track quality 100.0 %
Test CRC A71C9CBC
Copy CRC A71C9CBC
Accurately ripped (confidence 3) [1FDDF33F] (AR v2)
Copy OK

Track 5

Filename D:\#New wav + flac\VA - 70s Soul Jams\cd 2\05. Ohio Players - Love Rollercoaster.wav

Peak level 98.8 %
Extraction speed 7.0 X
Track quality 100.0 %
Test CRC CAE17AD6
Copy CRC CAE17AD6
Accurately ripped (confidence 3) [B5AE622A] (AR v2)
Copy OK

Track 6

Filename D:\#New wav + flac\VA - 70s Soul Jams\cd 2\06. Wild Cherry - Play That Funky Music.wav

Peak level 98.8 %
Extraction speed 7.4 X
Track quality 100.0 %
Test CRC 243BD474
Copy CRC 243BD474
Accurately ripped (confidence 3) [4FC5BF89] (AR v2)
Copy OK

Track 7

Filename D:\#New wav + flac\VA - 70s Soul Jams\cd 2\07. Parliament - Give Up the Funk (Tear the Roof Off the Sucker).wav

Peak level 98.8 %
Extraction speed 7.9 X
Track quality 100.0 %
Test CRC 349F1DAD
Copy CRC 349F1DAD
Accurately ripped (confidence 3) [3A19E41E] (AR v2)
Copy OK

Track 8

Filename D:\#New wav + flac\VA - 70s Soul Jams\cd 2\08. Rick James - Mary Jane.wav

Peak level 98.8 %
Extraction speed 8.6 X
Track quality 100.0 %
Test CRC F5E7883E
Copy CRC F5E7883E
Accurately ripped (confidence 3) [3E55F1D8] (AR v2)
Copy OK

Track 9

Filename D:\#New wav + flac\VA - 70s Soul Jams\cd 2\09. Delegation - You & I.wav

Peak level 98.8 %
Extraction speed 9.1 X
Track quality 100.0 %
Test CRC DA34BFAE
Copy CRC DA34BFAE
Accurately ripped (confidence 3) [51FA084A] (AR v2)
Copy OK

Track 10

Filename D:\#New wav + flac\VA - 70s Soul Jams\cd 2\10. The O'Jays - I Love Music.wav

Peak level 98.8 %
Extraction speed 8.9 X
Track quality 100.0 %
Test CRC 8BACB193
Copy CRC 8BACB193
Accurately ripped (confidence 3) [AC50A03D] (AR v2)
Copy OK

Track 11

Filename D:\#New wav + flac\VA - 70s Soul Jams\cd 2\11. Third World - Now That We've Found Love.wav

Peak level 98.8 %
Extraction speed 9.2 X
Track quality 100.0 %
Test CRC 0F4B474C
Copy CRC 0F4B474C
Accurately ripped (confidence 3) [E26BEFB0] (AR v2)
Copy OK

Track 12

Filename D:\#New wav + flac\VA - 70s Soul Jams\cd 2\12. Lou Rawls - You'll Never Find Another Love Like Mine.wav

Peak level 98.8 %
Extraction speed 9.7 X
Track quality 100.0 %
Test CRC 2BAF0B0C
Copy CRC 2BAF0B0C
Accurately ripped (confidence 3) [9F0ED8C7] (AR v2)
Copy OK

Track 13

Filename D:\#New wav + flac\VA - 70s Soul Jams\cd 2\13. Dynasty - I Don't Want to Be a Freak (But I Can't Help Myself).wav

Peak level 98.8 %
Extraction speed 9.7 X
Track quality 100.0 %
Test CRC 29490584
Copy CRC 29490584
Accurately ripped (confidence 3) [C5B2B92E] (AR v2)
Copy OK

Track 14

Filename D:\#New wav + flac\VA - 70s Soul Jams\cd 2\14. Dexter Wansel - Life On Mars.wav

Peak level 98.8 %
Extraction speed 9.3 X
Track quality 99.9 %
Test CRC 74FE716E
Copy CRC 74FE716E
Accurately ripped (confidence 3) [FB66B642] (AR v2)
Copy OK

Track 15

Filename D:\#New wav + flac\VA - 70s Soul Jams\cd 2\15. Roy Ayers - Running Away.wav

Peak level 98.8 %
Extraction speed 10.2 X
Track quality 100.0 %
Test CRC ABC6227B
Copy CRC ABC6227B
Accurately ripped (confidence 3) [BBF7D7F3] (AR v2)
Copy OK

Track 16

Filename D:\#New wav + flac\VA - 70s Soul Jams\cd 2\16. The Five Stairsteps - O-O-H Child.wav

Peak level 98.8 %
Extraction speed 8.4 X
Track quality 99.9 %
Test CRC 01CEE62A
Copy CRC 01CEE62A
Accurately ripped (confidence 3) [554296CA] (AR v2)
Copy OK

Track 17

Filename D:\#New wav + flac\VA - 70s Soul Jams\cd 2\17. Bootsy Collins - I'd Rather Be With You.wav

Peak level 98.8 %
Extraction speed 9.6 X
Track quality 99.9 %
Test CRC C6EE2C79
Copy CRC C6EE2C79
Accurately ripped (confidence 3) [6A1D27D8] (AR v2)
Copy OK

Track 18

Filename D:\#New wav + flac\VA - 70s Soul Jams\cd 2\18. Slave - Slide.wav

Peak level 98.8 %
Extraction speed 11.8 X
Track quality 100.0 %
Test CRC 19C039AC
Copy CRC 19C039AC
Accurately ripped (confidence 3) [AC8797E5] (AR v2)
Copy OK

Track 19

Filename D:\#New wav + flac\VA - 70s Soul Jams\cd 2\19. The Fatback Band - Wicky Wacky.wav

Peak level 98.8 %
Extraction speed 11.1 X
Track quality 100.0 %
Test CRC 3677C007
Copy CRC 3677C007
Accurately ripped (confidence 3) [326EB6ED] (AR v2)
Copy OK

Track 20

Filename D:\#New wav + flac\VA - 70s Soul Jams\cd 2\20. Sly & the Family Stone - Family Affair.wav

Peak level 98.8 %
Extraction speed 11.0 X
Track quality 100.0 %
Test CRC B164D481
Copy CRC B164D481
Accurately ripped (confidence 3) [DF44268B] (AR v2)
Copy OK


All tracks accurately ripped

No errors occurred

End of status report

–– CUETools DB Plugin V2.1.6

[CTDB TOCID: AXu3nxxK6Ai85CNIp4ZPlawvoLA-] found
Submit result: AXu3nxxK6Ai85CNIp4ZPlawvoLA- has been confirmed
Track | CTDB Status
1 | (4/4) Accurately ripped
2 | (4/4) Accurately ripped
3 | (4/4) Accurately ripped
4 | (4/4) Accurately ripped
5 | (4/4) Accurately ripped
6 | (4/4) Accurately ripped
7 | (4/4) Accurately ripped
8 | (4/4) Accurately ripped
9 | (4/4) Accurately ripped
10 | (4/4) Accurately ripped
11 | (4/4) Accurately ripped
12 | (4/4) Accurately ripped
13 | (4/4) Accurately ripped
14 | (4/4) Accurately ripped
15 | (4/4) Accurately ripped
16 | (4/4) Accurately ripped
17 | (4/4) Accurately ripped
18 | (4/4) Accurately ripped
19 | (4/4) Accurately ripped
20 | (4/4) Accurately ripped


==== Log checksum AFDED12214E110E55AE46810CACDB6B38611EA367B5A6BE5FF25D4D3C001F307 ====

––––––––––––––––––––––––––––––

Exact Audio Copy V1.3 from 2. September 2016

EAC extraction logfile from 23. June 2019, 11:46

Various Artists / 70s Soul Jams

Used drive : PLEXTOR PX-891SAF Adapter: 1 ID: 0

Read mode : Secure
Utilize accurate stream : Yes
Defeat audio cache : Yes
Make use of C2 pointers : No

Read offset correction : 6
Overread into Lead-In and Lead-Out : No
Fill up missing offset samples with silence : Yes
Delete leading and trailing silent blocks : No
Null samples used in CRC calculations : Yes
Used interface : Native Win32 interface for Win NT & 2000
Gap handling : Appended to previous track

Used output format : User Defined Encoder
Selected bitrate : 1024 kBit/s
Quality : High
Add ID3 tag : No
Command line compressor : C:\Program Files (x86)\Exact Audio Copy\Flac\flac.exe
Additional command line options : -8 -V -T "ARTIST=%artist%" -T "TITLE=%title%" -T "ALBUM=%albumtitle%" -T "DATE=%year%" -T "TRACKNUMBER=%tracknr%" -T "GENRE=%genre%" -T "PERFORMER=%albuminterpret%" -T "COMPOSER=%composer%" %haslyrics%–tag-from-file=LYRICS="%lyricsfile%"%haslyrics% -T "ALBUMARTIST=%albumartist%" -T "DISCNUMBER=%cdnumber%" -T "TOTALDISCS=%totalcds%" -T "TOTALTRACKS=%numtracks%" -T "COMMENT=%comment%" %source% -o %dest%


TOC of the extracted CD

Track | Start | Length | Start sector | End sector
––––––––––––––––––––––––––––-
1 | 0:00.00 | 3:41.42 | 0 | 16616
2 | 3:41.42 | 2:41.65 | 16617 | 28756
3 | 6:23.32 | 5:32.46 | 28757 | 53702
4 | 11:56.03 | 3:35.47 | 53703 | 69874
5 | 15:31.50 | 2:44.43 | 69875 | 82217
6 | 18:16.18 | 3:05.53 | 82218 | 96145
7 | 21:21.71 | 3:39.00 | 96146 | 112570
8 | 25:00.71 | 4:44.47 | 112571 | 133917
9 | 29:45.43 | 5:12.14 | 133918 | 157331
10 | 34:57.57 | 3:35.65 | 157332 | 173521
11 | 38:33.47 | 3:47.46 | 173522 | 190592
12 | 42:21.18 | 4:26.25 | 190593 | 210567
13 | 46:47.43 | 3:19.27 | 210568 | 225519
14 | 50:06.70 | 5:50.42 | 225520 | 251811
15 | 55:57.37 | 3:15.56 | 251812 | 266492
16 | 59:13.18 | 3:13.16 | 266493 | 280983
17 | 62:26.34 | 4:58.35 | 280984 | 303368
18 | 67:24.69 | 6:42.35 | 303369 | 333553
19 | 74:07.29 | 3:11.62 | 333554 | 347940
20 | 77:19.16 | 3:05.38 | 347941 | 361853


Track 1

Filename D:\#New wav + flac\VA - 70s Soul Jams\cd 2\01. The Jacksons - Shake Your Body (Down to the Ground).wav

Pre-gap length 0:00:02.00

Peak level 98.8 %
Extraction speed 5.7 X
Track quality 100.0 %
Test CRC 156CDDF9
Copy CRC 156CDDF9
Accurately ripped (confidence 3) [1ABC8205] (AR v2)
Copy OK

Track 2

Filename D:\#New wav + flac\VA - 70s Soul Jams\cd 2\02. James Brown - Get Up (I Feel Like Being A) Sex Machine.wav

Peak level 98.8 %
Extraction speed 5.8 X
Track quality 100.0 %
Test CRC C0550647
Copy CRC C0550647
Accurately ripped (confidence 3) [E5E9DF69] (AR v2)
Copy OK

Track 3

Filename D:\#New wav + flac\VA - 70s Soul Jams\cd 2\03. The Isley Brothers - That Lady (Part 1 & 2).wav

Peak level 98.8 %
Extraction speed 6.0 X
Track quality 99.9 %
Test CRC 9FE15170
Copy CRC 9FE15170
Accurately ripped (confidence 3) [106C1B9A] (AR v2)
Copy OK

Track 4

Filename D:\#New wav + flac\VA - 70s Soul Jams\cd 2\04. A Taste of Honey - Boogie Oogie Oogie.wav

Peak level 98.8 %
Extraction speed 7.0 X
Track quality 100.0 %
Test CRC A71C9CBC
Copy CRC A71C9CBC
Accurately ripped (confidence 3) [1FDDF33F] (AR v2)
Copy OK

Track 5

Filename D:\#New wav + flac\VA - 70s Soul Jams\cd 2\05. Ohio Players - Love Rollercoaster.wav

Peak level 98.8 %
Extraction speed 7.0 X
Track quality 100.0 %
Test CRC CAE17AD6
Copy CRC CAE17AD6
Accurately ripped (confidence 3) [B5AE622A] (AR v2)
Copy OK

Track 6

Filename D:\#New wav + flac\VA - 70s Soul Jams\cd 2\06. Wild Cherry - Play That Funky Music.wav

Peak level 98.8 %
Extraction speed 7.4 X
Track quality 100.0 %
Test CRC 243BD474
Copy CRC 243BD474
Accurately ripped (confidence 3) [4FC5BF89] (AR v2)
Copy OK

Track 7

Filename D:\#New wav + flac\VA - 70s Soul Jams\cd 2\07. Parliament - Give Up the Funk (Tear the Roof Off the Sucker).wav

Peak level 98.8 %
Extraction speed 7.9 X
Track quality 100.0 %
Test CRC 349F1DAD
Copy CRC 349F1DAD
Accurately ripped (confidence 3) [3A19E41E] (AR v2)
Copy OK

Track 8

Filename D:\#New wav + flac\VA - 70s Soul Jams\cd 2\08. Rick James - Mary Jane.wav

Peak level 98.8 %
Extraction speed 8.6 X
Track quality 100.0 %
Test CRC F5E7883E
Copy CRC F5E7883E
Accurately ripped (confidence 3) [3E55F1D8] (AR v2)
Copy OK

Track 9

Filename D:\#New wav + flac\VA - 70s Soul Jams\cd 2\09. Delegation - You & I.wav

Peak level 98.8 %
Extraction speed 9.1 X
Track quality 100.0 %
Test CRC DA34BFAE
Copy CRC DA34BFAE
Accurately ripped (confidence 3) [51FA084A] (AR v2)
Copy OK

Track 10

Filename D:\#New wav + flac\VA - 70s Soul Jams\cd 2\10. The O'Jays - I Love Music.wav

Peak level 98.8 %
Extraction speed 8.9 X
Track quality 100.0 %
Test CRC 8BACB193
Copy CRC 8BACB193
Accurately ripped (confidence 3) [AC50A03D] (AR v2)
Copy OK

Track 11

Filename D:\#New wav + flac\VA - 70s Soul Jams\cd 2\11. Third World - Now That We've Found Love.wav

Peak level 98.8 %
Extraction speed 9.2 X
Track quality 100.0 %
Test CRC 0F4B474C
Copy CRC 0F4B474C
Accurately ripped (confidence 3) [E26BEFB0] (AR v2)
Copy OK

Track 12

Filename D:\#New wav + flac\VA - 70s Soul Jams\cd 2\12. Lou Rawls - You'll Never Find Another Love Like Mine.wav

Peak level 98.8 %
Extraction speed 9.7 X
Track quality 100.0 %
Test CRC 2BAF0B0C
Copy CRC 2BAF0B0C
Accurately ripped (confidence 3) [9F0ED8C7] (AR v2)
Copy OK

Track 13

Filename D:\#New wav + flac\VA - 70s Soul Jams\cd 2\13. Dynasty - I Don't Want to Be a Freak (But I Can't Help Myself).wav

Peak level 98.8 %
Extraction speed 9.7 X
Track quality 100.0 %
Test CRC 29490584
Copy CRC 29490584
Accurately ripped (confidence 3) [C5B2B92E] (AR v2)
Copy OK

Track 14

Filename D:\#New wav + flac\VA - 70s Soul Jams\cd 2\14. Dexter Wansel - Life On Mars.wav

Peak level 98.8 %
Extraction speed 9.3 X
Track quality 99.9 %
Test CRC 74FE716E
Copy CRC 74FE716E
Accurately ripped (confidence 3) [FB66B642] (AR v2)
Copy OK

Track 15

Filename D:\#New wav + flac\VA - 70s Soul Jams\cd 2\15. Roy Ayers - Running Away.wav

Peak level 98.8 %
Extraction speed 10.2 X
Track quality 100.0 %
Test CRC ABC6227B
Copy CRC ABC6227B
Accurately ripped (confidence 3) [BBF7D7F3] (AR v2)
Copy OK

Track 16

Filename D:\#New wav + flac\VA - 70s Soul Jams\cd 2\16. The Five Stairsteps - O-O-H Child.wav

Peak level 98.8 %
Extraction speed 8.4 X
Track quality 99.9 %
Test CRC 01CEE62A
Copy CRC 01CEE62A
Accurately ripped (confidence 3) [554296CA] (AR v2)
Copy OK

Track 17

Filename D:\#New wav + flac\VA - 70s Soul Jams\cd 2\17. Bootsy Collins - I'd Rather Be With You.wav

Peak level 98.8 %
Extraction speed 9.6 X
Track quality 99.9 %
Test CRC C6EE2C79
Copy CRC C6EE2C79
Accurately ripped (confidence 3) [6A1D27D8] (AR v2)
Copy OK

Track 18

Filename D:\#New wav + flac\VA - 70s Soul Jams\cd 2\18. Slave - Slide.wav

Peak level 98.8 %
Extraction speed 11.8 X
Track quality 100.0 %
Test CRC 19C039AC
Copy CRC 19C039AC
Accurately ripped (confidence 3) [AC8797E5] (AR v2)
Copy OK

Track 19

Filename D:\#New wav + flac\VA - 70s Soul Jams\cd 2\19. The Fatback Band - Wicky Wacky.wav

Peak level 98.8 %
Extraction speed 11.1 X
Track quality 100.0 %
Test CRC 3677C007
Copy CRC 3677C007
Accurately ripped (confidence 3) [326EB6ED] (AR v2)
Copy OK

Track 20

Filename D:\#New wav + flac\VA - 70s Soul Jams\cd 2\20. Sly & the Family Stone - Family Affair.wav

Peak level 98.8 %
Extraction speed 11.0 X
Track quality 100.0 %
Test CRC B164D481
Copy CRC B164D481
Accurately ripped (confidence 3) [DF44268B] (AR v2)
Copy OK


All tracks accurately ripped

No errors occurred

End of status report

–– CUETools DB Plugin V2.1.6

[CTDB TOCID: AXu3nxxK6Ai85CNIp4ZPlawvoLA-] found
Submit result: AXu3nxxK6Ai85CNIp4ZPlawvoLA- has been confirmed
Track | CTDB Status
1 | (4/4) Accurately ripped
2 | (4/4) Accurately ripped
3 | (4/4) Accurately ripped
4 | (4/4) Accurately ripped
5 | (4/4) Accurately ripped
6 | (4/4) Accurately ripped
7 | (4/4) Accurately ripped
8 | (4/4) Accurately ripped
9 | (4/4) Accurately ripped
10 | (4/4) Accurately ripped
11 | (4/4) Accurately ripped
12 | (4/4) Accurately ripped
13 | (4/4) Accurately ripped
14 | (4/4) Accurately ripped
15 | (4/4) Accurately ripped
16 | (4/4) Accurately ripped
17 | (4/4) Accurately ripped
18 | (4/4) Accurately ripped
19 | (4/4) Accurately ripped
20 | (4/4) Accurately ripped


==== Log checksum AFDED12214E110E55AE46810CACDB6B38611EA367B5A6BE5FF25D4D3C001F307 ====