Tags
Language
Tags

Alphaville - Prostitute (1994) [Re-Up]

Posted By:
Alphaville - Prostitute (1994) [Re-Up]

Alphaville - Prostitute (1994)
EAC | FLAC | Image (Cue&Log) ~ 468 Mb | Mp3 (CBR320) ~ 163 Mb | Scans ~ 193 Mb
Synthpop, New Wave, Alternative Dance-Rock | Label: WEA | # 4509 96836-2 | 01:11:25

Prostitute is an album by the synthpop band Alphaville. Following worldwide success in the 1980s, it was Alphaville's first release for five years. It features electronic jazz, new wave music, synthpop, swing music, hip hop, classical ballads and Pink Floyd-like epic electronic music. However, the album's experimental nature and lack of commercial success led the band to return to its synth/dance roots with the following album, Salvation.

Marion and the band have matured with each album and while most people recall the pop of Forever Young & Big In Japan (although hardly enough to actually make them a household name stateside) this album has a more mature and sophisticated electronic sound. As always, Gold's vocals are otherworldly and few can match his sound and range (accept Morten Harket of A-ha) and the music truly elevates his voice. "Fools" and "The Impossible Dream" were stand out singles, but "Iron John" is so infectious and easily the greatest Alphaville song EVER. The reggae-tinged "Faith" sounds like the opening track to a fun summer blockbuster movie and is guaranteed to get you going in the morning. The title seems so far removed from the music, and perhaps many people can't figure it out, but this album is fantastic.

Review by Paul A. Fucito, Amazon.com

Alphaville - Prostitute (1994) [Re-Up]



Tracklist:

01. The Paradigm Shift (03:47)
02. Fools (03:53)
03. Beethoven (05:35)
04. Ascension Day (05:44)
05. The Impossible Dream (04:48)
06. Parade (03:39)
07. Ain't It Strange (05:22)
08. All In The Golden Afternoon (03:36)
09. Oh Patti (01:45)
10. Ivory Tower (03:16)
11. Faith (03:55)
12. Iron John (03:44)
13. The One Thing (03:55)
14. Some People (04:37)
15. Euphoria (07:05)
16. Apollo (06:10)


Exact Audio Copy V1.0 beta 3 from 29. August 2011

EAC extraction logfile from 6. January 2013, 2:56

Alphaville / Prostitute

Used drive : PLEXTOR DVDR PX-716A Adapter: 0 ID: 0

Read mode : Secure
Utilize accurate stream : Yes
Defeat audio cache : Yes
Make use of C2 pointers : No

Read offset correction : 30
Overread into Lead-In and Lead-Out : Yes
Fill up missing offset samples with silence : Yes
Delete leading and trailing silent blocks : No
Null samples used in CRC calculations : Yes
Used interface : Native Win32 interface for Win NT & 2000

Used output format : User Defined Encoder
Selected bitrate : 896 kBit/s
Quality : High
Add ID3 tag : No
Command line compressor : C:\Program Files (x86)\FLAC\flac.exe
Additional command line options : -V -8 -T "Date=%year%" -T "Genre=%genre%" %source%


TOC of the extracted CD

Track | Start | Length | Start sector | End sector
––––––––––––––––––––––––––––-
1 | 0:00.00 | 3:47.55 | 0 | 17079
2 | 3:47.55 | 3:56.20 | 17080 | 34799
3 | 7:44.00 | 5:38.43 | 34800 | 60192
4 | 13:22.43 | 5:47.07 | 60193 | 86224
5 | 19:09.50 | 4:55.45 | 86225 | 108394
6 | 24:05.20 | 3:40.30 | 108395 | 124924
7 | 27:45.50 | 5:22.35 | 124925 | 149109
8 | 33:08.10 | 3:40.48 | 149110 | 165657
9 | 36:48.58 | 1:45.37 | 165658 | 173569
10 | 38:34.20 | 3:16.43 | 173570 | 188312
11 | 41:50.63 | 3:56.27 | 188313 | 206039
12 | 45:47.15 | 3:44.18 | 206040 | 222857
13 | 49:31.33 | 3:55.57 | 222858 | 240539
14 | 53:27.15 | 4:41.30 | 240540 | 261644
15 | 58:08.45 | 7:05.63 | 261645 | 293582
16 | 65:14.33 | 6:10.12 | 293583 | 321344


Range status and errors

Selected range

Filename E:\Alphaville [Collection]\1994_Alphaville - Prostitute (Germany 1994)\Alphaville - Prostitute.wav

Peak level 98.0 %
Extraction speed 1.8 X
Range quality 100.0 %
Test CRC DEAE314F
Copy CRC DEAE314F
Copy OK

No errors occurred


AccurateRip summary

Track 1 accurately ripped (confidence 2) [D8355A07] (AR v2)
Track 2 accurately ripped (confidence 2) [9DEA50D3] (AR v2)
Track 3 accurately ripped (confidence 2) [C443CED5] (AR v2)
Track 4 accurately ripped (confidence 2) [5C54C806] (AR v2)
Track 5 accurately ripped (confidence 2) [D110F902] (AR v2)
Track 6 accurately ripped (confidence 2) [74448162] (AR v2)
Track 7 accurately ripped (confidence 2) [38CB4037] (AR v2)
Track 8 accurately ripped (confidence 2) [7DFE4BF2] (AR v2)
Track 9 accurately ripped (confidence 2) [CBDB0DC6] (AR v2)
Track 10 accurately ripped (confidence 2) [E4DEF0B9] (AR v2)
Track 11 accurately ripped (confidence 2) [BC5406C2] (AR v2)
Track 12 accurately ripped (confidence 2) [2CD00B02] (AR v2)
Track 13 accurately ripped (confidence 2) [78B3828F] (AR v2)
Track 14 accurately ripped (confidence 2) [60E63D74] (AR v2)
Track 15 accurately ripped (confidence 2) [09224289] (AR v2)
Track 16 accurately ripped (confidence 2) [F24277B5] (AR v2)

All tracks accurately ripped

End of status report

–– CUETools DB Plugin V2.1.3

[CTDB TOCID: Rn_z47xi05S9hZUJqL0zGkgYRB0-] found, Submit result: Rn_z47xi05S9hZUJqL0zGkgYRB0- has been confirmed
[7ddcb16e] (18/21) Accurately ripped
[03a2a494] (01/21) No match
[12dceddc] (01/21) Accurately ripped
[e2f18040] (01/21) No match


==== Log checksum 1F883E4DFED84CB71CBCC1FF59BD6E1270684A02633462887672C9B1DC47C80F ====

foobar2000 1.2 / Dynamic Range Meter 1.1.1
log date: 2014-09-25 15:07:36

––––––––––––––––––––––––––––––––––––––––
Analyzed: Alphaville / Prostitute
––––––––––––––––––––––––––––––––––––––––

DR Peak RMS Duration Track
––––––––––––––––––––––––––––––––––––––––
DR9 -0.17 dB -10.10 dB 3:48 01-The Paradigm Shift
DR9 -0.18 dB -10.93 dB 3:56 02-Fools
DR9 -0.17 dB -10.99 dB 5:39 03-Beethoven
DR9 -0.17 dB -11.04 dB 5:47 04-Ascension Day
DR8 -0.18 dB -9.71 dB 4:56 05-The Impossible Dream
DR8 -0.18 dB -12.81 dB 3:40 06-Parade
DR9 -0.17 dB -10.47 dB 5:22 07-Ain't It Strange
DR9 -0.18 dB -10.99 dB 3:41 08-All In The Golden Afternoon
DR12 -0.21 dB -16.24 dB 1:45 09-Oh Patti
DR8 -0.18 dB -9.99 dB 3:17 10-Ivory Tower
DR9 -0.18 dB -10.89 dB 3:56 11-Faith
DR9 -0.18 dB -10.21 dB 3:44 12-Iron John
DR10 -0.18 dB -11.65 dB 3:56 13-The One Thing
DR9 -0.18 dB -10.47 dB 4:41 14-Some People
DR9 -0.18 dB -12.61 dB 7:06 15-Euphoria
DR8 -0.17 dB -9.59 dB 6:10 16-Apollo
––––––––––––––––––––––––––––––––––––––––

Number of tracks: 16
Official DR value: DR9

Samplerate: 44100 Hz
Channels: 2
Bits per sample: 16
Bitrate: 917 kbps
Codec: FLAC
================================================================================

Alphaville - Prostitute (1994) [Re-Up]

Alphaville - Prostitute (1994) [Re-Up]

All thanks to original releaser - Konstantin_slash

More interesting music in My Blog