Subcategories

Alvin Lee - The Last Show (2013)

Posted By: Designol
Alvin Lee - The Last Show (2013)

Alvin Lee - The Last Show (2013)
EAC | FLAC | Image (Cue&Log) ~ 569 Mb | Mp3 (CBR320) ~ 234 Mb | Scans included
Blues-Rock, British Blues, Rock & Roll | Label: Rainman | # RM13022 | 01:19:07

Most famous for his vocal and guitar work in the group Ten Years After, Alvin Lee had a long solo career after the band dispersed, still working in the hard rock, rockabilly, and British blues style that TYA did until his sudden death in Spain in the spring of 2013. This set captures his last live show, a concert held in Raalte, Holland, on May 28, 2012, with a crisp rhythm section of Pete Pritchard on bass and Richard Newman on drums. The show was recorded, and although it wasn't recorded to be an official release, Lee was pleased with the performance and authorized its release, not knowing, of course, that it would be his swan song.

Steve Leggett, Allmusic.com

Alvin Lee - The Last Show (2013)



Recorded in Raalte, Holland as of May 28, 2012

Tracklist:

01. Hear Me Calling (5:23)
02. I Can't Keep From Crying Sometimes (11:03)
03. How Do You Do It (4:32)
04. My Baby Left Me (2:14)
05. Country Thing (0:49)
06. I Don't Give A Damn (5:03)
07. I'm Writing You A Letter (7:50)
08. Slow Blues In 'C' (8:20)
09. I'm Gonna Make It (5:12)
10. Scat Encounter (0:49)
11. I Woke Up This Morning (5:04)
12. Love Like A Man (8:09)
13. Going Home (11:34)
14. Rip It Up (3:06)


Exact Audio Copy V1.0 beta 3 from 29. August 2011

EAC extraction logfile from 7. October 2013, 20:41

Alvin Lee / The Last Show

Used drive : ATAPI iHAS124 B Adapter: 2 ID: 0

Read mode : Secure
Utilize accurate stream : Yes
Defeat audio cache : Yes
Make use of C2 pointers : No

Read offset correction : 6
Overread into Lead-In and Lead-Out : No
Fill up missing offset samples with silence : Yes
Delete leading and trailing silent blocks : No
Null samples used in CRC calculations : Yes
Used interface : Native Win32 interface for Win NT & 2000

Used output format : User Defined Encoder
Selected bitrate : 1024 kBit/s
Quality : High
Add ID3 tag : No
Command line compressor : C:\Program Files (x86)\Exact Audio Copy\FLAC\FLAC.EXE
Additional command line options : -8 -V -T "ARTIST=%artist%" -T "TITLE=%title%" -T "ALBUM=%albumtitle%" -T "DATE=%year%" -T "TRACKNUMBER=%tracknr%" -T "GENRE=%genre%" -T "PERFORMER=%albuminterpret%" -T "COMPOSER=%composer%" %haslyrics%–tag-from-file=LYRICS="%lyricsfile%"%haslyrics% -T "ALBUMARTIST=%albumartist%" -T "DISCNUMBER=%cdnumber%" -T "TOTALDISCS=%totalcds%" -T "TOTALTRACKS=%numtracks%" -T "COMMENT=%comment%" %source% -o %dest%


TOC of the extracted CD

Track | Start | Length | Start sector | End sector
––––––––––––––––––––––––––––-
1 | 0:00.00 | 5:22.39 | 0 | 24188
2 | 5:22.39 | 11:03.15 | 24189 | 73928
3 | 16:25.54 | 4:31.59 | 73929 | 94312
4 | 20:57.38 | 2:13.69 | 94313 | 104356
5 | 23:11.32 | 0:48.60 | 104357 | 108016
6 | 24:00.17 | 5:02.53 | 108017 | 130719
7 | 29:02.70 | 7:50.16 | 130720 | 165985
8 | 36:53.11 | 8:19.44 | 165986 | 203454
9 | 45:12.55 | 5:11.74 | 203455 | 226853
10 | 50:24.54 | 0:48.69 | 226854 | 230522
11 | 51:13.48 | 5:04.08 | 230523 | 253330
12 | 56:17.56 | 8:09.05 | 253331 | 290010
13 | 64:26.61 | 11:34.14 | 290011 | 342074
14 | 76:01.00 | 3:05.59 | 342075 | 356008


Range status and errors

Selected range

Filename G:\CD\Alvin Lee - The Last Show.wav

Peak level 99.8 %
Extraction speed 6.9 X
Range quality 100.0 %
Test CRC EC15BA18
Copy CRC EC15BA18
Copy OK

No errors occurred


AccurateRip summary

Track 1 accurately ripped (confidence 2) [10D4F5FE] (AR v2)
Track 2 accurately ripped (confidence 2) [798FE223] (AR v2)
Track 3 accurately ripped (confidence 2) [7989CDC3] (AR v2)
Track 4 accurately ripped (confidence 2) [EAF07878] (AR v2)
Track 5 accurately ripped (confidence 2) [1FC7301F] (AR v2)
Track 6 accurately ripped (confidence 2) [4D2B08B9] (AR v2)
Track 7 accurately ripped (confidence 2) [8EADE773] (AR v2)
Track 8 accurately ripped (confidence 2) [5D446C23] (AR v2)
Track 9 accurately ripped (confidence 2) [0C53DAD3] (AR v2)
Track 10 accurately ripped (confidence 2) [90390540] (AR v2)
Track 11 accurately ripped (confidence 2) [C8E3E048] (AR v2)
Track 12 accurately ripped (confidence 2) [BF32E37B] (AR v2)
Track 13 accurately ripped (confidence 2) [5C7CD1DC] (AR v2)
Track 14 accurately ripped (confidence 2) [315F21AF] (AR v2)

All tracks accurately ripped

End of status report

==== Log checksum E42C709E5E42D240BFC0C92E8802D1FFBB0C6736F1F64A218B678C0D2EF357C9 ====

[CUETools log; Date: 14.08.2018 2:55:12; Version: 2.1.4]
[CTDB TOCID: yoyHtPM6.PbC9w4cxDLtnXrbK6Q-] found.
Track | CTDB Status
1 | (27/28) Accurately ripped
2 | (27/28) Accurately ripped
3 | (27/28) Accurately ripped
4 | (27/28) Accurately ripped
5 | (27/28) Accurately ripped
6 | (27/28) Accurately ripped
7 | (27/28) Accurately ripped
8 | (27/28) Accurately ripped
9 | (27/28) Accurately ripped
10 | (27/28) Accurately ripped
11 | (27/28) Accurately ripped
12 | (27/28) Accurately ripped
13 | (27/28) Accurately ripped
14 | (27/28) Accurately ripped
[AccurateRip ID: 0027baf9-01a5ace9-d2128a0e] found.
Track [ CRC | V2 ] Status
01 [6cd7e3fa|10d4f5fe] (00+26/28) Accurately ripped
02 [73b71a33|798fe223] (00+26/28) Accurately ripped
03 [99e525c1|7989cdc3] (00+26/28) Accurately ripped
04 [becc9aeb|eaf07878] (00+26/28) Accurately ripped
05 [89f0a064|1fc7301f] (00+26/28) Accurately ripped
06 [e476e1c8|4d2b08b9] (00+26/28) Accurately ripped
07 [a8a5a0ab|8eade773] (00+26/28) Accurately ripped
08 [f066c934|5d446c23] (00+26/28) Accurately ripped
09 [7c32f764|0c53dad3] (00+25/27) Accurately ripped
10 [529e527c|90390540] (00+26/28) Accurately ripped
11 [533f82bc|c8e3e048] (00+25/27) Accurately ripped
12 [68b7c956|bf32e37b] (00+26/28) Accurately ripped
13 [7c9cb7e8|5c7cd1dc] (00+25/27) Accurately ripped
14 [51c16db9|315f21af] (00+25/25) Accurately ripped
Offsetted by -6:
01 [acbf5431] (00/28) No match (V2 was not tested)
02 [216d19e7] (00/28) No match (V2 was not tested)
03 [ba5cb33c] (00/28) No match (V2 was not tested)
04 [f050aa9b] (00/28) No match (V2 was not tested)
05 [3bd39376] (00/28) No match (V2 was not tested)
06 [388e3f10] (00/28) No match (V2 was not tested)
07 [3529de3a] (00/28) No match (V2 was not tested)
08 [baddcd35] (00/28) No match (V2 was not tested)
09 [faf8d460] (00/27) No match (V2 was not tested)
10 [69e09704] (00/28) No match (V2 was not tested)
11 [e036ef6a] (00/27) No match (V2 was not tested)
12 [6ab3d90a] (00/28) No match (V2 was not tested)
13 [fd728b76] (00/27) No match (V2 was not tested)
14 [15e6c41f] (00/25) No match (V2 was not tested)

Track Peak [ CRC32 ] [W/O NULL] [ LOG ]
– 99,8 [EC15BA18] [9E0C3F02] CRC32
01 99,7 [22E54FEE] [DF346A27]
02 99,7 [DA6F67E9] [497A05B9]
03 99,7 [1E17D4C8] [4EC29AC4]
04 99,7 [34E4A247] [5C386EB6]
05 84,7 [6ADFDB24] [EDE9A3E1]
06 99,7 [A29CE1B0] [C1E42696]
07 99,7 [1947B4FE] [07B622F5]
08 99,7 [0BDC4043] [C3F18528]
09 99,7 [55F34D4C] [ACA5192B]
10 99,6 [09EB5418] [2435C61F]
11 99,7 [5DA0D48C] [31FCF0EE]
12 99,8 [B9CFD364] [17D69F5E]
13 99,7 [D8280EBD] [657555E0]
14 99,7 [C9A732C7] [7A6393F3]

foobar2000 1.2 / Dynamic Range Meter 1.1.1
log date: 2018-08-14 03:01:56

––––––––––––––––––––––––––––––––––––––––
Analyzed: Alvin Lee / The Last Show
––––––––––––––––––––––––––––––––––––––––

DR Peak RMS Duration Track
––––––––––––––––––––––––––––––––––––––––
DR10 -0.02 dB -11.74 dB 5:23 01-Hear Me Calling
DR10 -0.03 dB -12.90 dB 11:03 02-I Can't Keep From Crying Sometimes
DR11 -0.03 dB -12.11 dB 4:32 03-How Do You Do It
DR10 -0.03 dB -11.52 dB 2:14 04-My Baby Left Me
DR10 -1.44 dB -17.76 dB 0:49 05-Country Thing
DR10 -0.03 dB -11.06 dB 5:03 06-I Don't Give A Damn
DR10 -0.03 dB -13.33 dB 7:50 07-I'm Writing You A Letter
DR10 -0.03 dB -13.00 dB 8:20 08-Slow Blues In 'C'
DR11 -0.03 dB -12.05 dB 5:12 09-I'm Gonna Make It
DR12 -0.03 dB -16.83 dB 0:49 10-Scat Encounter
DR10 -0.03 dB -11.40 dB 5:04 11-I Woke Up This Morning
DR11 -0.01 dB -12.15 dB 8:09 12-Love Like A Man
DR10 -0.03 dB -12.65 dB 11:34 13-Going Home
DR9 -0.03 dB -10.85 dB 3:06 14-Rip It Up
––––––––––––––––––––––––––––––––––––––––

Number of tracks: 14
Official DR value: DR10

Samplerate: 44100 Hz
Channels: 2
Bits per sample: 16
Bitrate: 912 kbps
Codec: FLAC
================================================================================

Alvin Lee - The Last Show (2013)

Alvin Lee - The Last Show (2013)

All thanks to original releaser - gerrV

More interesting music in My Blog