Subcategories

Animal Logic - Animal Logic (1989)

Posted By: Designol
Animal Logic - Animal Logic (1989)

Animal Logic - Animal Logic (1989)
EAC | FLAC | Tracks (Cue&Log) ~ 260 Mb | Mp3 (CBR320) ~ 95 Mb | Scans included
Fusion, Alternative Pop/Rock, Jazz-Rock | Label: I.R.S. | # IRSC-82020 | 00:38:52

Animal Logic is the kind of band that could've existed only in the late '80s – a cross between fusion, art rock, and album rock, all blended with a slight eye on the charts. Since Stewart Copeland and Stanley Clarke provided the musical backbone of the project, there's little question that the outfit had the potential to be a dynamic exploration of the middle ground between adventurous rock and jazz.

Review by Stephen Thomas Erlewine, Allmusic.com

Animal Logic at Allmusic
Animal Logic at Wiki

Tracklist:

01. There's A Spy (In The House Of Love) (4:24)
02. Someday We'll Understand (3:45)
03. Winds Of Santa Ana (3:48)
04. I'm Through With Love (3:44)
05. As Soon As The Sun Goes Down (4:35)
06. I Still Feel For You (3:15)
07. Elijah (4:11)
08. Firing Up The Sunset Gun (4:03)
09. Someone To Come Home To (4:12)
10. I'm Sorry Baby (I Want You In My Life) (2:55)


Exact Audio Copy V0.99 prebeta 4 from 23. January 2008

EAC extraction logfile from 16. December 2010, 22:36

Animal Logic / Animal Logic

Used drive : HL-DT-STDVD-RAM GSA-H55N Adapter: 0 ID: 0

Read mode : Secure
Utilize accurate stream : Yes
Defeat audio cache : Yes
Make use of C2 pointers : No

Read offset correction : 102
Overread into Lead-In and Lead-Out : Yes
Fill up missing offset samples with silence : Yes
Delete leading and trailing silent blocks : No
Null samples used in CRC calculations : Yes
Used interface : Installed external ASPI interface
Gap handling : Appended to previous track

Used output format : User Defined Encoder
Selected bitrate : 768 kBit/s
Quality : High
Add ID3 tag : No
Command line compressor : C:\Program Files\Exact Audio Copy\Flac\flac.exe
Additional command line options : -8 -V -T "ARTIST=%a" -T "TITLE=%t" -T "ALBUM=%g" -T "DATE=%y" -T "TRACKNUMBER=%n" -T "GENRE=%m" -T "COMMENT=EAC FLAC -8" %s


TOC of the extracted CD

Track | Start | Length | Start sector | End sector
––––––––––––––––––––––––––––-
1 | 0:00.00 | 4:23.67 | 0 | 19791
2 | 4:23.67 | 3:45.00 | 19792 | 36666
3 | 8:08.67 | 3:48.25 | 36667 | 53791
4 | 11:57.17 | 3:43.60 | 53792 | 70576
5 | 15:41.02 | 4:34.68 | 70577 | 91194
6 | 20:15.70 | 3:15.05 | 91195 | 105824
7 | 23:31.00 | 4:10.62 | 105825 | 124636
8 | 27:41.62 | 4:02.65 | 124637 | 142851
9 | 31:44.52 | 4:12.20 | 142852 | 161771
10 | 35:56.72 | 2:55.00 | 161772 | 174896


Track 1

Filename H:\Rips\01 - There's A Spy (In The House Of Love).wav

Pre-gap length 0:00:02.00

Peak level 98.0 %
Track quality 100.0 %
Test CRC 67347066
Copy CRC 67347066
Accurately ripped (confidence 3) [B6914FCE]
Copy OK

Track 2

Filename H:\Rips\02 - Someday We'll Understand.wav

Pre-gap length 0:00:00.80

Peak level 94.2 %
Track quality 100.0 %
Test CRC 88F663D3
Copy CRC 88F663D3
Accurately ripped (confidence 3) [7A9C07E1]
Copy OK

Track 3

Filename H:\Rips\03 - Winds Of Santa Ana.wav

Pre-gap length 0:00:00.89

Peak level 91.7 %
Track quality 100.0 %
Test CRC 702ED38B
Copy CRC 702ED38B
Accurately ripped (confidence 3) [E48A040B]
Copy OK

Track 4

Filename H:\Rips\04 - I'm Through With Love.wav

Pre-gap length 0:00:01.16

Peak level 98.4 %
Track quality 99.9 %
Test CRC 3382CF1A
Copy CRC 3382CF1A
Accurately ripped (confidence 3) [65F8CDF5]
Copy OK

Track 5

Filename H:\Rips\05 - As Soon As The Sun Goes Down.wav

Peak level 84.9 %
Track quality 100.0 %
Test CRC F365B14E
Copy CRC F365B14E
Accurately ripped (confidence 3) [780028C1]
Copy OK

Track 6

Filename H:\Rips\06 - I Still Feel For You.wav

Pre-gap length 0:00:01.26

Peak level 78.5 %
Track quality 100.0 %
Test CRC 8B2A69A8
Copy CRC 8B2A69A8
Accurately ripped (confidence 3) [B3689C82]
Copy OK

Track 7

Filename H:\Rips\07 - Elijah.wav

Pre-gap length 0:00:00.66

Peak level 94.8 %
Track quality 100.0 %
Test CRC 8A305A52
Copy CRC 8A305A52
Accurately ripped (confidence 3) [6CC1DA6B]
Copy OK

Track 8

Filename H:\Rips\08 - Firing Up The Sunset Gun.wav

Pre-gap length 0:00:00.93

Peak level 95.6 %
Track quality 100.0 %
Test CRC 462EDFF6
Copy CRC 462EDFF6
Accurately ripped (confidence 3) [C086CAF3]
Copy OK

Track 9

Filename H:\Rips\09 - Someone To Come Home To.wav

Pre-gap length 0:00:00.80

Peak level 85.4 %
Track quality 100.0 %
Test CRC 74E8A045
Copy CRC 74E8A045
Accurately ripped (confidence 3) [3413FF76]
Copy OK

Track 10

Filename H:\Rips\10 - I'm Sorry Baby (I Want You In My Life).wav

Pre-gap length 0:00:00.86

Peak level 77.5 %
Track quality 99.9 %
Test CRC FDB1D66B
Copy CRC FDB1D66B
Accurately ripped (confidence 3) [C9D1A05D]
Copy OK


All tracks accurately ripped

No errors occurred

End of status report

[CUETools log; Date: 02.02.2018 20:03:01; Version: 2.1.4]
[CTDB TOCID: rZMKkwWrniXmVgexciNu.kMLq2I-] found.
Track | CTDB Status
1 | (60/60) Accurately ripped
2 | (55/60) Accurately ripped
3 | (60/60) Accurately ripped
4 | (60/60) Accurately ripped
5 | (59/60) Accurately ripped
6 | (60/60) Accurately ripped
7 | (60/60) Accurately ripped
8 | (60/60) Accurately ripped
9 | (60/60) Accurately ripped
10 | (60/60) Accurately ripped
[AccurateRip ID: 000efbf6-007779af-81091b0a] found.
Track [ CRC | V2 ] Status
01 [b6914fce|61a0789c] (05+04/95) Accurately ripped
02 [7a9c07e1|67f37a89] (05+04/92) Accurately ripped
03 [e48a040b|9198c9d0] (05+04/94) Accurately ripped
04 [65f8cdf5|99509c9a] (05+04/94) Accurately ripped
05 [780028c1|a760df6a] (05+04/93) Accurately ripped
06 [b3689c82|74111978] (05+04/94) Accurately ripped
07 [6cc1da6b|a416dfef] (05+04/93) Accurately ripped
08 [c086caf3|a6037e7d] (05+04/93) Accurately ripped
09 [3413ff76|0a543d5e] (05+04/94) Accurately ripped
10 [c9d1a05d|796094e7] (05+04/93) Accurately ripped
Offsetted by -305:
01 [43a4ed7c] (02/95) Accurately ripped
02 [be23a148] (02/92) Accurately ripped
03 [31abac63] (02/94) Accurately ripped
04 [c88f09ba] (02/94) Accurately ripped
05 [30fbf50c] (02/93) Accurately ripped
06 [cd64aa21] (02/94) Accurately ripped
07 [4e318dcc] (02/93) Accurately ripped
08 [4bbe52d5] (02/93) Accurately ripped
09 [b4c5b3fe] (02/94) Accurately ripped
10 [a3372e4d] (02/93) Accurately ripped
Offsetted by -294:
01 [1873f59f] (25/95) Accurately ripped
02 [59cb62b7] (23/92) Accurately ripped
03 [a1b8a6b3] (24/94) Accurately ripped
04 [3eb527e5] (24/94) Accurately ripped
05 [bd7712c1] (24/93) Accurately ripped
06 [46b4e943] (24/94) Accurately ripped
07 [e862cb55] (23/93) Accurately ripped
08 [e47cf9a9] (24/93) Accurately ripped
09 [caef09b1] (24/94) Accurately ripped
10 [2d155ad0] (23/93) Accurately ripped
Offsetted by -53:
01 [a022b4a3] (02/95) Accurately ripped
02 [acf0952a] (02/92) Accurately ripped
03 [23c841da] (02/94) Accurately ripped
04 [16e68728] (02/94) Accurately ripped
05 [a6086e43] (02/93) Accurately ripped
06 [578b8d98] (02/94) Accurately ripped
07 [db3b8ab9] (02/93) Accurately ripped
08 [29aed809] (02/93) Accurately ripped
09 [c2180b37] (02/94) Accurately ripped
10 [b9572254] (02/93) Accurately ripped
Offsetted by -39:
01 [f3dec107] (06/95) Accurately ripped
02 [dbc035ea] (06/92) Accurately ripped
03 [b7124333] (06/94) Accurately ripped
04 [f4cec12b] (06/94) Accurately ripped
05 [9468fcd6] (06/93) Accurately ripped
06 [20f22804] (06/94) Accurately ripped
07 [6efd66b2] (06/93) Accurately ripped
08 [97d5e633] (06/93) Accurately ripped
09 [e31aaad0] (06/94) Accurately ripped
10 [a6b78f64] (06/93) Accurately ripped
Offsetted by 49:
01 [7722f7a5] (04/95) Accurately ripped
02 [53576bc5] (04/92) Accurately ripped
03 [c7a06987] (04/94) Accurately ripped
04 [7bdc6ba5] (04/94) Accurately ripped
05 [afeb414e] (04/93) Accurately ripped
06 [ba2ec503] (04/94) Accurately ripped
07 [b00b359e] (04/93) Accurately ripped
08 [09250b38] (04/93) Accurately ripped
09 [22918e44] (04/94) Accurately ripped
10 [e79267e8] (04/93) Accurately ripped
Offsetted by -223:
01 [b5d80a95] (05/95) Accurately ripped
02 [ae61a44d] (00/92) No match (V2 was not tested)
03 [42683a13] (00/94) No match
04 [a274e025] (00/94) No match
05 [b35ad5f5] (00/93) No match
06 [af71d0c7] (00/94) No match
07 [d54a778c] (00/93) No match
08 [1e74fccf] (00/93) No match
09 [8030786b] (00/94) No match
10 [fca046fe] (00/93) No match
Offsetted by -218:
01 [3ed2e070] (00/95) No match
02 [eb14b91f] (00/92) No match
03 [fd9ade18] (05/94) Accurately ripped
04 [8dc6fe6a] (05/94) Accurately ripped
05 [47e28cdf] (05/93) Accurately ripped
06 [3f7c3f8e] (05/94) Accurately ripped
07 [1c223346] (05/93) Accurately ripped
08 [8b72f5a7] (05/93) Accurately ripped
09 [8c4d74d0] (05/94) Accurately ripped
10 [d2183f0b] (05/93) Accurately ripped

Track Peak [ CRC32 ] [W/O NULL] [ LOG ]
– 98,4 [C7A85394] [05B5F82B]
01 98,0 [67347066] [3F45E6B8] CRC32
02 94,2 [88F663D3] [C14CA27C] CRC32
03 91,7 [702ED38B] [95FB7B58] CRC32
04 98,4 [3382CF1A] [F9A81000] CRC32
05 84,9 [F365B14E] [90E001AC] CRC32
06 78,5 [8B2A69A8] [2045B646] CRC32
07 94,8 [8A305A52] [501A9E51] CRC32
08 95,6 [462EDFF6] [37BF8644] CRC32
09 85,4 [74E8A045] [F9970032] CRC32
10 77,5 [FDB1D66B] [49EECE80] CRC32

foobar2000 1.2 / Dynamic Range Meter 1.1.1
log date: 2018-02-02 19:53:56

––––––––––––––––––––––––––––––––––––––––
Analyzed: Animal Logic / Animal Logic
––––––––––––––––––––––––––––––––––––––––

DR Peak RMS Duration Track
––––––––––––––––––––––––––––––––––––––––
DR13 -0.17 dB -15.56 dB 4:24 01-There's A Spy (In The House Of Love)
DR13 -0.51 dB -15.40 dB 3:45 02-Someday We'll Understand
DR12 -0.75 dB -15.30 dB 3:48 03-Winds Of Santa Ana
DR13 -0.13 dB -15.13 dB 3:44 04-I'm Through With Love
DR13 -1.41 dB -15.89 dB 4:35 05-As Soon As The Sun Goes Down
DR12 -2.10 dB -15.47 dB 3:15 06-I Still Feel For You
DR12 -0.46 dB -15.57 dB 4:11 07-Elijah
DR12 -0.39 dB -15.06 dB 4:03 08-Firing Up The Sunset Gun
DR11 -1.37 dB -13.98 dB 4:12 09-Someone To Come Home To
DR13 -2.21 dB -19.85 dB 2:55 10-I'm Sorry Baby (I Want You In My Life)
––––––––––––––––––––––––––––––––––––––––

Number of tracks: 10
Official DR value: DR12

Samplerate: 44100 Hz
Channels: 2
Bits per sample: 16
Bitrate: 675 kbps
Codec: FLAC
================================================================================

Animal Logic - Animal Logic (1989)

Animal Logic - Animal Logic (1989)

All thanks to original releaser

More interesting music in My Blog