Tags
Language
Tags

Antonio Vivaldi - Sacred Music [6CDs] (2012)

Posted By: ArlegZ
Antonio Vivaldi - Sacred Music [6CDs] (2012)

Antonio Vivaldi - Sacred Music [6CDs] (2012)
EAC | FLAC | Image (Cue & Log) ~ 1,87 Gb | TT: 6h 36' | Scans included
Classical | Label: Naïve | # OP30541 | Recorded: 2001-2009

A Naïve boxed set that gathers the finest sacred works composed by Antonio Vivaldi and performed by some of the most recognized artists in this wonderful repertoire, including Sandrine Piau, Marie-Nicole Lemieux, Philippe Jaroussky, Sara Mingardo, and Rinaldo Alessandrini.

Performer:
CDs 1-2: Vespri solenni per la festa dell'Assunzione di Maria Vergine
Gemma Bertagnoli, soprano
Roberta Invernizzi, soprano
Anna Simboli, soprano
Sara Mingardo, contralto
Gianluca Ferrarini, tenor
Matteo Bellotto, baritone
Concerto Italiano
Conductor - Rinaldo Alessandrini

CD1:
01. Concerto in fa maggiore in due cori RV 584: Allegro non molto
02. Intonatio: Deus in adiutorium
03. Responsorio: Domine ad adiuvandum me festina RV 593. Domine ad adiuvandum me festina: Allegro
04. Gloria Patri: Andante molto
05. Sicut erat in principio: Andante - Allegro
06. Ascende laeta RV 635. Aria: Ascende laeta: Allegro
07. Recitativo: Quam pulchri, quam formosi
08. Aria: Sternite, Angeli: Presto
09. Salmo 109 Dixit Dominus RV 594. Dixit Dominus: Allegro
10. Donec ponam inimicos tuos: Largo
11. Virgam virtutis tuae: Allegro
12. Tecum principum: Andante
13. Juravit Dominus: Adagio - Allegro
14. Dominus a Dextris tuis: Allegro
15. Judicabit in nationibus: Largo
16. De torrente in via: Andante
17. Gloria Patri: Allegro
18. Sicut erat in principio: Allegro
19. Antifona Assumpta est Maria in caelo
20. Antifona al Laudate pueri: Maria Virgo assumpta est
21. Salmo 112 Laudate pueri RV 600. Laudate pueri: Allegro
22. Sit nomen Domini: Largo
23. A solis ortu: Allegro
24. Excelsus super omnes: Andante
25. Quis sicut Dominus: Largo
26. Suscitans a terra: Presto - Adagio - Andante
27. Ut collocet eum: Allegro
28. Gloria: Largo
29. Sicut erat: Allegro
30. Amen: Allegro
31. Antifona Maria Virgo assumpta est
32. Antifona al Laetatus sum : In odorem unguentorum
33. Salmo 121 Laetatus sum RV 607: Allegro
34. Antifona In odorem unguentorum
CD2:
01. Antifona al Nisi Dominus: Benedicta filia tua Domino
02. Salmo 126 Nisi Dominus RV 608. Nisi Dominus: Allegro
03. Vanum est vobis: Largo
04. Surgite postquam sederitis: Presto - Adagio
05. Cum dederit: Andante
06. Sicut sagittae: Allegro
07. Beatus Vir: Andante
08. Gloria Patri: Larghetto
09. Sicut erat: Allegro
10. Amen: Allegro
11. Antifona Benedicta filia tua Domino
12. Antifona al Lauda Jerusalem : Pulchra es et decora
13. Salmo 147 Lauda Jerusalem RV 609: Allegro
14. Antifona Pulchra es et decora
15. Ave Maris stella
16. Antifona al Magnificat
17. Magnificat RV 610a. Magnificat: Adagio
18. Et exultavit: Allegro
19. Et misericordia: Andante molto
20. Fecit potentiam: Presto
21. Deposuit potentes: Allegro
22. Esurientes implevit bonis: Allegro
23. Suscepit Israel: Largo - Allegro - Adagio
24. Sicut locutus: Allegro ma poco
25. Gloria Patri: Lardo - Andante - Allegro
26. Concerto in do maggiore per la SS. Assunzione di Maria Vergine RV 581: Adagio e staccato - Allegro na poco poco
27. Largo
28. Allegro
29. Antifona Salve Regina, RV 616. Salve Regina: Andante
30. Ad te clamamus: Allegro
31. Ad te suspiramus: Larghetto
32. Eja ergo: Allegro
33. Et Jesum: Allegro molto
34. O clemens: Andante


Exact Audio Copy V1.3 from 2. September 2016

EAC extraction logfile from 26. March 2019, 21:20

Gemma Bertagnolli, Roberta Invernizzi, Anna Simboli, Sara Mingardo, Gianluca Ferrarini, Matteo Bellotto, Antonio De Secondi; Ri / Vivaldi - Vespri solenni per la festa dell'Assunzione di Maria Vergine (Disc 1)

Used drive : ATAPI iHAS124 F Adapter: 1 ID: 0

Read mode : Secure
Utilize accurate stream : Yes
Defeat audio cache : Yes
Make use of C2 pointers : No

Read offset correction : 6
Overread into Lead-In and Lead-Out : No
Fill up missing offset samples with silence : Yes
Delete leading and trailing silent blocks : No
Null samples used in CRC calculations : Yes
Used interface : Native Win32 interface for Win NT & 2000

Used output format : User Defined Encoder
Selected bitrate : 1024 kBit/s
Quality : High
Add ID3 tag : No
Command line compressor : C:\Program Files (x86)\Exact Audio Copy\FLAC\FLAC.EXE
Additional command line options : -6 -V -T "ARTIST=%artist%" -T "TITLE=%title%" -T "ALBUM=%albumtitle%" -T "DATE=%year%" -T "TRACKNUMBER=%tracknr%" -T "GENRE=%genre%" -T "COMMENT=%comment%" -T "BAND=%albuminterpret%" -T "ALBUMARTIST=%albuminterpret%" -T "COMPOSER=%composer%" %haslyrics%–tag-from-file=LYRICS="%lyricsfile%"%haslyrics% -T "DISCNUMBER=%cdnumber%" -T "TOTALDISCS=%totalcds%" -T "TOTALTRACKS=%numtracks%" %hascover%–picture="%coverfile%"%hascover% %source% -o %dest%


TOC of the extracted CD

Track | Start | Length | Start sector | End sector
––––––––––––––––––––––––––––-
1 | 0:00.00 | 5:33.33 | 0 | 25007
2 | 5:33.33 | 0:13.59 | 25008 | 26041
3 | 5:47.17 | 2:15.00 | 26042 | 36166
4 | 8:02.17 | 2:49.52 | 36167 | 48893
5 | 10:51.69 | 2:12.16 | 48894 | 58809
6 | 13:04.10 | 4:08.45 | 58810 | 77454
7 | 17:12.55 | 0:35.68 | 77455 | 80147
8 | 17:48.48 | 3:13.30 | 80148 | 94652
9 | 21:02.03 | 1:59.28 | 94653 | 103605
10 | 23:01.31 | 4:30.28 | 103606 | 123883
11 | 27:31.59 | 2:05.64 | 123884 | 133322
12 | 29:37.48 | 2:54.11 | 133323 | 146383
13 | 32:31.59 | 2:36.12 | 146384 | 158095
14 | 35:07.71 | 1:51.46 | 158096 | 166466
15 | 36:59.42 | 3:17.14 | 166467 | 181255
16 | 40:16.56 | 2:50.53 | 181256 | 194058
17 | 43:07.34 | 1:13.71 | 194059 | 199604
18 | 44:21.30 | 2:38.31 | 199605 | 211485
19 | 46:59.61 | 0:35.21 | 211486 | 214131
20 | 47:35.07 | 0:29.31 | 214132 | 216337
21 | 48:04.38 | 1:59.27 | 216338 | 225289
22 | 50:03.65 | 3:50.00 | 225290 | 242539
23 | 53:53.65 | 1:45.22 | 242540 | 250436
24 | 55:39.12 | 2:34.31 | 250437 | 262017
25 | 58:13.43 | 2:16.14 | 262018 | 272231
26 | 60:29.57 | 1:42.55 | 272232 | 279936
27 | 62:12.37 | 1:47.70 | 279937 | 288031
28 | 64:00.32 | 4:44.53 | 288032 | 309384
29 | 68:45.10 | 1:41.44 | 309385 | 317003
30 | 70:26.54 | 1:37.49 | 317004 | 324327
31 | 72:04.28 | 0:31.35 | 324328 | 326687
32 | 72:35.63 | 0:25.64 | 326688 | 328626
33 | 73:01.52 | 3:11.41 | 328627 | 342992
34 | 76:13.18 | 0:29.12 | 342993 | 345179


Range status and errors

Selected range

Filename C:\EACRip\CD1\Vivaldi - Vespri solenni per la festa dell'Assunzione di Maria Vergine (Disc 1) - Rinaldo Alessandrini.wav

Peak level 98.4 %
Extraction speed 6.6 X
Range quality 100.0 %
Test CRC 29E33DEB
Copy CRC 29E33DEB
Copy OK

No errors occurred


AccurateRip summary

Track 1 accurately ripped (confidence 48) [14B93E30] (AR v2)
Track 2 accurately ripped (confidence 49) [14AA9D7F] (AR v2)
Track 3 accurately ripped (confidence 49) [E6A21EE1] (AR v2)
Track 4 accurately ripped (confidence 49) [2BA4D77A] (AR v2)
Track 5 accurately ripped (confidence 49) [675D561C] (AR v2)
Track 6 accurately ripped (confidence 49) [7CDC76C5] (AR v2)
Track 7 accurately ripped (confidence 49) [7F9CE3A7] (AR v2)
Track 8 accurately ripped (confidence 49) [D1CF09AC] (AR v2)
Track 9 accurately ripped (confidence 48) [E67E065E] (AR v2)
Track 10 accurately ripped (confidence 48) [43CE6659] (AR v2)
Track 11 accurately ripped (confidence 48) [5A13AEC4] (AR v2)
Track 12 accurately ripped (confidence 48) [1565C226] (AR v2)
Track 13 accurately ripped (confidence 48) [99E9E7D0] (AR v2)
Track 14 accurately ripped (confidence 48) [1E53B6CC] (AR v2)
Track 15 accurately ripped (confidence 48) [57ACA3F7] (AR v2)
Track 16 accurately ripped (confidence 48) [876683C7] (AR v2)
Track 17 accurately ripped (confidence 48) [88C2584A] (AR v2)
Track 18 accurately ripped (confidence 48) [7F60FD46] (AR v2)
Track 19 accurately ripped (confidence 48) [BDB3D46D] (AR v2)
Track 20 accurately ripped (confidence 48) [97C7F159] (AR v2)
Track 21 accurately ripped (confidence 48) [939F1215] (AR v2)
Track 22 accurately ripped (confidence 48) [A8215335] (AR v2)
Track 23 accurately ripped (confidence 48) [B665446E] (AR v2)
Track 24 accurately ripped (confidence 48) [EAF13591] (AR v2)
Track 25 accurately ripped (confidence 48) [2AF75D64] (AR v2)
Track 26 accurately ripped (confidence 48) [A8BB9974] (AR v2)
Track 27 accurately ripped (confidence 48) [ECB64BCA] (AR v2)
Track 28 accurately ripped (confidence 48) [18FD8E10] (AR v2)
Track 29 accurately ripped (confidence 47) [2DB87D4B] (AR v2)
Track 30 accurately ripped (confidence 48) [57A304BD] (AR v2)
Track 31 accurately ripped (confidence 48) [7BE79138] (AR v2)
Track 32 accurately ripped (confidence 48) [747FE41A] (AR v2)
Track 33 accurately ripped (confidence 47) [2CD32A87] (AR v2)
Track 34 accurately ripped (confidence 48) [413D2A2D] (AR v2)

All tracks accurately ripped

End of status report

–– CUETools DB Plugin V2.1.6

[CTDB TOCID: gcm9SSPIgfc9c401ffHREpi5ZOM-] found
Submit result: gcm9SSPIgfc9c401ffHREpi5ZOM- has been confirmed
Track | CTDB Status
1 | (107/107) Accurately ripped
2 | (106/107) Accurately ripped
3 | (106/107) Accurately ripped
4 | (106/107) Accurately ripped
5 | (106/107) Accurately ripped
6 | (106/107) Accurately ripped
7 | (106/107) Accurately ripped
8 | (106/107) Accurately ripped
9 | (105/107) Accurately ripped
10 | (105/107) Accurately ripped
11 | (105/107) Accurately ripped
12 | (105/107) Accurately ripped
13 | (105/107) Accurately ripped
14 | (105/107) Accurately ripped
15 | (105/107) Accurately ripped
16 | (105/107) Accurately ripped
17 | (105/107) Accurately ripped
18 | (105/107) Accurately ripped
19 | (105/107) Accurately ripped
20 | (105/107) Accurately ripped
21 | (105/107) Accurately ripped
22 | (104/107) Accurately ripped
23 | (104/107) Accurately ripped
24 | (104/107) Accurately ripped
25 | (104/107) Accurately ripped
26 | (104/107) Accurately ripped
27 | (104/107) Accurately ripped
28 | (104/107) Accurately ripped
29 | (103/107) Accurately ripped
30 | (105/107) Accurately ripped
31 | (104/107) Accurately ripped
32 | (105/107) Accurately ripped
33 | (103/107) Accurately ripped
34 | (103/107) Accurately ripped


==== Log checksum D5E9CB65B2C68F316612FAC013C15C62AEE361C1EADA318E9603D84F7AB29DFD ====


Exact Audio Copy V1.3 from 2. September 2016

EAC extraction logfile from 26. March 2019, 22:33

Gemma Bertagnolli, Roberta Invernizzi, Anna Simboli, Sara Mingardo, Gianluca Ferrarini, Matteo Bellotto, Antonio De Secondi; Ri / Vivaldi - Vespri solenni per la festa dell'Assunzione di Maria Vergine (Disc 2)

Used drive : ATAPI iHAS124 F Adapter: 1 ID: 0

Read mode : Secure
Utilize accurate stream : Yes
Defeat audio cache : Yes
Make use of C2 pointers : No

Read offset correction : 6
Overread into Lead-In and Lead-Out : No
Fill up missing offset samples with silence : Yes
Delete leading and trailing silent blocks : No
Null samples used in CRC calculations : Yes
Used interface : Native Win32 interface for Win NT & 2000

Used output format : User Defined Encoder
Selected bitrate : 1024 kBit/s
Quality : High
Add ID3 tag : No
Command line compressor : C:\Program Files (x86)\Exact Audio Copy\FLAC\FLAC.EXE
Additional command line options : -6 -V -T "ARTIST=%artist%" -T "TITLE=%title%" -T "ALBUM=%albumtitle%" -T "DATE=%year%" -T "TRACKNUMBER=%tracknr%" -T "GENRE=%genre%" -T "COMMENT=%comment%" -T "BAND=%albuminterpret%" -T "ALBUMARTIST=%albuminterpret%" -T "COMPOSER=%composer%" %haslyrics%–tag-from-file=LYRICS="%lyricsfile%"%haslyrics% -T "DISCNUMBER=%cdnumber%" -T "TOTALDISCS=%totalcds%" -T "TOTALTRACKS=%numtracks%" %hascover%–picture="%coverfile%"%hascover% %source% -o %dest%


TOC of the extracted CD

Track | Start | Length | Start sector | End sector
––––––––––––––––––––––––––––-
1 | 0:00.00 | 0:20.33 | 0 | 1532
2 | 0:20.33 | 2:33.28 | 1533 | 13035
3 | 2:53.61 | 1:37.06 | 13036 | 20316
4 | 4:30.67 | 1:53.00 | 20317 | 28791
5 | 6:23.67 | 4:37.13 | 28792 | 49579
6 | 11:01.05 | 1:25.18 | 49580 | 55972
7 | 12:26.23 | 1:21.54 | 55973 | 62101
8 | 13:48.02 | 4:59.53 | 62102 | 84579
9 | 18:47.55 | 1:04.18 | 84580 | 89397
10 | 19:51.73 | 1:35.47 | 89398 | 96569
11 | 21:27.45 | 0:23.52 | 96570 | 98346
12 | 21:51.22 | 0:23.29 | 98347 | 100100
13 | 22:14.51 | 6:28.65 | 100101 | 129265
14 | 28:43.41 | 0:24.68 | 129266 | 131133
15 | 29:08.34 | 1:50.39 | 131134 | 139422
16 | 30:58.73 | 0:31.24 | 139423 | 141771
17 | 31:30.22 | 1:32.17 | 141772 | 148688
18 | 33:02.39 | 1:49.62 | 148689 | 156925
19 | 34:52.26 | 3:08.29 | 156926 | 171054
20 | 38:00.55 | 0:24.50 | 171055 | 172904
21 | 38:25.30 | 0:53.22 | 172905 | 176901
22 | 39:18.52 | 1:20.68 | 176902 | 182969
23 | 40:39.45 | 0:52.17 | 182970 | 186886
24 | 41:31.62 | 1:42.62 | 186887 | 194598
25 | 43:14.49 | 2:03.59 | 194599 | 203882
26 | 45:18.33 | 5:23.05 | 203883 | 228112
27 | 50:41.38 | 4:32.30 | 228113 | 248542
28 | 55:13.68 | 4:43.10 | 248543 | 269777
29 | 59:57.03 | 3:48.63 | 269778 | 286940
30 | 63:45.66 | 1:24.08 | 286941 | 293248
31 | 65:09.74 | 5:25.61 | 293249 | 317684
32 | 70:35.60 | 1:18.32 | 317685 | 323566
33 | 71:54.17 | 1:42.28 | 323567 | 331244
34 | 73:36.45 | 2:47.20 | 331245 | 343789


Range status and errors

Selected range

Filename C:\EACRip\CD2\Vivaldi - Vespri solenni per la festa dell'Assunzione di Maria Vergine (Disc 2) - Rinaldo Alessandrini.wav

Peak level 98.0 %
Extraction speed 9.5 X
Range quality 100.0 %
Test CRC 58B07384
Copy CRC 58B07384
Copy OK

No errors occurred


AccurateRip summary

Track 1 accurately ripped (confidence 48) [3688E9D5] (AR v2)
Track 2 accurately ripped (confidence 48) [77958C98] (AR v2)
Track 3 accurately ripped (confidence 47) [090C1204] (AR v2)
Track 4 accurately ripped (confidence 48) [36FEA774] (AR v2)
Track 5 accurately ripped (confidence 48) [7CF7B474] (AR v2)
Track 6 accurately ripped (confidence 49) [ADC3F3E8] (AR v2)
Track 7 accurately ripped (confidence 49) [7CD1E297] (AR v2)
Track 8 accurately ripped (confidence 49) [835BA61A] (AR v2)
Track 9 accurately ripped (confidence 49) [708E545E] (AR v2)
Track 10 accurately ripped (confidence 49) [34220C2F] (AR v2)
Track 11 accurately ripped (confidence 49) [BC472C28] (AR v2)
Track 12 accurately ripped (confidence 49) [466342F7] (AR v2)
Track 13 accurately ripped (confidence 49) [6F5DE4B2] (AR v2)
Track 14 accurately ripped (confidence 49) [93570D80] (AR v2)
Track 15 accurately ripped (confidence 49) [D23D520F] (AR v2)
Track 16 accurately ripped (confidence 49) [742DFEF5] (AR v2)
Track 17 accurately ripped (confidence 49) [2F2D1B22] (AR v2)
Track 18 accurately ripped (confidence 49) [61D1B724] (AR v2)
Track 19 accurately ripped (confidence 49) [419603D5] (AR v2)
Track 20 accurately ripped (confidence 49) [D66D85E6] (AR v2)
Track 21 accurately ripped (confidence 49) [B1E7353F] (AR v2)
Track 22 accurately ripped (confidence 49) [8A2BFAC1] (AR v2)
Track 23 accurately ripped (confidence 49) [2F043BB1] (AR v2)
Track 24 accurately ripped (confidence 49) [B318061B] (AR v2)
Track 25 accurately ripped (confidence 49) [62283327] (AR v2)
Track 26 accurately ripped (confidence 49) [C4B0F4DB] (AR v2)
Track 27 accurately ripped (confidence 49) [37A24B2F] (AR v2)
Track 28 accurately ripped (confidence 49) [016AD039] (AR v2)
Track 29 accurately ripped (confidence 48) [ACFFC67A] (AR v2)
Track 30 accurately ripped (confidence 49) [50937C4E] (AR v2)
Track 31 accurately ripped (confidence 49) [53C79F89] (AR v2)
Track 32 accurately ripped (confidence 49) [19A35C5A] (AR v2)
Track 33 accurately ripped (confidence 49) [626E8135] (AR v2)
Track 34 accurately ripped (confidence 49) [AFEB23B9] (AR v2)

All tracks accurately ripped

End of status report

–– CUETools DB Plugin V2.1.6

[CTDB TOCID: eclCiweVOc0GuR4PbrRbt3KZIME-] found
Submit result: eclCiweVOc0GuR4PbrRbt3KZIME- has been confirmed
Track | CTDB Status
1 | (106/106) Accurately ripped
2 | (106/106) Accurately ripped
3 | (105/106) Accurately ripped
4 | (105/106) Accurately ripped
5 | (106/106) Accurately ripped
6 | (106/106) Accurately ripped
7 | (106/106) Accurately ripped
8 | (106/106) Accurately ripped
9 | (106/106) Accurately ripped
10 | (105/106) Accurately ripped
11 | (106/106) Accurately ripped
12 | (106/106) Accurately ripped
13 | (106/106) Accurately ripped
14 | (106/106) Accurately ripped
15 | (106/106) Accurately ripped
16 | (105/106) Accurately ripped
17 | (106/106) Accurately ripped
18 | (106/106) Accurately ripped
19 | (106/106) Accurately ripped
20 | (106/106) Accurately ripped
21 | (106/106) Accurately ripped
22 | (106/106) Accurately ripped
23 | (106/106) Accurately ripped
24 | (106/106) Accurately ripped
25 | (106/106) Accurately ripped
26 | (106/106) Accurately ripped
27 | (105/106) Accurately ripped
28 | (105/106) Accurately ripped
29 | (105/106) Accurately ripped
30 | (106/106) Accurately ripped
31 | (105/106) Accurately ripped
32 | (106/106) Accurately ripped
33 | (106/106) Accurately ripped
34 | (105/106) Accurately ripped


==== Log checksum BAA048CE006CA1512355F67A01BB7F12DC4923CA51355BC642D0421A91158A0E ====


CD 3: Mottetti RV 629, 631, 633, 623, 628, 630
Anke Herrmann, soprano
Laura Polverelli, mezzo-soprano
Academia Montis Regalis
Conductor - Alessandro De Marchi

01. Mottetto "Longue mala" RV 629: I. Aria "Longue mala, umbrae, terrores" [Allegro]
02. II. Recitativo "Recedite nubes et fulgura"
03. III. Aria "Descende ò caeli vox" [Larghetto]
04. IV. Aria "Alleluia" [Allegro]
05. Mottetto "O qui coeli terraeque" RV 631: I. Aria "O qui coeli terraeque serenitas" [Allegro]
06. II. Recitativo "Fac ut sordescat tellus"
07. III. Aria "Rosa quae moritur" [Largo]
08. IV. Aria "Alleluia" [Allegro]
09. Mottetto "Vestro principi divino" RV 633: I. Aria "Vestro principi divino" [Allegro]
10. II. Recitativo "O felix culpa fortunata"
11. III. Aria "Quid loqueris ad cor" [Presto]
12. IV. Aria "Alleluia" [Presto]
13. Mottetto "Canta in prato" RV 623: I. Aria "Canta in prato, ride in monte" [Allegro]
14. II. Recitativo accompagnato "Sacra fulgescit nobis"
15. III. Aria "Avenae rusticae" [Allegro]
16. IV. Aria "Alleluia" [Allegro]
17. Mottetto "Invicti, bellate" RV 628: I. Aria "Invicti, bellate" [Presto]
18. II. Recitativo "Fortes estote in bello"
19. III. Aria "Dux eterne, Jesu care" [Larghetto]
20. IV. Aria "Alleluia" [Allegro]
21. Mottetto "Nulla in mundo pax" RV 630: I. Aria "Nulla in mundo pax sincera" [Larghetto]
22. II. Recitativo "Blando colore oculos mundus decepit"
23. III. Aria "Spirat anguis inter flores" [Allegro]
24. IV. Aria "Alleluia" [Allegro]

Exact Audio Copy V1.3 from 2. September 2016

EAC extraction logfile from 26. March 2019, 23:27

Anke Herrmann, Laura Polverelli; Alessandro De Marchi / Vivaldi - Motetti

Used drive : ATAPI iHAS124 F Adapter: 1 ID: 0

Read mode : Secure
Utilize accurate stream : Yes
Defeat audio cache : Yes
Make use of C2 pointers : No

Read offset correction : 6
Overread into Lead-In and Lead-Out : No
Fill up missing offset samples with silence : Yes
Delete leading and trailing silent blocks : No
Null samples used in CRC calculations : Yes
Used interface : Native Win32 interface for Win NT & 2000

Used output format : User Defined Encoder
Selected bitrate : 1024 kBit/s
Quality : High
Add ID3 tag : No
Command line compressor : C:\Program Files (x86)\Exact Audio Copy\FLAC\FLAC.EXE
Additional command line options : -6 -V -T "ARTIST=%artist%" -T "TITLE=%title%" -T "ALBUM=%albumtitle%" -T "DATE=%year%" -T "TRACKNUMBER=%tracknr%" -T "GENRE=%genre%" -T "COMMENT=%comment%" -T "BAND=%albuminterpret%" -T "ALBUMARTIST=%albuminterpret%" -T "COMPOSER=%composer%" %haslyrics%–tag-from-file=LYRICS="%lyricsfile%"%haslyrics% -T "DISCNUMBER=%cdnumber%" -T "TOTALDISCS=%totalcds%" -T "TOTALTRACKS=%numtracks%" %hascover%–picture="%coverfile%"%hascover% %source% -o %dest%


TOC of the extracted CD

Track | Start | Length | Start sector | End sector
––––––––––––––––––––––––––––-
1 | 0:00.00 | 6:10.50 | 0 | 27799
2 | 6:10.50 | 0:34.08 | 27800 | 30357
3 | 6:44.58 | 6:17.05 | 30358 | 58637
4 | 13:01.63 | 2:25.37 | 58638 | 69549
5 | 15:27.25 | 5:46.00 | 69550 | 95499
6 | 21:13.25 | 0:36.09 | 95500 | 98208
7 | 21:49.34 | 6:42.10 | 98209 | 128368
8 | 28:31.44 | 1:37.11 | 128369 | 135654
9 | 30:08.55 | 4:41.56 | 135655 | 156785
10 | 34:50.36 | 0:40.22 | 156786 | 159807
11 | 35:30.58 | 2:13.10 | 159808 | 169792
12 | 37:43.68 | 1:22.63 | 169793 | 176005
13 | 39:06.56 | 3:20.56 | 176006 | 191061
14 | 42:27.37 | 0:52.54 | 191062 | 195015
15 | 43:20.16 | 2:12.73 | 195016 | 204988
16 | 45:33.14 | 1:03.42 | 204989 | 209755
17 | 46:36.56 | 2:16.53 | 209756 | 220008
18 | 48:53.34 | 0:45.22 | 220009 | 223405
19 | 49:38.56 | 4:17.71 | 223406 | 242751
20 | 53:56.52 | 2:07.29 | 242752 | 252305
21 | 56:04.06 | 6:51.27 | 252306 | 283157
22 | 62:55.33 | 1:00.62 | 283158 | 287719
23 | 63:56.20 | 3:37.64 | 287720 | 304058
24 | 67:34.09 | 1:59.28 | 304059 | 313011


Range status and errors

Selected range

Filename C:\EACRip\00 - DO PRZENIESIENIA\2 sobota\VIVALDI - SACRED MUSIC (6CD Box, naive, 2012 [2001-2009])\2. Vivaldi - Motetti (Alessandro De Marchi) (2003)\Vivaldi - Motetti - Anke Herrmann, Laura Polverelli, Alessandro De Marchi.wav

Peak level 99.9 %
Extraction speed 8.7 X
Range quality 100.0 %
Test CRC 0AD46EA1
Copy CRC 0AD46EA1
Copy OK

No errors occurred


AccurateRip summary

Track 1 accurately ripped (confidence 39) [5B948B16] (AR v2)
Track 2 accurately ripped (confidence 39) [AFF51EB9] (AR v2)
Track 3 accurately ripped (confidence 39) [8D10DD93] (AR v2)
Track 4 accurately ripped (confidence 39) [45C083DD] (AR v2)
Track 5 accurately ripped (confidence 39) [1AD6B4DA] (AR v2)
Track 6 accurately ripped (confidence 39) [0BC85C13] (AR v2)
Track 7 accurately ripped (confidence 39) [663B44B7] (AR v2)
Track 8 accurately ripped (confidence 39) [78567064] (AR v2)
Track 9 accurately ripped (confidence 39) [3DCB50D5] (AR v2)
Track 10 accurately ripped (confidence 39) [C269E023] (AR v2)
Track 11 accurately ripped (confidence 39) [0E7ECB38] (AR v2)
Track 12 accurately ripped (confidence 37) [6ED912A6] (AR v2)
Track 13 accurately ripped (confidence 38) [1EABBCAF] (AR v2)
Track 14 accurately ripped (confidence 38) [C5FAB8D0] (AR v2)
Track 15 accurately ripped (confidence 38) [7F14C292] (AR v2)
Track 16 accurately ripped (confidence 38) [EA91B334] (AR v2)
Track 17 accurately ripped (confidence 37) [57AAFBD3] (AR v2)
Track 18 accurately ripped (confidence 38) [15C63741] (AR v2)
Track 19 accurately ripped (confidence 38) [14BF2339] (AR v2)
Track 20 accurately ripped (confidence 38) [AD97FCE8] (AR v2)
Track 21 accurately ripped (confidence 38) [09F9F28F] (AR v2)
Track 22 accurately ripped (confidence 38) [DF90B30F] (AR v2)
Track 23 accurately ripped (confidence 38) [BE2B3BC7] (AR v2)
Track 24 accurately ripped (confidence 38) [19F94923] (AR v2)

All tracks accurately ripped

End of status report

–– CUETools DB Plugin V2.1.6

[CTDB TOCID: iMlgEH.QLMJK5wko.3O77tzh_as-] found
Submit result: iMlgEH.QLMJK5wko.3O77tzh_as- has been confirmed
Track | CTDB Status
1 | (34/34) Accurately ripped
2 | (34/34) Accurately ripped
3 | (34/34) Accurately ripped
4 | (34/34) Accurately ripped
5 | (34/34) Accurately ripped
6 | (34/34) Accurately ripped
7 | (34/34) Accurately ripped
8 | (34/34) Accurately ripped
9 | (34/34) Accurately ripped
10 | (34/34) Accurately ripped
11 | (34/34) Accurately ripped
12 | (34/34) Accurately ripped
13 | (34/34) Accurately ripped
14 | (34/34) Accurately ripped
15 | (34/34) Accurately ripped
16 | (34/34) Accurately ripped
17 | (34/34) Accurately ripped
18 | (34/34) Accurately ripped
19 | (34/34) Accurately ripped
20 | (34/34) Accurately ripped
21 | (34/34) Accurately ripped
22 | (34/34) Accurately ripped
23 | (34/34) Accurately ripped
24 | (33/34) Accurately ripped


==== Log checksum 95A4CCFDEB974905B80099B418D8C8ABE9ECBDF4C8C7B99291F14F933D9CDFBC ====


CD 4: In furore, Laudate pueri e concerti sacri
Sandrine Piau, soprano
Accademia Bizantina
Conductor - Ottavio Dantone

01. Mottetto “In furore” RV626: I. Aria 'In furore iustissimae irae' - Allegro
02. II. Recitativo
03. III. Aria 'Tunc meus fletus' - Largo
04. IV. Alleluia - Allegro
05. Sinfonia RV 169 'Al Santo Sepolcro' in si minore: I. Adagio molto
06. II. Allegro ma poco
07. 'Laudate pueri' RV 601: I. Laudate pueri - Allegro non molto
08. II. Sit nomen Domini - Allegro
09. III. A solis ortu - Andante
10. IV. Excelsus super omnes - Larghetto
11. V. Suscitans a terra - Allegro molto
12. VI. Ut collocet eum - Allegro
13. VII. Gloria Patri et Filio - Larghetto
14. VIII. Sicut erat - Allegro
15. VIIII. Amen - Allegro
16. Concerto RV 541 per violino e organo in re minore: I. Allegro
17. II. Grave
18. III. Allegro molto
19. Concerto RV 286 'per la Solennita di San Lorenzo' in fa maggiore: I. Largo molto e spiccato - Andante molto
20. II. Largo
21. III. Allegro non molto

Exact Audio Copy V1.3 from 2. September 2016

EAC extraction logfile from 27. March 2019, 0:10

Sandrine Piau; Ottavio Dantone / Vivaldi - In furore, Laudate pueri e concerti sacri

Used drive : ATAPI iHAS124 F Adapter: 1 ID: 0

Read mode : Secure
Utilize accurate stream : Yes
Defeat audio cache : Yes
Make use of C2 pointers : No

Read offset correction : 6
Overread into Lead-In and Lead-Out : No
Fill up missing offset samples with silence : Yes
Delete leading and trailing silent blocks : No
Null samples used in CRC calculations : Yes
Used interface : Native Win32 interface for Win NT & 2000

Used output format : User Defined Encoder
Selected bitrate : 1024 kBit/s
Quality : High
Add ID3 tag : No
Command line compressor : C:\Program Files (x86)\Exact Audio Copy\FLAC\FLAC.EXE
Additional command line options : -6 -V -T "ARTIST=%artist%" -T "TITLE=%title%" -T "ALBUM=%albumtitle%" -T "DATE=%year%" -T "TRACKNUMBER=%tracknr%" -T "GENRE=%genre%" -T "COMMENT=%comment%" -T "BAND=%albuminterpret%" -T "ALBUMARTIST=%albuminterpret%" -T "COMPOSER=%composer%" %haslyrics%–tag-from-file=LYRICS="%lyricsfile%"%haslyrics% -T "DISCNUMBER=%cdnumber%" -T "TOTALDISCS=%totalcds%" -T "TOTALTRACKS=%numtracks%" %hascover%–picture="%coverfile%"%hascover% %source% -o %dest%


TOC of the extracted CD

Track | Start | Length | Start sector | End sector
––––––––––––––––––––––––––––-
1 | 0:00.00 | 4:29.61 | 0 | 20235
2 | 4:29.61 | 0:35.36 | 20236 | 22896
3 | 5:05.22 | 6:10.15 | 22897 | 50661
4 | 11:15.37 | 1:41.57 | 50662 | 58293
5 | 12:57.19 | 2:45.73 | 58294 | 70741
6 | 15:43.17 | 2:20.25 | 70742 | 81266
7 | 18:03.42 | 3:06.49 | 81267 | 95265
8 | 21:10.16 | 2:29.05 | 95266 | 106445
9 | 23:39.21 | 3:30.65 | 106446 | 122260
10 | 27:10.11 | 3:19.06 | 122261 | 137191
11 | 30:29.17 | 2:16.47 | 137192 | 147438
12 | 32:45.64 | 1:43.67 | 147439 | 155230
13 | 34:29.56 | 4:02.17 | 155231 | 173397
14 | 38:31.73 | 0:57.25 | 173398 | 177697
15 | 39:29.23 | 1:48.35 | 177698 | 185832
16 | 41:17.58 | 3:50.62 | 185833 | 203144
17 | 45:08.45 | 3:08.51 | 203145 | 217295
18 | 48:17.21 | 2:08.64 | 217296 | 226959
19 | 50:26.10 | 5:17.09 | 226960 | 250743
20 | 55:43.19 | 2:44.17 | 250744 | 263060
21 | 58:27.36 | 4:26.73 | 263061 | 283083


Range status and errors

Selected range

Filename C:\EACRip\CD\Vivaldi - In furore, Laudate pueri e concerti sacri - Sandrine Piau, Ottavio Dantone.wav

Peak level 98.8 %
Extraction speed 8.6 X
Range quality 100.0 %
Test CRC A2ACAE4C
Copy CRC A2ACAE4C
Copy OK

No errors occurred


AccurateRip summary

Track 1 accurately ripped (confidence 46) [ABACAF54] (AR v2)
Track 2 accurately ripped (confidence 45) [4AA5BAC2] (AR v2)
Track 3 accurately ripped (confidence 45) [1513B219] (AR v2)
Track 4 accurately ripped (confidence 46) [8C1C3714] (AR v2)
Track 5 accurately ripped (confidence 46) [22C53786] (AR v2)
Track 6 accurately ripped (confidence 46) [B4BFA622] (AR v2)
Track 7 accurately ripped (confidence 46) [66264D21] (AR v2)
Track 8 accurately ripped (confidence 46) [B7EE1339] (AR v2)
Track 9 accurately ripped (confidence 46) [8E752F8B] (AR v2)
Track 10 accurately ripped (confidence 46) [5769B89E] (AR v2)
Track 11 accurately ripped (confidence 46) [FCADAEC3] (AR v2)
Track 12 accurately ripped (confidence 46) [26985990] (AR v2)
Track 13 accurately ripped (confidence 46) [DEA19060] (AR v2)
Track 14 accurately ripped (confidence 46) [0B865681] (AR v2)
Track 15 accurately ripped (confidence 46) [8C9685C1] (AR v2)
Track 16 accurately ripped (confidence 46) [0F6D3ABA] (AR v2)
Track 17 accurately ripped (confidence 46) [8A92FF51] (AR v2)
Track 18 accurately ripped (confidence 46) [138841CC] (AR v2)
Track 19 accurately ripped (confidence 46) [1820692D] (AR v2)
Track 20 accurately ripped (confidence 46) [046D0391] (AR v2)
Track 21 accurately ripped (confidence 45) [A44B1467] (AR v2)

All tracks accurately ripped

End of status report

–– CUETools DB Plugin V2.1.6

[CTDB TOCID: dj3Gu6V7eQyeEX1cEV37eIFR6S0-] found
Submit result: dj3Gu6V7eQyeEX1cEV37eIFR6S0- has been confirmed
Track | CTDB Status
1 | (65/65) Accurately ripped
2 | (65/65) Accurately ripped
3 | (65/65) Accurately ripped
4 | (65/65) Accurately ripped
5 | (65/65) Accurately ripped
6 | (65/65) Accurately ripped
7 | (65/65) Accurately ripped
8 | (65/65) Accurately ripped
9 | (65/65) Accurately ripped
10 | (65/65) Accurately ripped
11 | (65/65) Accurately ripped
12 | (65/65) Accurately ripped
13 | (65/65) Accurately ripped
14 | (65/65) Accurately ripped
15 | (65/65) Accurately ripped
16 | (65/65) Accurately ripped
17 | (65/65) Accurately ripped
18 | (64/65) Accurately ripped
19 | (64/65) Accurately ripped
20 | (65/65) Accurately ripped
21 | (65/65) Accurately ripped


==== Log checksum 612FD8B6BD39990E4A5E2B582E758DD99DD761196ADF806177B89FFE9728FDF7 ====


CD 5: Cloria RV 588 & RV 589: Ostro picta RV 642
Sara Mingardo, contralto
Concerto Italiano
Conductor - Rinaldo Alessandrini

01. Ostro picta, armata spina RV 642: "Ostro picta, armata spina" - Allegro
02. "Sic transit vana et brevis gloria mundi"- recitativo
03. "Unguis favete" - Allegro
04. Gloria RV 589: "Gloria in excelsis Deo" - Allegro
05. "Et in terra pax hominibus" - Andante
06. "Laudamus te" - Allegro
07. "Gratias agimus tibi - Propter magnam gloriam tuam" - Adagio - Allegro
08. "Domine Deus Rex coelestis" - Largo
09. "Domine Fili Unigenite" - Allegro
10. "Domine Deus Agnus Dei" - Adagio
11. "Qui tollis peccata mundi" - Adagio
12. "Qui sedes ad dexteram Patris" - Allegro
13. "Quoniam tu solus sanctus" - [Allegro]
14. "Cum sancto spiritu" - [Allegro]
15. Gloria RV 588: "Jubilate o ameni Chori" - Allegro
16. "In tan solemni pompa" - recitativo
17. "Sonoro modulamine" - Allegro
18. "Et in terra pax hominibus" - Largo
19. "Laudamus te" - Allegro
20. "Gratias agimus tibi" - Adagio
21. "Domine Deus Rex coelestis" - Largo
22. "Domine Fili unigenite"
23. "Domine Deus Agnus Dei" - Allegro
24. "Qui tollis peccata mundi" - Adagio
25. "Qui sedes ad dexteram Patris" - Largo
26. "Quoniam tu solus sanctus" - Allegro
27. "Cum sancto spiritu" - Adagio - [Allegro]

Exact Audio Copy V1.3 from 2. September 2016

EAC extraction logfile from 27. March 2019, 3:04

Sara Mingardo, Rinaldo Alessandrini / Vivaldi - Gloria

Used drive : ATAPI iHAS124 F Adapter: 1 ID: 0

Read mode : Secure
Utilize accurate stream : Yes
Defeat audio cache : Yes
Make use of C2 pointers : No

Read offset correction : 6
Overread into Lead-In and Lead-Out : No
Fill up missing offset samples with silence : Yes
Delete leading and trailing silent blocks : No
Null samples used in CRC calculations : Yes
Used interface : Native Win32 interface for Win NT & 2000

Used output format : User Defined Encoder
Selected bitrate : 1024 kBit/s
Quality : High
Add ID3 tag : No
Command line compressor : C:\Program Files (x86)\Exact Audio Copy\FLAC\FLAC.EXE
Additional command line options : -6 -V -T "ARTIST=%artist%" -T "TITLE=%title%" -T "ALBUM=%albumtitle%" -T "DATE=%year%" -T "TRACKNUMBER=%tracknr%" -T "GENRE=%genre%" -T "COMMENT=%comment%" -T "BAND=%albuminterpret%" -T "ALBUMARTIST=%albuminterpret%" -T "COMPOSER=%composer%" %haslyrics%–tag-from-file=LYRICS="%lyricsfile%"%haslyrics% -T "DISCNUMBER=%cdnumber%" -T "TOTALDISCS=%totalcds%" -T "TOTALTRACKS=%numtracks%" %hascover%–picture="%coverfile%"%hascover% %source% -o %dest%


TOC of the extracted CD

Track | Start | Length | Start sector | End sector
––––––––––––––––––––––––––––-
1 | 0:00.00 | 2:49.24 | 0 | 12698
2 | 2:49.24 | 0:54.73 | 12699 | 16821
3 | 3:44.22 | 2:50.45 | 16822 | 29616
4 | 6:34.67 | 2:10.26 | 29617 | 39392
5 | 8:45.18 | 3:28.56 | 39393 | 55048
6 | 12:13.74 | 1:57.02 | 55049 | 63825
7 | 14:11.01 | 1:26.04 | 63826 | 70279
8 | 15:37.05 | 4:30.28 | 70280 | 90557
9 | 20:07.33 | 2:07.13 | 90558 | 100095
10 | 22:14.46 | 4:39.20 | 100096 | 121040
11 | 26:53.66 | 0:53.61 | 121041 | 125076
12 | 27:47.52 | 2:05.11 | 125077 | 134462
13 | 29:52.63 | 0:43.58 | 134463 | 137745
14 | 30:36.46 | 3:11.37 | 137746 | 152107
15 | 33:48.08 | 5:06.53 | 152108 | 175110
16 | 38:54.61 | 0:30.42 | 175111 | 177402
17 | 39:25.28 | 3:43.36 | 177403 | 194163
18 | 43:08.64 | 5:30.55 | 194164 | 218968
19 | 48:39.44 | 2:00.71 | 218969 | 228039
20 | 50:40.40 | 0:58.35 | 228040 | 232424
21 | 51:39.00 | 2:08.62 | 232425 | 242086
22 | 53:47.62 | 1:40.18 | 242087 | 249604
23 | 55:28.05 | 1:42.17 | 249605 | 257271
24 | 57:10.22 | 1:32.48 | 257272 | 264219
25 | 58:42.70 | 3:34.10 | 264220 | 280279
26 | 62:17.05 | 1:23.62 | 280280 | 286566
27 | 63:40.67 | 3:18.41 | 286567 | 301457


Range status and errors

Selected range

Filename C:\EACRip\00 - DO PRZENIESIENIA\2 sobota\VIVALDI - SACRED MUSIC (6CD Box, naive, 2012 [2001-2009])\4. Vivaldi - Gloria (Sara Mingardo et al., Rinaldo Alessandrini) (2009)\Vivaldi - Gloria - Sara Mingardo, Rinaldo Alessandrini.wav

Peak level 97.5 %
Extraction speed 8.6 X
Range quality 100.0 %
Test CRC 4D7305CA
Copy CRC 4D7305CA
Copy OK

No errors occurred


AccurateRip summary

Track 1 accurately ripped (confidence 44) [2073E118] (AR v2)
Track 2 accurately ripped (confidence 44) [8C584BFC] (AR v2)
Track 3 accurately ripped (confidence 44) [F86F447F] (AR v2)
Track 4 accurately ripped (confidence 44) [C1B4FD61] (AR v2)
Track 5 accurately ripped (confidence 44) [C56FDA37] (AR v2)
Track 6 accurately ripped (confidence 44) [D5792E00] (AR v2)
Track 7 accurately ripped (confidence 44) [3A3C07AF] (AR v2)
Track 8 accurately ripped (confidence 44) [6AF1E049] (AR v2)
Track 9 accurately ripped (confidence 44) [3DE4E384] (AR v2)
Track 10 accurately ripped (confidence 44) [454BF1F7] (AR v2)
Track 11 accurately ripped (confidence 44) [D95D87DE] (AR v2)
Track 12 accurately ripped (confidence 44) [136E88DB] (AR v2)
Track 13 accurately ripped (confidence 44) [A15D23E8] (AR v2)
Track 14 accurately ripped (confidence 44) [97C8684C] (AR v2)
Track 15 accurately ripped (confidence 44) [05AAF7A9] (AR v2)
Track 16 accurately ripped (confidence 44) [3AA3A69B] (AR v2)
Track 17 accurately ripped (confidence 43) [0F457A92] (AR v2)
Track 18 accurately ripped (confidence 43) [EE8C3481] (AR v2)
Track 19 accurately ripped (confidence 43) [50A2C3C1] (AR v2)
Track 20 accurately ripped (confidence 43) [B8BDCB2D] (AR v2)
Track 21 accurately ripped (confidence 43) [8603E07C] (AR v2)
Track 22 accurately ripped (confidence 42) [75EC9C23] (AR v2)
Track 23 accurately ripped (confidence 43) [CBFC9644] (AR v2)
Track 24 accurately ripped (confidence 43) [B3109A21] (AR v2)
Track 25 accurately ripped (confidence 43) [51097E94] (AR v2)
Track 26 accurately ripped (confidence 43) [0CCCFB32] (AR v2)
Track 27 accurately ripped (confidence 43) [02458CFA] (AR v2)

All tracks accurately ripped

End of status report

–– CUETools DB Plugin V2.1.6

[CTDB TOCID: DEO2x9lnqbl6yRd6I.KX8CWlAMc-] found
Submit result: DEO2x9lnqbl6yRd6I.KX8CWlAMc- has been confirmed
Track | CTDB Status
1 | (63/63) Accurately ripped
2 | (63/63) Accurately ripped
3 | (63/63) Accurately ripped
4 | (63/63) Accurately ripped
5 | (63/63) Accurately ripped
6 | (63/63) Accurately ripped
7 | (63/63) Accurately ripped
8 | (63/63) Accurately ripped
9 | (63/63) Accurately ripped
10 | (63/63) Accurately ripped
11 | (63/63) Accurately ripped
12 | (63/63) Accurately ripped
13 | (63/63) Accurately ripped
14 | (63/63) Accurately ripped
15 | (63/63) Accurately ripped
16 | (63/63) Accurately ripped
17 | (63/63) Accurately ripped
18 | (63/63) Accurately ripped
19 | (63/63) Accurately ripped
20 | (63/63) Accurately ripped
21 | (62/63) Accurately ripped
22 | (63/63) Accurately ripped
23 | (63/63) Accurately ripped
24 | (62/63) Accurately ripped
25 | (62/63) Accurately ripped
26 | (63/63) Accurately ripped
27 | (62/63) Accurately ripped


==== Log checksum 043DA058937023B2C1119B5C569AEAE831940C9B0680E1E2E171D98A9AA539BE ====


CD 6: INisi Dominus; Stabat Mater
Philippe Jarousky, countertenor
Marie-Nicole Lemieux, contralto
Ensemble Matheus
Conductor - Jean-Christophe Spinosi

01. Nisi Dominus RV608: I. Nisi Dominus (allegro)
02. II. Vanum est vobis (largo)
03. III. Surgite postquam sederitis (presto)
04. IV. Cum dederit delectis suis somnum (andante)
05. V. Sicut sagittae in manu potentis (allegro molto)
06. VI. Beatus vir qui implevit (andante)
07. VII. Gloria Patri (larghetto)
08. VIII. Sicut erat in principio (allegro)
09. IX. Amen (allegro)
10. Crucifixus etiam pro nobis RV592
11. Stabat Mater RV621: I. Stabat Mater dolorosa (largo)
12. II. Cujus animam gementem (adagissimo)
13. III. O quam tristis (andante)
14. IV. Quis est homo (largo)
15. V. Quis non posset (adagissimo)
16. VI. Pro peccatis suae gentis (andante)
17. VII. Eia Mater, fons amoris (largo)
18. VIII. Facut ardeat cor meum (lento)
19. IX. Amen

Exact Audio Copy V1.3 from 2. September 2016

EAC extraction logfile from 27. March 2019, 11:08

Philippe Jaroussky, Marie-Nicole Lemieux; Jean-Christophe Spinosi / Vivaldi - Nisi Dominus. Stabat Mater

Used drive : ATAPI iHAS124 F Adapter: 1 ID: 0

Read mode : Secure
Utilize accurate stream : Yes
Defeat audio cache : Yes
Make use of C2 pointers : No

Read offset correction : 6
Overread into Lead-In and Lead-Out : No
Fill up missing offset samples with silence : Yes
Delete leading and trailing silent blocks : No
Null samples used in CRC calculations : Yes
Used interface : Native Win32 interface for Win NT & 2000

Used output format : User Defined Encoder
Selected bitrate : 1024 kBit/s
Quality : High
Add ID3 tag : No
Command line compressor : C:\Program Files (x86)\Exact Audio Copy\FLAC\FLAC.EXE
Additional command line options : -6 -V -T "ARTIST=%artist%" -T "TITLE=%title%" -T "ALBUM=%albumtitle%" -T "DATE=%year%" -T "TRACKNUMBER=%tracknr%" -T "GENRE=%genre%" -T "COMMENT=%comment%" -T "BAND=%albuminterpret%" -T "ALBUMARTIST=%albuminterpret%" -T "COMPOSER=%composer%" %haslyrics%–tag-from-file=LYRICS="%lyricsfile%"%haslyrics% -T "DISCNUMBER=%cdnumber%" -T "TOTALDISCS=%totalcds%" -T "TOTALTRACKS=%numtracks%" %hascover%–picture="%coverfile%"%hascover% %source% -o %dest%


TOC of the extracted CD

Track | Start | Length | Start sector | End sector
––––––––––––––––––––––––––––-
1 | 0:00.00 | 2:34.15 | 0 | 11564
2 | 2:34.15 | 1:15.62 | 11565 | 17251
3 | 3:50.02 | 1:33.54 | 17252 | 24280
4 | 5:23.56 | 5:10.19 | 24281 | 47549
5 | 10:34.00 | 1:44.37 | 47550 | 55386
6 | 12:18.37 | 1:02.12 | 55387 | 60048
7 | 13:20.49 | 4:34.33 | 60049 | 80631
8 | 17:55.07 | 1:00.04 | 80632 | 85135
9 | 18:55.11 | 1:37.44 | 85136 | 92454
10 | 20:32.55 | 2:51.44 | 92455 | 105323
11 | 23:24.24 | 3:04.54 | 105324 | 119177
12 | 26:29.03 | 1:50.15 | 119178 | 127442
13 | 28:19.18 | 1:43.24 | 127443 | 135191
14 | 30:02.42 | 3:02.17 | 135192 | 148858
15 | 33:04.59 | 1:49.46 | 148859 | 157079
16 | 34:54.30 | 1:41.58 | 157080 | 164712
17 | 36:36.13 | 3:03.42 | 164713 | 178479
18 | 39:39.55 | 1:29.05 | 178480 | 185159
19 | 41:08.60 | 0:48.20 | 185160 | 188779


Range status and errors

Selected range

Filename C:\EACRip\CD\Vivaldi - Nisi Dominus. Stabat Mater - Jaroussky, Lemieux, Jean-Christophe Spinosi.wav

Peak level 100.0 %
Extraction speed 7.8 X
Range quality 100.0 %
Test CRC 35FD04BD
Copy CRC 35FD04BD
Copy OK

No errors occurred


AccurateRip summary

Track 1 accurately ripped (confidence 80) [FC770595] (AR v2)
Track 2 accurately ripped (confidence 79) [E3C268F3] (AR v2)
Track 3 accurately ripped (confidence 79) [226F28A7] (AR v2)
Track 4 accurately ripped (confidence 79) [E3B587EB] (AR v2)
Track 5 accurately ripped (confidence 79) [275CC135] (AR v2)
Track 6 accurately ripped (confidence 79) [4E2A0B5A] (AR v2)
Track 7 accurately ripped (confidence 80) [4585A414] (AR v2)
Track 8 accurately ripped (confidence 79) [CBC9F71B] (AR v2)
Track 9 accurately ripped (confidence 79) [2164EAA4] (AR v2)
Track 10 accurately ripped (confidence 79) [E990063C] (AR v2)
Track 11 accurately ripped (confidence 79) [C26D2DC2] (AR v2)
Track 12 accurately ripped (confidence 79) [B05F19CB] (AR v2)
Track 13 accurately ripped (confidence 78) [82726C4F] (AR v2)
Track 14 accurately ripped (confidence 79) [C28CD231] (AR v2)
Track 15 accurately ripped (confidence 79) [78A81026] (AR v2)
Track 16 accurately ripped (confidence 79) [F49F2785] (AR v2)
Track 17 accurately ripped (confidence 79) [3AA4E62A] (AR v2)
Track 18 accurately ripped (confidence 79) [B59E0A70] (AR v2)
Track 19 accurately ripped (confidence 79) [854A8925] (AR v2)

All tracks accurately ripped

End of status report

–– CUETools DB Plugin V2.1.6

[CTDB TOCID: o07cZQyw9DwUFos1nKvc6C_6gaw-] found
Submit result: o07cZQyw9DwUFos1nKvc6C_6gaw- has been confirmed
Track | CTDB Status
1 | (132/132) Accurately ripped
2 | (132/132) Accurately ripped
3 | (132/132) Accurately ripped
4 | (131/132) Accurately ripped
5 | (132/132) Accurately ripped
6 | (132/132) Accurately ripped
7 | (131/132) Accurately ripped
8 | (132/132) Accurately ripped
9 | (132/132) Accurately ripped
10 | (131/132) Accurately ripped
11 | (131/132) Accurately ripped
12 | (132/132) Accurately ripped
13 | (132/132) Accurately ripped
14 | (132/132) Accurately ripped
15 | (132/132) Accurately ripped
16 | (132/132) Accurately ripped
17 | (132/132) Accurately ripped
18 | (132/132) Accurately ripped
19 | (131/132) Accurately ripped


==== Log checksum A667CBA1AF8D6F49252709E372A2D1390FDBF0C8090AA07D1E1F8112D459A44F ====


Antonio Vivaldi - Sacred Music [6CDs] (2012)

Thanks to the original releaser