Subcategories

Aphex Twin - Richard D. James Album (1996) US Edition

Posted By: Designol
Aphex Twin - Richard D. James Album (1996) US Edition

Aphex Twin - Richard D. James Album (1996)
EAC | FLAC | Tracks (Cue&Log) ~ 280 Mb | Mp3 (CBR320) ~ 125 Mb | Scans included | 00:43:27
IDM, Experimental Electronic, Jungle, Drill 'n' Bass, Ambient Techno | Label: Sire | # 62010-2

Richard D. James Album is an electronic album by Aphex Twin, whose real name is Richard David James. The work features use of software synthesizers and unusual beats. It is his fourth official full-length album. The album garnered high acclaim from music critics, and was named 40th in Pitchfork Media's "Top 100 Albums of the 1990s" list. It was also placed #55 on NME's Top 100 Albums of All Time in 2003.

Perhaps inspired by the experimental drum'n'bass being created by Squarepusher (a recent signee to his Rephlex label), Richard D. James' third major-label album as Aphex Twin was his first to work with jungle – though, to his credit, he had released the breakbeat EP Hangable Auto Bulb almost a year earlier. Contemporaries Orbital and Underworld were beginning to incorporate moderate use of drum'n'bass in their work as well, but this album was more extreme than virtually all jungle being made at the time. The beats are jackhammer quick and even more jarring considering what is – for the most part – laid over the top: the same fragile, slow-moving melodies that characterized Aphex Twin's earlier ambient works. Most overtly disturbing is "Milkman," the first straight-ahead vocal track from Aphex Twin; the song is a child-like ode that gradually deteriorates into a bizarre fantasy concerning the milkman's wife. With all the Aphex Twin's curious idiosyncracies, though, Richard D. James Album is a very listenable record and a worthy follow-up to I Care Because You Do. [The American issue features the English EP "Girl/Boy."]

Review by John Bush, Allmusic.com

Aphex Twin - Richard D. James Album (1996) US Edition



Tracklist:

01. 4 (3:36)
02. Cornish Acid (2:15)
03. Peek 824545201 (3:05)
04. Fingerbib (3:49)
05. Carn Marth (2:33)
06. To Cure a Weakling Child (4:04)
07. Goon Gumpas (2:02)
08. Yellow Calx (3:03)
09. Girl/Boy Song (4:48)
10. Logan Rock Witch (3:32)
11. Milk Man (4:09)
12. Inkey$ (1:24)
13. Girl/Boy Song (18 Pounds Snare Rush mix) (1:58)
14. Beetles (1:31)
15. Girl/Boy Song (Redruth mix) (1:38)


Exact Audio Copy V1.0 beta 3 from 29. August 2011

EAC extraction logfile from 20. November 2011, 0:45

Aphex Twin / Richard D. James Album (62010-2)

Used drive : ASUS DRW-24B1ST Adapter: 3 ID: 0

Read mode : Secure
Utilize accurate stream : Yes
Defeat audio cache : Yes
Make use of C2 pointers : No

Read offset correction : 6
Overread into Lead-In and Lead-Out : No
Fill up missing offset samples with silence : Yes
Delete leading and trailing silent blocks : No
Null samples used in CRC calculations : Yes
Used interface : Native Win32 interface for Win NT & 2000
Gap handling : Appended to previous track

Used output format : User Defined Encoder
Selected bitrate : 128 kBit/s
Quality : High
Add ID3 tag : No
Command line compressor : C:\Program Files (x86)\Exact Audio Copy\Flac\flac.exe
Additional command line options : -V -8 -T "Genre=%genre%" -T "Artist=%artist%" -T "Title=%title%" -T "Album=%albumtitle%" -T "Date=%year%" -T "Tracknumber=%tracknr%" -T "Comment=%comment%" %source%


TOC of the extracted CD

Track | Start | Length | Start sector | End sector
––––––––––––––––––––––––––––-
1 | 0:00.32 | 3:36.15 | 32 | 16246
2 | 3:36.47 | 2:14.60 | 16247 | 26356
3 | 5:51.32 | 3:05.10 | 26357 | 40241
4 | 8:56.42 | 3:48.68 | 40242 | 57409
5 | 12:45.35 | 2:33.25 | 57410 | 68909
6 | 15:18.60 | 4:03.62 | 68910 | 87196
7 | 19:22.47 | 2:02.35 | 87197 | 96381
8 | 21:25.07 | 3:02.50 | 96382 | 110081
9 | 24:27.57 | 4:47.58 | 110082 | 131664
10 | 29:15.40 | 3:32.25 | 131665 | 147589
11 | 32:47.65 | 4:09.02 | 147590 | 166266
12 | 36:56.67 | 1:24.23 | 166267 | 172589
13 | 38:21.15 | 1:57.40 | 172590 | 181404
14 | 40:18.55 | 1:31.10 | 181405 | 188239
15 | 41:49.65 | 1:37.42 | 188240 | 195556


Track 1

Filename D:\01. 4.wav

Pre-gap length 0:00:02.32

Peak level 96.8 %
Extraction speed 3.7 X
Track quality 100.0 %
Test CRC 86459C58
Copy CRC 86459C58
Accurately ripped (confidence 16) [CF9EAA27] (AR v2)
Copy OK

Track 2

Filename D:\02. Cornish Acid.wav

Pre-gap length 0:00:02.00

Peak level 96.8 %
Extraction speed 2.6 X
Track quality 99.9 %
Test CRC 5D0AA9C2
Copy CRC 5D0AA9C2
Accurately ripped (confidence 15) [EE39895A] (AR v2)
Copy OK

Track 3

Filename D:\03. Peek 824545201.wav

Peak level 96.8 %
Extraction speed 4.2 X
Track quality 100.0 %
Test CRC E953CB48
Copy CRC E953CB48
Accurately ripped (confidence 15) [CD1F031F] (AR v2)
Copy OK

Track 4

Filename D:\04. Fingerbib.wav

Pre-gap length 0:00:04.47

Peak level 96.8 %
Extraction speed 4.6 X
Track quality 100.0 %
Test CRC DD71C6DC
Copy CRC DD71C6DC
Accurately ripped (confidence 16) [12D8BFFB] (AR v2)
Copy OK

Track 5

Filename D:\05. Carn Marth.wav

Pre-gap length 0:00:02.45

Peak level 96.8 %
Extraction speed 3.4 X
Track quality 99.9 %
Test CRC 83483D50
Copy CRC 83483D50
Accurately ripped (confidence 15) [DCA848B1] (AR v2)
Copy OK

Track 6

Filename D:\06. To Cure a Weakling Child.wav

Pre-gap length 0:00:04.23

Peak level 96.8 %
Extraction speed 5.1 X
Track quality 100.0 %
Test CRC 8CDADB52
Copy CRC 8CDADB52
Accurately ripped (confidence 16) [DB70220A] (AR v2)
Copy OK

Track 7

Filename D:\07. Goon Gumpas.wav

Pre-gap length 0:00:06.07

Peak level 84.4 %
Extraction speed 3.2 X
Track quality 99.9 %
Test CRC 9D53BDC6
Copy CRC 9D53BDC6
Accurately ripped (confidence 15) [7BF42DFB] (AR v2)
Copy OK

Track 8

Filename D:\08. Yellow Calx.wav

Pre-gap length 0:00:05.22

Peak level 96.9 %
Extraction speed 5.3 X
Track quality 100.0 %
Test CRC AF225534
Copy CRC AF225534
Accurately ripped (confidence 16) [A4A1B596] (AR v2)
Copy OK

Track 9

Filename D:\09. Girl,Boy Song.wav

Pre-gap length 0:00:02.60

Peak level 96.9 %
Extraction speed 5.9 X
Track quality 100.0 %
Test CRC BD92B85F
Copy CRC BD92B85F
Accurately ripped (confidence 16) [9CDDF45C] (AR v2)
Copy OK

Track 10

Filename D:\10. Logan Rock Witch.wav

Pre-gap length 0:00:00.40

Peak level 91.3 %
Extraction speed 5.9 X
Track quality 100.0 %
Test CRC 0F0AF011
Copy CRC 0F0AF011
Accurately ripped (confidence 15) [97194A72] (AR v2)
Copy OK

Track 11

Filename D:\11. Milk Man.wav

Pre-gap length 0:00:00.63

Peak level 96.9 %
Extraction speed 6.3 X
Track quality 100.0 %
Test CRC 970A8559
Copy CRC 970A8559
Accurately ripped (confidence 16) [10240CB7] (AR v2)
Copy OK

Track 12

Filename D:\12. Inkey$.wav

Peak level 92.1 %
Extraction speed 3.2 X
Track quality 99.8 %
Test CRC 0DB7370D
Copy CRC 0DB7370D
Accurately ripped (confidence 15) [9EA8E800] (AR v2)
Copy OK

Track 13

Filename D:\13. Girl,Boy Song (18 Pounds Snare Rush mix).wav

Pre-gap length 0:00:03.03

Peak level 96.9 %
Extraction speed 3.9 X
Track quality 99.9 %
Test CRC 9F381709
Copy CRC 9F381709
Accurately ripped (confidence 15) [5DBE695E] (AR v2)
Copy OK

Track 14

Filename D:\14. Beetles.wav

Pre-gap length 0:00:03.58

Peak level 95.3 %
Extraction speed 5.4 X
Track quality 100.0 %
Test CRC FFBD0161
Copy CRC FFBD0161
Accurately ripped (confidence 15) [A33304CE] (AR v2)
Copy OK

Track 15

Filename D:\15. Girl,Boy Song (Redruth mix).wav

Pre-gap length 0:00:04.23

Peak level 95.3 %
Extraction speed 5.5 X
Track quality 100.0 %
Test CRC 7C2F3E33
Copy CRC 7C2F3E33
Accurately ripped (confidence 15) [1B06F39F] (AR v2)
Copy OK


All tracks accurately ripped

No errors occurred

End of status report

==== Log checksum AA443A3D4140E0F3C56FE6C5A9A2E5CC932683D47F0C463CA1F26EE601E57148 ====

foobar2000 1.1.8 / Dynamic Range Meter 1.1.0
log date: 2011-11-20 02:16:03

––––––––––––––––––––––––––––––––––––––––
Analyzed: Aphex Twin / Richard D. James Album (62010-2)
––––––––––––––––––––––––––––––––––––––––

DR Peak RMS Duration Track
––––––––––––––––––––––––––––––––––––––––
DR7 -0.27 dB -9.42 dB 3:36 01-4
DR10 -0.27 dB -10.83 dB 2:15 02-Cornish Acid
DR9 -0.27 dB -11.84 dB 3:05 03-Peek 824545201
DR7 -0.27 dB -9.68 dB 3:49 04-Fingerbib
DR5 -0.27 dB -6.52 dB 2:33 05-Carn Marth
DR6 -0.27 dB -9.12 dB 4:04 06-To Cure a Weakling Child
DR7 -1.46 dB -13.79 dB 2:02 07-Goon Gumpas
DR8 -0.27 dB -10.82 dB 3:03 08-Yellow Calx
DR5 -0.27 dB -7.99 dB 4:48 09-Girl/Boy Song
DR9 -0.79 dB -11.90 dB 3:32 10-Logan Rock Witch
DR8 -0.27 dB -11.60 dB 4:09 11-Milk Man
DR6 -0.71 dB -9.07 dB 1:24 12-Inkey$
DR9 -0.27 dB -11.59 dB 1:58 13-Girl/Boy Song (18 Pounds Snare Rush mix)
DR10 -0.41 dB -12.66 dB 1:31 14-Beetles
DR8 -0.42 dB -11.36 dB 1:38 15-Girl/Boy Song (Redruth mix)
––––––––––––––––––––––––––––––––––––––––

Number of tracks: 15
Official DR value: DR8

Samplerate: 44100 Hz
Channels: 2
Bits per sample: 16
Bitrate: 854 kbps
Codec: FLAC
================================================================================

Aphex Twin - Richard D. James Album (1996) US Edition

Aphex Twin - Richard D. James Album (1996) US Edition

All thanks to original releaser - Misantrop

More interesting music in My Blog