Tags
Language
Tags

Aretha Franklin - Greatest Hits (1980-1994) (1994) [Japan]

Posted By: BlondStyle
Aretha Franklin - Greatest Hits (1980-1994) (1994) [Japan]

Aretha Franklin - Greatest Hits (1980-1994) (1994) [Japan]
R&B, Soul/Funk, Quiet Storm, Urban | EAC Rip | FLAC, Img+CUE+LOG+Scans (JPEG) | 46:59 Min. | 607,02 Mb
Label: Arista Records/BMG Victor Inc. (Japan) | Cat.# BVCA-639 | Released: 1994-04-21 (1994-02-15)

"Greatest Hits (1980-1994)" is the RIAA Platinum-certified first greatest hits album released by Aretha Franklin since she signed with Arista Records in 1980. As it can be read in the title, it compiles her hits from 1980's "Aretha" all through her last album at the time, 1991's "What You See Is What You Sweat". Songs from her 1989 album "Through the Storm" were not included in the set, nor were either of her duets with Elton John and Whitney Houston. Songs from her second Arista set, 1981's "Love All the Hurt Away" were not included either, meaning neither the title track hit duet with George Benson nor her Grammy Award-winning cover of "Hold On I'm Comin'" were in the set. Other omissions include her hit duet with the Eurythmics' "Sisters Are Doin' It for Themselves" and her 1983 Top 10 R&B hit "Every Girl (Wants My Guy)", produced by Luther Vandross.
~Wikipedia
This compilation collects the Queen of Soul's biggest hits from 1980-1994, after she left her legendary tenure with Atlantic and moved on to Arista. The material collected here is not quite as essential as her Atlantic recordings instead, the focus seems to weigh heavily toward middle-of-the-road, adult contemporary soul pop, which continued to translate into chart success, albeit a little more sporadic. This album includes her '80s smashes "Freeway of Love," "Jump to It," "Who's Zoomin' Who," "Another Night," and "Jimmy Lee," as well as her chart-topping 1987 duet with George Michael, "I Knew You Were Waiting (For Me)," and her adult contemporary hit duet with Michael McDonald, "Everchanging Times." Also included is the soulful "Doctor's Orders" with ace crooner Luther Vandross, and "United Together," the greatest song Whitney Houston never recorded. This collection is not free of annoying omissions, among those are her essential duet with Eurythmics, "Sisters Are Doin' It for Themselves"; her hit duet with Elton John, "Through the Storm"; and her hit remake of the Rolling Stones' "Jumpin' Jack Flash." That song, however, is included as a bonus track on select pressings of the album. A few new tracks are thrown in, including the Babyface-penned, assembly-line ballad "Willing to Forgive," which became her first American Top 40 hit in five years, and her version of the Clivelles and Cole club anthem "A Deeper Love," which went on to top the dance charts. The album closes with two live tracks, one being "You Make Me Feel (Like a Natural Woman)" with Bonnie Raitt and Gloria Estefan, and the fantastically soulful "I Dreamed a Dream." Not a bad collection by any means, but some of the material is a little spotty, and it could have been quite better had they included all the hits.
~Review by Jose F. Promis

Aretha Franklin - Greatest Hits (1980-1994) (1994) [Japan]

Aretha Franklin - Greatest Hits (1980-1994) (1994) [Japan]


Release of this album: 1994, February, 15 [CD Arista Records, Cat.# 07822-18722-2, USA]
Release of this CD: 1994, April, 21 [CD Arista Records/BMG Victor Inc. (Japan), Cat.# BVCA-639 / EAN: 4988017046463]
℗ 1994 Arista Records, Inc.
Manufactured by BMG Victor Inc., Tokyo, Japan.
Made in Japan


Credits:

Art Direction – Maude Gilman, Susan Mendola
Design – Christopher Stern, Susan Mendola
Design [Front Cover Type] – Jim LeBadd
Executive-Producer – Clive Davis
Liner Notes – David Nathan
Other [Hair] – Bruno Marrocchio
Other [Jewelery] – Kenneth Jay Lane
Other [Make-up] – Kevin Aucoin
Other [Shoes] – Vanessa Noel
Other [Styling] – Bernard Jacobs
Photography By – Timothy White


Tracklist:

01. Freeway Of Love (05:52)
02. I Knew You Were Waiting (For Me) (Duet with George Michael) (04:00)
03. Jump To It (04:14)
04. Willing To Forgive (04:14)
05. Doctor's Order (Duet with Luther Vandross) (04:34)
06. United Together (05:02)
07. Who's Zoomin' Who (04:43)
08. A Deeper Love (04:34)
09. Honey (04:14)
10. Get It Right (04:15)
11. Another Night (04:30)
12. Ever Changing Times (Featuring Michael McDonald) (04:53)
13. Jimmy Lee (05:45)
14. You Make Me Feel (Like A Natural Woman) (Featuring Bonnie Raitt and Gloria Estefan) (04:26)
15. I Dreamed A Dream (04:18)
16. Jumpin' Jack Flash (05:10)

Exact Audio Copy V1.3 from 2. September 2016

EAC extraction logfile from 5. March 2018, 0:54

Aretha Franklin / Greatest Hits (1980-1994)

Used drive : PIONEER BD-RW BDR-208D Adapter: 1 ID: 0

Read mode : Secure
Utilize accurate stream : Yes
Defeat audio cache : Yes
Make use of C2 pointers : No

Read offset correction : 667
Overread into Lead-In and Lead-Out : No
Fill up missing offset samples with silence : Yes
Delete leading and trailing silent blocks : No
Null samples used in CRC calculations : Yes
Used interface : Native Win32 interface for Win NT & 2000

Used output format : Internal WAV Routines
Sample format : 44.100 Hz; 16 Bit; Stereo


TOC of the extracted CD

Track | Start | Length | Start sector | End sector
––––––––––––––––––––––––––––-
1 | 0:00.37 | 5:53.65 | 37 | 26576
2 | 5:54.27 | 4:00.30 | 26577 | 44606
3 | 9:54.57 | 4:16.00 | 44607 | 63806
4 | 14:10.57 | 4:12.30 | 63807 | 82736
5 | 18:23.12 | 4:35.70 | 82737 | 103431
6 | 22:59.07 | 5:03.38 | 103432 | 126194
7 | 28:02.45 | 4:43.60 | 126195 | 147479
8 | 32:46.30 | 4:35.50 | 147480 | 168154
9 | 37:22.05 | 4:14.05 | 168155 | 187209
10 | 41:36.10 | 4:15.35 | 187210 | 206369
11 | 45:51.45 | 4:29.17 | 206370 | 226561
12 | 50:20.62 | 4:55.68 | 226562 | 248754
13 | 55:16.55 | 5:47.60 | 248755 | 274839
14 | 61:04.40 | 5:07.17 | 274840 | 297881
15 | 66:11.57 | 5:11.10 | 297882 | 321216
16 | 71:22.67 | 5:02.40 | 321217 | 343906


Range status and errors

Selected range

Filename D:\BlondStyle\Aretha Franklin - Greatest Hits (1980-1994).wav

Peak level 100.0 %
Extraction speed 4.5 X
Range quality 100.0 %
Test CRC 673BBCFA
Copy CRC 673BBCFA
Copy OK

No errors occurred


AccurateRip summary

Track 1 cannot be verified as accurate (confidence 3) [EC5CF785], AccurateRip returned [1C571F6A] (AR v2)
Track 2 cannot be verified as accurate (confidence 3) [0C51808D], AccurateRip returned [57C4E2C0] (AR v2)
Track 3 cannot be verified as accurate (confidence 3) [B1C18292], AccurateRip returned [FF7E1B5C] (AR v2)
Track 4 cannot be verified as accurate (confidence 3) [3FD8A0AD], AccurateRip returned [69E276E2] (AR v2)
Track 5 cannot be verified as accurate (confidence 3) [FE1AD47A], AccurateRip returned [7559666D] (AR v2)
Track 6 cannot be verified as accurate (confidence 3) [6B32D1CA], AccurateRip returned [A151E908] (AR v2)
Track 7 cannot be verified as accurate (confidence 3) [623A615B], AccurateRip returned [8DEC3E00] (AR v2)
Track 8 cannot be verified as accurate (confidence 3) [4CF65A87], AccurateRip returned [2BD60CF3] (AR v2)
Track 9 cannot be verified as accurate (confidence 3) [1C1942F7], AccurateRip returned [00EBF9F2] (AR v2)
Track 10 cannot be verified as accurate (confidence 3) [E757ADAF], AccurateRip returned [4FEC7FE9] (AR v2)
Track 11 cannot be verified as accurate (confidence 3) [F93FB10E], AccurateRip returned [C7D2B74E] (AR v2)
Track 12 cannot be verified as accurate (confidence 3) [97AE7192], AccurateRip returned [299F2287] (AR v2)
Track 13 cannot be verified as accurate (confidence 3) [F17B7ACF], AccurateRip returned [7DF0E098] (AR v2)
Track 14 cannot be verified as accurate (confidence 3) [572369D1], AccurateRip returned [32D187D8] (AR v2)
Track 15 cannot be verified as accurate (confidence 3) [7D880FCF], AccurateRip returned [9FAA8334] (AR v2)
Track 16 cannot be verified as accurate (confidence 3) [51380342], AccurateRip returned [2155C3EA] (AR v2)

No tracks could be verified as accurate
You may have a different pressing from the one(s) in the database

End of status report

–– CUETools DB Plugin V2.1.6

[CTDB TOCID: UZVqT4ejHJvDilNXRjKHbrk1RjA-] found
Submit result: UZVqT4ejHJvDilNXRjKHbrk1RjA- has been confirmed
Track | CTDB Status
1 | (5/5) Accurately ripped
2 | (5/5) Accurately ripped
3 | (5/5) Accurately ripped
4 | (5/5) Accurately ripped
5 | (5/5) Accurately ripped
6 | (5/5) Accurately ripped
7 | (5/5) Accurately ripped
8 | (5/5) Accurately ripped
9 | (4/5) Accurately ripped
10 | (4/5) Accurately ripped
11 | (4/5) Accurately ripped
12 | (4/5) Accurately ripped
13 | (4/5) Accurately ripped
14 | (4/5) Accurately ripped
15 | (4/5) Accurately ripped
16 | (4/5) Accurately ripped


==== Log checksum 16A4DBF4DE9CACE522E8E28A89E6F74DBB03671B06B3A591BE6E719BB9E2A240 ====

––––––––––––––––––––––––––––––––––––––––
Analyzed: Aretha Franklin / Greatest Hits (1980-1994)
––––––––––––––––––––––––––––––––––––––––

DR Peak RMS Duration Track
––––––––––––––––––––––––––––––––––––––––
DR12 -2.39 dB -15.94 dB 5:54 01-Freeway Of Love
DR11 -3.29 dB -17.37 dB 4:00 02-I Knew You Were Waiting (For Me) (Duet with George Michael)
DR12 -4.30 dB -17.96 dB 4:16 03-Jump To It
DR13 -2.07 dB -16.16 dB 4:12 04-Willing To Forgive
DR11 -4.72 dB -17.60 dB 4:36 05-Doctor's Orders (Duet with Luther Vandross)
DR12 -2.70 dB -18.07 dB 5:04 06-United Together
DR13 -1.99 dB -18.25 dB 4:44 07-Who's Zoomin' Who
DR12 -3.56 dB -17.14 dB 4:36 08-A Deeper Love
DR11 -4.38 dB -17.19 dB 4:14 09-Honey
DR12 -4.47 dB -18.13 dB 4:15 10-Get It Right
DR12 -1.32 dB -16.00 dB 4:29 11-Anogher Night
DR10 -4.49 dB -17.50 dB 4:56 12-Ever Changing Times (Feat. Michael McDonald)
DR14 -1.43 dB -17.32 dB 5:48 13-Jimmy Lee
DR12 -3.19 dB -18.09 dB 5:07 14-You Make Me Feel (Like A Natural Woman) (Feat. Bonnie Raitt & Gloria Estefan)
DR8 -5.76 dB -17.72 dB 5:11 15-I Dreamed A Dream
DR12 0.00 dB -14.57 dB 5:03 16-Jumpin' Jack Flash
––––––––––––––––––––––––––––––––––––––––

Number of tracks: 16
Official DR value: DR12

Samplerate: 44100 Hz
Channels: 2
Bits per sample: 16
Bitrate: 882 kbps
Codec: FLAC
================================================================================

See also:


password: BlondStyle