Tags
Language
Tags

Banco De Gaia - Maya (1994) [Original Edition & 3CD 20th Anniversary Edition 2014]

Posted By: gribovar
Banco De Gaia - Maya (1994) [Original Edition & 3CD 20th Anniversary Edition 2014]

Banco De Gaia - Maya (1994) [Original Edition & 3CD 20th Anniversary Edition 2014]
EAC Rip | FLAC (tracks+.cue+log) - 1,94 GB | MP3 CBR 320 kbps (LAME 3.93) - 676 MB | Covers - 15 MB
Genre: Downtempo, World, Dub, Ambient, Trance | RAR 3% Rec. | Label: Planet Dog/Ultimate, Disco Gecko

Inspired to enter the field of electronic music by Britain's acid house explosion of the late '80s, Toby Marks took quite a different spin on electronica with his recordings as Banco de Gaia, introducing elements of Eastern and Arabic music, sampling similarly exotic sources, and tying the whole to ambient-dub rhythms. Marks began releasing cassette-only albums in the early '90s, distributed through a network of clubs and artists known as Planet Dog. When Planet Dog became a record label as well (later the home of Eat Static and Timeshard), Banco de Gaia debuted on disc with the Desert Wind EP, released in November 1993. Early the following year, Marks released his first album, Maya.
Maya offers the strongest recollection of acid house of anything in his discography, with light, airy breakbeats and endlessly pleasant pianos rippling against a large backdrop of Asian influences. "Shanti" and "Qurna (Mister Christian on the Decks)" are easy favorites, and even when there's nothing to really tie it all together, there's a sort of pastoral tourist charm throughout.

Banco De Gaia - Maya (1994) [Original Edition & 3CD 20th Anniversary Edition 2014]

Banco De Gaia - Maya (1994)
EAC Rip | FLAC (tracks+.cue+log) - 458 MB | MP3 CBR 320 kbps (LAME 3.93) - 171 MB | Covers - 8 MB
Genre: Downtempo, World, Dub, Ambient, Trance | RAR 3% Rec. | Label: Planet Dog/Ultimate (540 261-2)

Tracklist:
01. Heliopolis
02. Mafich Arabi
03. Sunspot
04. Gamelah (Dub 3)
05. Qurna (Mister Christian On The Decks)
06. Sheesha
07. Lai Lah (v1.∞)
08. Shanti (Red With White Spots Edit)
09. Maya

Total time: 01:12:39

Exact Audio Copy V1.3 from 2. September 2016

EAC extraction logfile from 9. March 2017, 15:04

Banco de Gaia / Maya

Used drive : ATAPI iHAS124 W Adapter: 1 ID: 0

Read mode : Secure
Utilize accurate stream : Yes
Defeat audio cache : Yes
Make use of C2 pointers : No

Read offset correction : 48
Overread into Lead-In and Lead-Out : No
Fill up missing offset samples with silence : Yes
Delete leading and trailing silent blocks : No
Null samples used in CRC calculations : Yes
Used interface : Native Win32 interface for Win NT & 2000
Gap handling : Appended to previous track

Used output format : User Defined Encoder
Selected bitrate : 896 kBit/s
Quality : High
Add ID3 tag : No
Command line compressor : C:\Program Files (x86)\Various\FLAC\flac.exe
Additional command line options : -8 -V -T "artist=%artist%" -T "albumartist=%albumartist%" -T "album=%albumtitle%" -T "title=%title%" -T "year=%year%" -T "tracknumber=%tracknr2%" -T "genre=%genre%" %source% -o %dest%


TOC of the extracted CD

Track | Start | Length | Start sector | End sector
––––––––––––––––––––––––––––-
1 | 0:00.00 | 7:25.12 | 0 | 33386
2 | 7:25.12 | 8:02.15 | 33387 | 69551
3 | 15:27.27 | 6:59.00 | 69552 | 100976
4 | 22:26.27 | 6:37.65 | 100977 | 130816
5 | 29:04.17 | 9:19.38 | 130817 | 172779
6 | 38:23.55 | 7:42.65 | 172780 | 207494
7 | 46:06.45 | 7:30.70 | 207495 | 241314
8 | 53:37.40 | 11:12.52 | 241315 | 291766
9 | 64:50.17 | 7:48.60 | 291767 | 326926


Track 1

Filename F:\My Documents\My Music\Albums (Complete)\01. Heliopolis.wav

Pre-gap length 0:00:02.00

Peak level 89.0 %
Extraction speed 5.3 X
Track quality 100.0 %
Test CRC F12BE8EE
Copy CRC F12BE8EE
Accurately ripped (confidence 9) [2A8F2EA9] (AR v2)
Copy OK

Track 2

Filename F:\My Documents\My Music\Albums (Complete)\02. Mafich Arabi.wav

Peak level 89.0 %
Extraction speed 6.2 X
Track quality 100.0 %
Test CRC 7CBB7F21
Copy CRC 7CBB7F21
Accurately ripped (confidence 9) [E2B550BF] (AR v2)
Copy OK

Track 3

Filename F:\My Documents\My Music\Albums (Complete)\03. Sunspot.wav

Peak level 92.6 %
Extraction speed 6.8 X
Track quality 100.0 %
Test CRC 15015DA4
Copy CRC 15015DA4
Accurately ripped (confidence 9) [8D9B302E] (AR v2)
Copy OK

Track 4

Filename F:\My Documents\My Music\Albums (Complete)\04. Gamelah (Dub 3).wav

Peak level 93.7 %
Extraction speed 7.3 X
Track quality 100.0 %
Test CRC 3F82F1C9
Copy CRC 3F82F1C9
Accurately ripped (confidence 9) [48C4DB05] (AR v2)
Copy OK

Track 5

Filename F:\My Documents\My Music\Albums (Complete)\05. Qurna (Mister Christian On The Decks).wav

Peak level 89.1 %
Extraction speed 8.1 X
Track quality 100.0 %
Test CRC 658EE7DC
Copy CRC 658EE7DC
Accurately ripped (confidence 9) [41DAD024] (AR v2)
Copy OK

Track 6

Filename F:\My Documents\My Music\Albums (Complete)\06. Sheesha.wav

Peak level 93.7 %
Extraction speed 8.7 X
Track quality 100.0 %
Test CRC 65C64A9C
Copy CRC 65C64A9C
Accurately ripped (confidence 9) [FC6DD04C] (AR v2)
Copy OK

Track 7

Filename F:\My Documents\My Music\Albums (Complete)\07. Lai Lah (v1.Infinite).wav

Peak level 93.7 %
Extraction speed 8.8 X
Track quality 100.0 %
Test CRC A08FEB3F
Copy CRC A08FEB3F
Accurately ripped (confidence 9) [D5440454] (AR v2)
Copy OK

Track 8

Filename F:\My Documents\My Music\Albums (Complete)\08. Shanti (Red With White Spots Edit).wav

Peak level 97.1 %
Extraction speed 9.0 X
Track quality 100.0 %
Test CRC F800D382
Copy CRC F800D382
Accurately ripped (confidence 9) [84FAE114] (AR v2)
Copy OK

Track 9

Filename F:\My Documents\My Music\Albums (Complete)\09. Maya.wav

Peak level 93.7 %
Extraction speed 8.1 X
Track quality 99.9 %
Test CRC 365B69C1
Copy CRC 365B69C1
Accurately ripped (confidence 9) [B91D0EA8] (AR v2)
Copy OK


All tracks accurately ripped

No errors occurred

End of status report

–– CUETools DB Plugin V2.1.6

[CTDB TOCID: rmWyPc9rHTrXuUUOjOdadHET5nk-] found
Submit result: rmWyPc9rHTrXuUUOjOdadHET5nk- has been confirmed
Track | CTDB Status
1 | (37/40) Accurately ripped
2 | (36/40) Accurately ripped
3 | (37/40) Accurately ripped
4 | (37/40) Accurately ripped
5 | (36/40) Accurately ripped
6 | (36/40) Accurately ripped
7 | (36/40) Accurately ripped
8 | (36/40) Accurately ripped
9 | (13/40) Accurately ripped, or (18/40) differs in 3 samples @07:05:16
If you are sure that your rip contains errors, you can use CUETools to repair it.


==== Log checksum 0272ECBBC77380A89180CBE810E3D77B78B6063486808B470E338BB1B201EB30 ====

[CUETools log; Date: 30.03.2021 20:45:58; Version: 2.1.4]
[CTDB TOCID: rmWyPc9rHTrXuUUOjOdadHET5nk-] found.
Track | CTDB Status
1 | (77/81) Accurately ripped
2 | (75/81) Accurately ripped
3 | (77/81) Accurately ripped
4 | (77/81) Accurately ripped
5 | (75/81) Accurately ripped
6 | (75/81) Accurately ripped
7 | (75/81) Accurately ripped
8 | (75/81) Accurately ripped
9 | (25/81) Accurately ripped, or (41/81) differs in 3 samples @07:05:16
[AccurateRip ID: 00180869-00b1bd06-8d110709] found.
Track [ CRC | V2 ] Status
01 [98b52cb9|2a8f2ea9] (07+14/76) Accurately ripped
02 [584c66dc|e2b550bf] (08+14/77) Accurately ripped
03 [edb9e571|8d9b302e] (08+14/78) Accurately ripped
04 [04b41548|48c4db05] (08+14/75) Accurately ripped
05 [da5fc64f|41dad024] (08+14/76) Accurately ripped
06 [d09ca9f4|fc6dd04c] (08+14/74) Accurately ripped
07 [2c6192c4|d5440454] (08+14/72) Accurately ripped
08 [1657caf4|84fae114] (08+14/71) Accurately ripped
09 [ca74bbcd|b91d0ea8] (08+14/63) Accurately ripped
Offsetted by 3:
01 [bf0ba367] (00/76) No match (V2 was not tested)
02 [df9decf9] (00/77) No match (V2 was not tested)
03 [c3871d4a] (00/78) No match (V2 was not tested)
04 [33e67fbc] (00/75) No match (V2 was not tested)
05 [d9ad091c] (00/76) No match (V2 was not tested)
06 [9320df27] (00/74) No match (V2 was not tested)
07 [0981b644] (00/72) No match (V2 was not tested)
08 [921841c6] (00/71) No match (V2 was not tested)
09 [42b9e740] (00/63) No match (V2 was not tested)
Offsetted by 8:
01 [402b00c6] (02/76) Accurately ripped
02 [96ae63a0] (02/77) Accurately ripped
03 [350e0766] (02/78) Accurately ripped
04 [5dbac3ed] (02/75) Accurately ripped
05 [12a2a2a4] (02/76) Accurately ripped
06 [3e85a09f] (02/74) Accurately ripped
07 [78de4e15] (02/72) Accurately ripped
08 [ff4cc247] (02/71) Accurately ripped
09 [f8c52b17] (00/63) No match (V2 was not tested)
Offsetted by 25:
01 [89be01fd] (00/76) No match (V2 was not tested)
02 [f5b771a4] (00/77) No match (V2 was not tested)
03 [96860162] (00/78) No match (V2 was not tested)
04 [5d757c24] (00/75) No match (V2 was not tested)
05 [3f36a5c4] (00/76) No match (V2 was not tested)
06 [1123f411] (00/74) No match (V2 was not tested)
07 [39a6a0e4] (00/72) No match (V2 was not tested)
08 [00ef2db1] (00/71) No match (V2 was not tested)
09 [b2aee762] (00/63) No match (V2 was not tested)
Offsetted by 2346:
01 [687999f2] (18/76) Accurately ripped
02 [c93642b1] (17/77) Accurately ripped
03 [b4327d04] (18/78) Accurately ripped
04 [4f71fe97] (17/75) Accurately ripped
05 [8770ef6e] (16/76) Accurately ripped
06 [d83832ce] (16/74) Accurately ripped
07 [55d27678] (17/72) Accurately ripped
08 [b0ac03c8] (15/71) Accurately ripped
09 [91793ad1] (00/63) No match (V2 was not tested)
Offsetted by 2364:
01 [81cea44d] (00/76) No match (V2 was not tested)
02 [6d872987] (00/77) No match (V2 was not tested)
03 [9856e87f] (00/78) No match (V2 was not tested)
04 [6dbfeb61] (00/75) No match (V2 was not tested)
05 [b6e735e8] (00/76) No match (V2 was not tested)
06 [f2f026e1] (00/74) No match (V2 was not tested)
07 [8bdd1741] (00/72) No match (V2 was not tested)
08 [1e7642d0] (00/71) No match (V2 was not tested)
09 [13abc583] (00/63) No match (V2 was not tested)

Track Peak [ CRC32 ] [W/O NULL] [ LOG ]
– 97,1 [F6973588] [D70D5A06]
01 89,0 [F12BE8EE] [16954042] CRC32
02 89,0 [7CBB7F21] [020BC7F7] CRC32
03 92,6 [15015DA4] [255B508F] CRC32
04 93,7 [3F82F1C9] [8DC63EAC] CRC32
05 89,1 [658EE7DC] [AF963168] CRC32
06 93,7 [65C64A9C] [278B25B3] CRC32
07 93,7 [A08FEB3F] [9AE8A303] CRC32
08 97,1 [F800D382] [216EE802] CRC32
09 93,7 [365B69C1] [8664B6F3] CRC32

Banco De Gaia - Maya (1994) [Original Edition & 3CD 20th Anniversary Edition 2014]

Banco De Gaia - Maya (1994) [3CD 20th Anniversary Edition 2014]
EAC Rip | FLAC (tracks+.cue+log) - 1,48 GB | MP3 CBR 320 kbps (LAME 3.93) - 505 MB | Covers - 7 MB
Genre: Downtempo, World, Dub, Ambient, Trance | RAR 3% Rec. | Label: Disco Gecko (GKOCD014)

CD 1 Tracklist:
01. Heliopolis
02. Mafich Arabi
03. Sunspot
04. Gamelah (Dub 3)
05. Qurna (Mr Christian On The Decks)
06. Sheesha
07. Lai Lah (v1.∞)
08. Shanti (Red With White Spots Edit)
09. Maya

Total time: 01:12:40

CD 2 Tracklist:
01.. Heliopolis (Aethereal Mix)
02. Mafich Arabi (Original Demo)
03. Sunspot (Unpeeled Mix)
04. Gamelah (Live At Oscillate 1994)
05. Qurna (Livemix #2-4 Edit)
06. Sheesha (Green Tractor Mix)
07. Lai Lah (Marine Mix)
08. Shanti (Red With White Spots Original Master)

Total time: 01:16:36

CD 3 Tracklist:
01. Heliopolis (Veloce Remix)
02. Mafich Arabi (Templehedz Remix)
03. Sunspot (100th Monkey + Mr Noisy Return To Qurna Mix)
04. Gamelah (Dub 1)
05. Qurna (Haj Ali’s Birthday Mix)
06. Data Inadequate (Live At Megadog 1993)
07. Lai Lah (Eat Static Kitchen Sink Remix)
08. Shanti (Live In A Field In Oxford 93)
09. Soufie (Blue Mix Original)

Total time: 01:04:29

Exact Audio Copy V1.0 beta 3 from 29. August 2011

EAC extraction logfile from 6. March 2014, 11:19

Banco de Gaia / Maya [20th Anniversary Edition]

Used drive : ATAPI iHAS124 W Adapter: 1 ID: 0

Read mode : Secure
Utilize accurate stream : Yes
Defeat audio cache : Yes
Make use of C2 pointers : No

Read offset correction : 48
Overread into Lead-In and Lead-Out : No
Fill up missing offset samples with silence : Yes
Delete leading and trailing silent blocks : No
Null samples used in CRC calculations : Yes
Used interface : Native Win32 interface for Win NT & 2000
Gap handling : Appended to previous track

Used output format : User Defined Encoder
Selected bitrate : 896 kBit/s
Quality : High
Add ID3 tag : No
Command line compressor : C:\Program Files (x86)\FLAC\flac.exe
Additional command line options : -8 -V -T "artist=%artist%" -T "albumartist=%albumartist%" -T "album=%albumtitle%" -T "title=%title%" -T "year=%year%" -T "tracknumber=%tracknr2%" -T "genre=%genre%" %source% -o %dest%


TOC of the extracted CD

Track | Start | Length | Start sector | End sector
––––––––––––––––––––––––––––-
1 | 0:00.00 | 7:25.57 | 0 | 33431
2 | 7:25.57 | 8:02.09 | 33432 | 69590
3 | 15:27.66 | 6:59.11 | 69591 | 101026
4 | 22:27.02 | 6:37.27 | 101027 | 130828
5 | 29:04.29 | 9:19.17 | 130829 | 172770
6 | 38:23.46 | 7:42.64 | 172771 | 207484
7 | 46:06.35 | 7:30.71 | 207485 | 241305
8 | 53:37.31 | 11:12.61 | 241306 | 291766
9 | 64:50.17 | 7:49.53 | 291767 | 326994


Track 1

Filename F:\My Documents\My Music\Albums (Complete)\01. Heliopolis.wav

Pre-gap length 0:00:02.00

Peak level 100.0 %
Extraction speed 5.3 X
Track quality 100.0 %
Test CRC 9A02F1C4
Copy CRC 9A02F1C4
Track not present in AccurateRip database
Copy OK

Track 2

Filename F:\My Documents\My Music\Albums (Complete)\02. Mafich Arabi.wav

Peak level 100.0 %
Extraction speed 6.2 X
Track quality 100.0 %
Test CRC F5C9751D
Copy CRC F5C9751D
Track not present in AccurateRip database
Copy OK

Track 3

Filename F:\My Documents\My Music\Albums (Complete)\03. Sunspot.wav

Peak level 100.0 %
Extraction speed 6.9 X
Track quality 100.0 %
Test CRC 9A7AA901
Copy CRC 9A7AA901
Track not present in AccurateRip database
Copy OK

Track 4

Filename F:\My Documents\My Music\Albums (Complete)\04. Gamelah (Dub 3).wav

Peak level 100.0 %
Extraction speed 7.4 X
Track quality 100.0 %
Test CRC B4E95360
Copy CRC B4E95360
Track not present in AccurateRip database
Copy OK

Track 5

Filename F:\My Documents\My Music\Albums (Complete)\05. Qurna (Mister Christian On The Decks).wav

Peak level 100.0 %
Extraction speed 8.1 X
Track quality 100.0 %
Test CRC F9A604AC
Copy CRC F9A604AC
Track not present in AccurateRip database
Copy OK

Track 6

Filename F:\My Documents\My Music\Albums (Complete)\06. Sheesha.wav

Peak level 100.0 %
Extraction speed 8.7 X
Track quality 100.0 %
Test CRC C3C5754C
Copy CRC C3C5754C
Track not present in AccurateRip database
Copy OK

Track 7

Filename F:\My Documents\My Music\Albums (Complete)\07. Lai Lah (v1.Infinite).wav

Peak level 100.0 %
Extraction speed 9.1 X
Track quality 100.0 %
Test CRC 7158BBC3
Copy CRC 7158BBC3
Track not present in AccurateRip database
Copy OK

Track 8

Filename F:\My Documents\My Music\Albums (Complete)\08. Shanti (Red With White Spots Edit).wav

Peak level 100.0 %
Extraction speed 8.5 X
Track quality 100.0 %
Test CRC 212D9FB5
Copy CRC 212D9FB5
Track not present in AccurateRip database
Copy OK

Track 9

Filename F:\My Documents\My Music\Albums (Complete)\09. Maya.wav

Peak level 100.0 %
Extraction speed 4.4 X
Track quality 100.0 %
Test CRC 9679962B
Copy CRC 9679962B
Track not present in AccurateRip database
Copy OK


None of the tracks are present in the AccurateRip database

No errors occurred

End of status report

==== Log checksum 4E2E9D1FA9EEF4B14E5CA9BD34976688EE2C7A785B10C0D508D3AA5B6F5007E2 ====

[CUETools log; Date: 30.03.2021 20:46:51; Version: 2.1.4]
[CTDB TOCID: TNpC_SKMRUP_6SLxvSFoJEPlukQ-] found.
Track | CTDB Status
1 | (28/28) Accurately ripped
2 | (28/28) Accurately ripped
3 | (28/28) Accurately ripped
4 | (28/28) Accurately ripped
5 | (28/28) Accurately ripped
6 | (28/28) Accurately ripped
7 | (27/28) Accurately ripped
8 | (27/28) Accurately ripped
9 | (26/28) Accurately ripped
[AccurateRip ID: 00180923-00b1c0bd-8e110709] found.
Track [ CRC | V2 ] Status
01 [79a1a95e|c7187788] (00+14/14) Accurately ripped
02 [e1900364|65c35873] (00+14/14) Accurately ripped
03 [f7ef8f38|049f6973] (00+14/14) Accurately ripped
04 [7b74925f|36ff8735] (00+14/14) Accurately ripped
05 [ff796548|44e1d534] (00+14/14) Accurately ripped
06 [771c5f7f|e5f2e9c5] (00+14/14) Accurately ripped
07 [5b631ba8|9ad9a1f4] (00+13/13) Accurately ripped
08 [83238b54|07af8ccd] (00+14/14) Accurately ripped
09 [4e2bd2fa|8a8671af] (00+13/13) Accurately ripped

Track Peak [ CRC32 ] [W/O NULL] [ LOG ]
– 100,0 [352D6967] [A410425B]
01 100,0 [9A02F1C4] [22E89098] CRC32
02 100,0 [F5C9751D] [7C02FBA7] CRC32
03 100,0 [9A7AA901] [7D485EC6] CRC32
04 100,0 [B4E95360] [A3163097] CRC32
05 100,0 [F9A604AC] [F3EA8379] CRC32
06 100,0 [C3C5754C] [DDAA1540] CRC32
07 100,0 [7158BBC3] [D3F05849] CRC32
08 100,0 [212D9FB5] [202823B5] CRC32
09 100,0 [9679962B] [4353FE18] CRC32

Exact Audio Copy V1.0 beta 3 from 29. August 2011

EAC extraction logfile from 6. March 2014, 11:55

Banco de Gaia / Maya [20th Anniversary Edition]

Used drive : ATAPI iHAS124 W Adapter: 1 ID: 0

Read mode : Secure
Utilize accurate stream : Yes
Defeat audio cache : Yes
Make use of C2 pointers : No

Read offset correction : 48
Overread into Lead-In and Lead-Out : No
Fill up missing offset samples with silence : Yes
Delete leading and trailing silent blocks : No
Null samples used in CRC calculations : Yes
Used interface : Native Win32 interface for Win NT & 2000
Gap handling : Appended to previous track

Used output format : User Defined Encoder
Selected bitrate : 896 kBit/s
Quality : High
Add ID3 tag : No
Command line compressor : C:\Program Files (x86)\FLAC\flac.exe
Additional command line options : -8 -V -T "artist=%artist%" -T "albumartist=%albumartist%" -T "album=%albumtitle%" -T "title=%title%" -T "year=%year%" -T "tracknumber=%tracknr2%" -T "genre=%genre%" %source% -o %dest%


TOC of the extracted CD

Track | Start | Length | Start sector | End sector
––––––––––––––––––––––––––––-
1 | 0:00.00 | 6:24.30 | 0 | 28829
2 | 6:24.30 | 8:29.12 | 28830 | 67016
3 | 14:53.42 | 7:17.20 | 67017 | 99811
4 | 22:10.62 | 7:29.64 | 99812 | 133550
5 | 29:40.51 | 7:02.12 | 133551 | 165212
6 | 36:42.63 | 8:20.19 | 165213 | 202731
7 | 45:03.07 | 8:45.11 | 202732 | 242117
8 | 53:48.18 | 22:48.09 | 242118 | 344726


Track 1

Filename F:\My Documents\My Music\Albums (Complete)\01. Heliopolis (Aetherial Mix).wav

Pre-gap length 0:00:02.00

Peak level 100.0 %
Extraction speed 5.4 X
Track quality 100.0 %
Test CRC 9DDE938A
Copy CRC 9DDE938A
Track not present in AccurateRip database
Copy OK

Track 2

Filename F:\My Documents\My Music\Albums (Complete)\02. Mafich Arabi (Original Demo).wav

Pre-gap length 0:00:01.74

Peak level 100.0 %
Extraction speed 6.4 X
Track quality 100.0 %
Test CRC 31974AFE
Copy CRC 31974AFE
Track not present in AccurateRip database
Copy OK

Track 3

Filename F:\My Documents\My Music\Albums (Complete)\03. Sunspot (Unpeeled Mix).wav

Pre-gap length 0:00:01.74

Peak level 100.0 %
Extraction speed 5.8 X
Track quality 99.9 %
Test CRC BD02E53E
Copy CRC BD02E53E
Track not present in AccurateRip database
Copy OK

Track 4

Filename F:\My Documents\My Music\Albums (Complete)\04. Gamelah (Live At Ocillate 1994).wav

Pre-gap length 0:00:01.74

Peak level 100.0 %
Extraction speed 6.3 X
Track quality 99.9 %
Test CRC E72AC3CF
Copy CRC E72AC3CF
Track not present in AccurateRip database
Copy OK

Track 5

Filename F:\My Documents\My Music\Albums (Complete)\05. Qurna (Livemix #2-4 Edit).wav

Pre-gap length 0:00:01.74

Peak level 100.0 %
Extraction speed 8.4 X
Track quality 100.0 %
Test CRC E1B38B92
Copy CRC E1B38B92
Track not present in AccurateRip database
Copy OK

Track 6

Filename F:\My Documents\My Music\Albums (Complete)\06. Sheesha (Green Tractor Mix).wav

Pre-gap length 0:00:01.74

Peak level 100.0 %
Extraction speed 9.0 X
Track quality 100.0 %
Test CRC 13315FB6
Copy CRC 13315FB6
Track not present in AccurateRip database
Copy OK

Track 7

Filename F:\My Documents\My Music\Albums (Complete)\07. Lai Lah (Marine Mix).wav

Pre-gap length 0:00:01.74

Peak level 100.0 %
Extraction speed 9.6 X
Track quality 100.0 %
Test CRC 790BD4BA
Copy CRC 790BD4BA
Track not present in AccurateRip database
Copy OK

Track 8

Filename F:\My Documents\My Music\Albums (Complete)\08. Shanti (Red With White Spots Original Master).wav

Pre-gap length 0:00:01.74

Peak level 100.0 %
Extraction speed 4.8 X
Track quality 100.0 %
Test CRC 1B094BC0
Copy CRC 1B094BC0
Track not present in AccurateRip database
Copy OK


None of the tracks are present in the AccurateRip database

No errors occurred

End of status report

==== Log checksum CC4BE327D2D3AB33EE570F81A4751CB82912C4BD57949BB794A4ADCB76FDEDB8 ====

[CUETools log; Date: 30.03.2021 20:47:37; Version: 2.1.4]
[CTDB TOCID: y1FGawtZyYF8o63x1o1sB9puEUc-] found.
Track | CTDB Status
1 | (33/33) Accurately ripped
2 | (32/33) Accurately ripped
3 | (33/33) Accurately ripped
4 | (33/33) Accurately ripped
5 | (33/33) Accurately ripped
6 | (31/33) Accurately ripped
7 | (30/33) Accurately ripped
8 | (26/33) Accurately ripped
[AccurateRip ID: 001397a0-0085e7b4-6211f408] found.
Track [ CRC | V2 ] Status
01 [8764bbbb|3df8da6f] (00+14/14) Accurately ripped
02 [03814977|11db3b3e] (00+14/14) Accurately ripped
03 [44f1d388|2f05cce0] (00+14/14) Accurately ripped
04 [b33beccc|685cc18b] (00+14/14) Accurately ripped
05 [6d3b71ce|cf2db61c] (00+14/14) Accurately ripped
06 [06fcaf02|38098ec4] (00+14/14) Accurately ripped
07 [cbadf6cb|61739595] (00+13/13) Accurately ripped
08 [5e6e7163|17ed828a] (00+13/13) Accurately ripped

Track Peak [ CRC32 ] [W/O NULL] [ LOG ]
– 99,9 [B12541BA] [36F4BBD7]
01 99,9 [9DDE938A] [31B2C08A] CRC32
02 99,9 [31974AFE] [CD25EB2A] CRC32
03 99,9 [BD02E53E] [03E356E8] CRC32
04 99,9 [E72AC3CF] [3878D657] CRC32
05 99,9 [E1B38B92] [81712594] CRC32
06 99,9 [13315FB6] [D4F9CE45] CRC32
07 99,9 [790BD4BA] [2C7C668D] CRC32
08 99,9 [1B094BC0] [DC149FBF] CRC32

Exact Audio Copy V1.0 beta 3 from 29. August 2011

EAC extraction logfile from 6. March 2014, 12:24

Banco de Gaia / Maya [20th Anniversary Edition]

Used drive : ATAPI iHAS124 W Adapter: 1 ID: 0

Read mode : Secure
Utilize accurate stream : Yes
Defeat audio cache : Yes
Make use of C2 pointers : No

Read offset correction : 48
Overread into Lead-In and Lead-Out : No
Fill up missing offset samples with silence : Yes
Delete leading and trailing silent blocks : No
Null samples used in CRC calculations : Yes
Used interface : Native Win32 interface for Win NT & 2000
Gap handling : Appended to previous track

Used output format : User Defined Encoder
Selected bitrate : 896 kBit/s
Quality : High
Add ID3 tag : No
Command line compressor : C:\Program Files (x86)\FLAC\flac.exe
Additional command line options : -8 -V -T "artist=%artist%" -T "albumartist=%albumartist%" -T "album=%albumtitle%" -T "title=%title%" -T "year=%year%" -T "tracknumber=%tracknr2%" -T "genre=%genre%" %source% -o %dest%


TOC of the extracted CD

Track | Start | Length | Start sector | End sector
––––––––––––––––––––––––––––-
1 | 0:00.00 | 5:31.26 | 0 | 24850
2 | 5:31.26 | 6:23.14 | 24851 | 53589
3 | 11:54.40 | 6:15.12 | 53590 | 81726
4 | 18:09.52 | 6:34.68 | 81727 | 111344
5 | 24:44.45 | 7:09.70 | 111345 | 143589
6 | 31:54.40 | 7:55.52 | 143590 | 179266
7 | 39:50.17 | 8:12.72 | 179267 | 216238
8 | 48:03.14 | 8:35.59 | 216239 | 254922
9 | 56:38.73 | 7:49.64 | 254923 | 290161


Track 1

Filename F:\My Documents\My Music\Albums (Complete)\01. Heliopolis (Veloce Mix).wav

Pre-gap length 0:00:02.00

Peak level 100.0 %
Extraction speed 3.7 X
Track quality 99.9 %
Test CRC 3CA027E8
Copy CRC 3CA027E8
Track not present in AccurateRip database
Copy OK

Track 2

Filename F:\My Documents\My Music\Albums (Complete)\02. Mafich Arabi (Temple Hedz Remix).wav

Pre-gap length 0:00:01.74

Peak level 100.0 %
Extraction speed 5.6 X
Track quality 100.0 %
Test CRC D542A65F
Copy CRC D542A65F
Track not present in AccurateRip database
Copy OK

Track 3

Filename F:\My Documents\My Music\Albums (Complete)\03. Sunspot (100th Monkey + Mr Noisy Return To Qurna Mix).wav

Pre-gap length 0:00:01.74

Peak level 100.0 %
Extraction speed 4.9 X
Track quality 99.9 %
Test CRC 17DECBD5
Copy CRC 17DECBD5
Track not present in AccurateRip database
Copy OK

Track 4

Filename F:\My Documents\My Music\Albums (Complete)\04. Gamelah (Dub 1).wav

Pre-gap length 0:00:00.74

Peak level 100.0 %
Extraction speed 6.9 X
Track quality 100.0 %
Test CRC 09009467
Copy CRC 09009467
Track not present in AccurateRip database
Copy OK

Track 5

Filename F:\My Documents\My Music\Albums (Complete)\05. Qurna (Hadji Ali's Birthday Mix).wav

Pre-gap length 0:00:01.74

Peak level 99.9 %
Extraction speed 6.1 X
Track quality 99.9 %
Test CRC 8F9F7153
Copy CRC 8F9F7153
Track not present in AccurateRip database
Copy OK

Track 6

Filename F:\My Documents\My Music\Albums (Complete)\06. Data Inadequate (Live At Megadog 1993).wav

Pre-gap length 0:00:01.74

Peak level 100.0 %
Extraction speed 8.2 X
Track quality 100.0 %
Test CRC 883A413E
Copy CRC 883A413E
Track not present in AccurateRip database
Copy OK

Track 7

Filename F:\My Documents\My Music\Albums (Complete)\07. Lai Lah (Eat Static Kitchen Sink Remix).wav

Pre-gap length 0:00:01.74

Peak level 100.0 %
Extraction speed 8.8 X
Track quality 100.0 %
Test CRC B0D3C0CD
Copy CRC B0D3C0CD
Track not present in AccurateRip database
Copy OK

Track 8

Filename F:\My Documents\My Music\Albums (Complete)\08. Shanti (Live In A Field In Oxford 1993).wav

Pre-gap length 0:00:01.74

Peak level 100.0 %
Extraction speed 7.1 X
Track quality 100.0 %
Test CRC CBFA718E
Copy CRC CBFA718E
Track not present in AccurateRip database
Copy OK

Track 9

Filename F:\My Documents\My Music\Albums (Complete)\09. Soufie (Blue Mix Original).wav

Pre-gap length 0:00:01.74

Peak level 100.0 %
Extraction speed 4.1 X
Track quality 100.0 %
Test CRC A2962734
Copy CRC A2962734
Track not present in AccurateRip database
Copy OK


None of the tracks are present in the AccurateRip database

No errors occurred

End of status report

==== Log checksum 259F30380C21097577C6337D2558584D707A2A0E591A5458D6F3C5B5366D9DA4 ====

[CUETools log; Date: 30.03.2021 20:48:22; Version: 2.1.4]
[CTDB TOCID: Pui.q2l_zFpWaWbQOrKwNrWZUJ8-] found.
Track | CTDB Status
1 | (26/26) Accurately ripped
2 | (26/26) Accurately ripped
3 | (26/26) Accurately ripped
4 | (26/26) Accurately ripped
5 | (26/26) Accurately ripped
6 | (26/26) Accurately ripped
7 | (26/26) Accurately ripped
8 | (26/26) Accurately ripped
9 | (26/26) Accurately ripped
[AccurateRip ID: 0014afae-009aab22-760f1c09] found.
Track [ CRC | V2 ] Status
01 [5f2e399f|be03a1a9] (00+14/14) Accurately ripped
02 [2e124ea4|65732a78] (00+14/14) Accurately ripped
03 [c60eb96d|e97290aa] (00+14/14) Accurately ripped
04 [d45abe88|2607a9bd] (00+14/14) Accurately ripped
05 [2a872064|b3a9a13b] (00+14/14) Accurately ripped
06 [89cffc5c|16789d53] (00+14/14) Accurately ripped
07 [28fbf344|62059ffc] (00+14/14) Accurately ripped
08 [037c7ce5|a09708c7] (00+14/14) Accurately ripped
09 [ff3845c9|c9ca98f7] (00+14/14) Accurately ripped

Track Peak [ CRC32 ] [W/O NULL] [ LOG ]
– 99,9 [1863AD13] [F52A2CD9]
01 99,9 [3CA027E8] [DF2BE49F] CRC32
02 99,9 [D542A65F] [639DC392] CRC32
03 99,9 [17DECBD5] [2897987E] CRC32
04 99,9 [09009467] [68EAB76D] CRC32
05 99,9 [8F9F7153] [0624EF1C] CRC32
06 99,9 [883A413E] [A6DCDFC5] CRC32
07 99,9 [B0D3C0CD] [4FA94372] CRC32
08 99,9 [CBFA718E] [F699C50A] CRC32
09 99,9 [A2962734] [B17B2D27] CRC32

Thanks to Summerisle