Subcategories
Tags
Language
Tags

Banco De Gaia - 10 Years Remixed (2003)

Posted By: gribovar
Banco De Gaia - 10 Years Remixed (2003)

Banco De Gaia - 10 Years Remixed (2003)
EAC Rip | FLAC (image+.cue+log) - 476 MB | MP3 CBR 320 kbps (LAME 3.93) - 182 MB | Covers - 39 MB
Genre: Downtempo, World, Dub, Techno | RAR 3% Rec. | Label: Disco Gecko (GKOCD007)

10 Years Remixed was a limited edition release created following the success of the previous year’s debut Banco de Gaia compilation 10 Years. It began as a conversation between friends and evolved into a collection of remixes. This is a deeply personal document with every remix being commissioned by Banco himself and every remix with the exception of one mix being borne out of a long term relationship.
In a super reactionary and totally cynical music industry how do you express your joy at what you do? After struggling to re-acquire his master tapes, how do you throw a sonic party? In this instance Banco de Gaia called his friends and the result is 10 Years Remixed, a beautiful collection of mighty fine exclusive remixes.
10 Years Remixed is the final statement at the end of an exhausting journey. You might call it closure. As an artist you are not supposed to cherish your own work or worry about who has the intellectual copyright, however for Banco de Gaia these issues are key. Disco Gecko was founded to put the music back out there. Regardless even of how it is perceived for an artist to ‘trade’ on their back catalogue. To quote John Lyndon of PIL ‘anger is an energy’ and channeled in the right way it’s amazing what can be achieved. 10 Years Remixed is the home coming parade and two fingers up to the men in suits, lawyers and chancers who stood in the way of the music. 10 Years Remixed is a party and it’s time to get down.
Tracklist:
01. Lai Lah (Eat Static Kitchen Sink Remix)
02. Celestine (Future Loop Foundation Night Time Deluxe Remix)
03. Glove Puppet (Dreadzone Remix)
04. Sakarya (Loop Guru Fairground Strawberry Illumination Remix)
05. Drippy (Carbomb Remix)
06. Soufie (HIA Remix)
07. Drunk As A Monk (Temple Of Sound Remix)
08. Heliopolis (Veloce Remix)
09. Obsidian (Asian Dub Foundation vs. Babu Stormz Remix)
10. Shanti (Zion Train Remix)
11. Amber (Transglobal Underground Remix)
12. Sunspot (100th Monkey + Mr. Noisy Return To Qurna Remix)

Total time: 01:17:34

Exact Audio Copy V0.99 prebeta 4 from 23. January 2008

EAC extraction logfile from 7. March 2009, 12:21

Banco De Gaia / 10 Years Remixed

Used drive : PIONEER DVD-RW DVR-111 Adapter: 3 ID: 0

Read mode : Secure
Utilize accurate stream : Yes
Defeat audio cache : Yes
Make use of C2 pointers : No

Read offset correction : 48
Overread into Lead-In and Lead-Out : No
Fill up missing offset samples with silence : Yes
Delete leading and trailing silent blocks : No
Null samples used in CRC calculations : Yes
Used interface : Installed external ASPI interface

Used output format : User Defined Encoder
Selected bitrate : 1024 kBit/s
Quality : High
Add ID3 tag : No
Command line compressor : C:\Program Files\Exact Audio Copy\Flac\flac.exe
Additional command line options : -8 -V -T "ARTIST=%a" -T "ALBUM=%g" -T "DATE=%y" -T "GENRE=%m" %s -o %d


TOC of the extracted CD

Track | Start | Length | Start sector | End sector
––––––––––––––––––––––––––––-
1 | 0:00.00 | 8:13.35 | 0 | 37009
2 | 8:13.35 | 7:46.43 | 37010 | 72002
3 | 16:00.03 | 6:10.06 | 72003 | 99758
4 | 22:10.09 | 7:04.02 | 99759 | 131560
5 | 29:14.11 | 6:21.68 | 131561 | 160203
6 | 35:36.04 | 6:09.74 | 160204 | 187952
7 | 41:46.03 | 8:24.65 | 187953 | 225817
8 | 50:10.68 | 5:32.21 | 225818 | 250738
9 | 55:43.14 | 5:20.39 | 250739 | 274777
10 | 61:03.53 | 4:26.66 | 274778 | 294793
11 | 65:30.44 | 5:48.58 | 294794 | 320951
12 | 71:19.27 | 6:14.12 | 320952 | 349013


Range status and errors

Selected range

Filename F:\temp\nnm\Banco De Gaia - 10 Years Remixed.wav

Peak level 96.6 %
Range quality 99.9 %
Test CRC B3E03002
Copy CRC B3E03002
Copy OK

No errors occurred


AccurateRip summary

Track 1 accurately ripped (confidence 4) [077BC4FB]
Track 2 accurately ripped (confidence 5) [D617295C]
Track 3 accurately ripped (confidence 5) [333596E0]
Track 4 accurately ripped (confidence 5) [3AD1CEA9]
Track 5 accurately ripped (confidence 5) [F5832269]
Track 6 accurately ripped (confidence 5) [41ED50DC]
Track 7 accurately ripped (confidence 5) [C4AC6E48]
Track 8 accurately ripped (confidence 5) [4EBFAE59]
Track 9 accurately ripped (confidence 5) [8ED80BF4]
Track 10 accurately ripped (confidence 5) [5376EC98]
Track 11 accurately ripped (confidence 5) [8EDC929C]
Track 12 accurately ripped (confidence 5) [DECA3E2D]

All tracks accurately ripped

End of status report

[CUETools log; Date: 19.05.2021 2:05:40; Version: 2.1.4]
[CTDB TOCID: q2TjnScSLGA7e9rQuYkcqLGxxO8-] found.
Track | CTDB Status
1 | (14/14) Accurately ripped
2 | (14/14) Accurately ripped
3 | (14/14) Accurately ripped
4 | (14/14) Accurately ripped
5 | (14/14) Accurately ripped
6 | (14/14) Accurately ripped
7 | (14/14) Accurately ripped
8 | (14/14) Accurately ripped
9 | (14/14) Accurately ripped
10 | (14/14) Accurately ripped
11 | (13/14) Accurately ripped
12 | (13/14) Accurately ripped
[AccurateRip ID: 0024b0e9-0150b3a1-a7122d0c] found.
Track [ CRC | V2 ] Status
01 [077bc4fb|fda351d7] (09+05/14) Accurately ripped
02 [d617295c|f0286387] (10+05/15) Accurately ripped
03 [333596e0|c3686308] (10+05/15) Accurately ripped
04 [3ad1cea9|6c71124d] (10+05/15) Accurately ripped
05 [f5832269|1e444a14] (10+05/15) Accurately ripped
06 [41ed50dc|e82baeb3] (10+05/15) Accurately ripped
07 [c4ac6e48|a6af7c1e] (10+05/15) Accurately ripped
08 [4ebfae59|126eda34] (10+05/15) Accurately ripped
09 [8ed80bf4|a51ec112] (10+05/15) Accurately ripped
10 [5376ec98|2786b95b] (10+05/15) Accurately ripped
11 [8edc929c|bea09a6c] (10+05/15) Accurately ripped
12 [deca3e2d|421992b8] (10+05/15) Accurately ripped
Offsetted by -10:
01 [8b5c7999] (00/14) No match (V2 was not tested)
02 [7009bd82] (00/15) No match (V2 was not tested)
03 [968c1f34] (00/15) No match (V2 was not tested)
04 [c1cc631d] (00/15) No match (V2 was not tested)
05 [b75e458b] (00/15) No match (V2 was not tested)
06 [4326636c] (00/15) No match (V2 was not tested)
07 [7d93b931] (00/15) No match (V2 was not tested)
08 [bae8f2c0] (00/15) No match (V2 was not tested)
09 [446db562] (00/15) No match (V2 was not tested)
10 [f8979309] (00/15) No match (V2 was not tested)
11 [43dd933a] (00/15) No match (V2 was not tested)
12 [2f14a690] (00/15) No match (V2 was not tested)

Track Peak [ CRC32 ] [W/O NULL] [ LOG ]
– 96,6 [B3E03002] [B8240E78] CRC32
01 96,6 [2EE84E4E] [A06D7FC4]
02 96,6 [AF85293B] [5AF84196]
03 96,6 [BEECC0FA] [5CD6130E]
04 96,6 [559D05CB] [7CAC2CC4]
05 96,6 [E33A518A] [AFA16541]
06 96,6 [25D1486D] [E9869F5E]
07 96,6 [CD970B5D] [577A674B]
08 96,6 [070B797D] [7F165EC5]
09 96,6 [CE06BEE8] [8CD36502]
10 96,6 [9078E6F1] [29D7EA35]
11 96,6 [34BD22AE] [B8223CCC]
12 96,6 [686DABF6] [014DFC42]

Thanks to _ok

See also: