Subcategories

Beth Orton - Central Reservation (1999)

Posted By: Designol
Beth Orton - Central Reservation (1999)

Beth Orton - Central Reservation (1999)
EAC | FLAC | Image (Cue&Log) ~ 406 Mb (incl 5%) | Mp3 (CBR320) ~ 161 Mb (incl 5%) | Scans included
Folk Rock, Folktronica, Downtempo, Adult Alternative | Label: Heavenly | # HVNLP22CD | 00:58:57

On her stunning sophomore album, Central Reservation, Beth Orton slips free of the electronic textures that colored her acclaimed 1996 debut, Trailer Park, stripping her music down to its raw essentials to produce a work of stark simplicity and rare poignancy. With the exception of a pair of Ben Watt-produced tracks ("Stars All Seem to Weep" and a remix of the title cut), Central Reservation rejects synthetic sounds and beats altogether in favor of an organic atmosphere somewhere between folk, jazz, and the blues; the focal point is instead Orton's evocatively soulful voice, which invests songs like "Sweetest Decline" and "Feel to Believe" with remarkable warmth and honesty. It's a risky move creatively as well as commercially – after all, the club culture was the first to champion Orton's talents – but it pays off handsomely; for all its brilliance, elements of Trailer Park already feel dated, but the new material possesses a timelessness that recalls the best of Nick Drake or Sandy Denny, with a haunting beauty to match. And while much has been made of the melancholy that pervades her music, ultimately Central Reservation is first and foremost a record about hope and survival; its emotional centerpiece, the seven-minute "Pass in Time" (a spine-tingling duet with legendary folk-jazz mystic Terry Callier), grapples with the death of Orton's mother, but its underlying message of healing and perseverance is powerfully life-affirming – her music hasn't merely discovered the light at the end of the tunnel, it's now bathing in it.

Review by Jason Ankeny, Allmusic.com

Beth Orton - Central Reservation (1999)



Tracklist:

01. Stolen Car (05:25)
02. Sweetest Decline (05:39)
03. Could't Cause Me Harm (04:48)
04. So Mach More (05:41)
05. Pass In Time (07:17)
06. Central Reservation (Original Version) (04:50)
07. Stars All Seem To Weep (04:39)
08. Love Like Laughter (03:07)
09. Blood Red River (04:15)
10. Devil Song (05:04)
11. Feel To Believe (04:04)
12. Central Reservation (The Then Again Version) (04:01)


Exact Audio Copy V1.0 beta 3 from 29. August 2011

Отчёт EAC об извлечении, выполненном 1. сентября 2013, 8:55

Beth Orton / Central Reservation

Дисковод: TSSTcorpCDDVDW SH-224DB Adapter: 1 ID: 0

Режим чтения : Достоверность
Использование точного потока : Да
Отключение кэша аудио : Да
Использование указателей C2 : Нет

Коррекция смещения при чтении : 6
Способность читать области Lead-in и Lead-out : Нет
Заполнение пропущенных сэмплов тишиной : Да
Удаление блоков с тишиной в начале и конце : Нет
При вычислениях CRC использовались нулевые сэмплы : Да
Интерфейс : Встроенный Win32-интерфейс для Win NT/2000

Выходной формат : Пользовательский кодировщик
Выбранный битрейт : 768 kBit/s
Качество : Высокий
Добавление ID3-тега : Нет
Утилита сжатия : C:\Program Files\Exact Audio Copy\Flac\flac.exe
Дополнительные параметры : -V -8 -T "Date=%year%" -T "Genre=%genre%" %source%


TOC извлечённого CD

Трек | Старт | Длительность | Начальный сектор | Конечный сектор
––––––––––––––––––––––––––––––––––-
1 | 0:00.00 | 5:25.57 | 0 | 24431
2 | 5:25.57 | 5:39.30 | 24432 | 49886
3 | 11:05.12 | 4:48.28 | 49887 | 71514
4 | 15:53.40 | 5:41.60 | 71515 | 97149
5 | 21:35.25 | 7:17.65 | 97150 | 129989
6 | 28:53.15 | 4:50.12 | 129990 | 151751
7 | 33:43.27 | 4:39.53 | 151752 | 172729
8 | 38:23.05 | 3:07.50 | 172730 | 186804
9 | 41:30.55 | 4:15.55 | 186805 | 205984
10 | 45:46.35 | 5:04.50 | 205985 | 228834
11 | 50:51.10 | 4:04.37 | 228835 | 247171
12 | 54:55.47 | 4:01.60 | 247172 | 265306


Характеристики диапазона извлечения и сообщения об ошибках

Выбранный диапазон

Имя файла D:\lo$$le$$\B.Orton'99\Beth Orton - Central Reservation.wav

Пиковый уровень 99.9 %
Скорость извлечения 7.6 X
Качество диапазона 100.0 %
CRC теста 298CEEDA
CRC копии 298CEEDA
Копирование… OK

Ошибок не произошло

Конец отчёта

==== Контрольная сумма отчёта DAD4C3EFB459A7975E834EF9480FAC916633B4375D737D18FCEE348928C1D8EF ====

[CUETools log; Date: 16.08.2016 14:38:22; Version: 2.1.4]
[CTDB TOCID: vwTQtgUdVRPpIBjin_Ns6oPzcVg-] found.
Track | CTDB Status
1 | (202/271) Accurately ripped
2 | (204/271) Accurately ripped
3 | (203/271) Accurately ripped
4 | (204/271) Accurately ripped
5 | (205/271) Accurately ripped
6 | (203/271) Accurately ripped
7 | (204/271) Accurately ripped
8 | (203/271) Accurately ripped
9 | (203/271) Accurately ripped
10 | (203/271) Accurately ripped
11 | (201/271) Accurately ripped
12 | (202/271) Accurately ripped
[AccurateRip ID: 001bf288-01016183-b00dd10c] found.
Track [ CRC | V2 ] Status
01 [9e4c57c2|7fd85531] (027+034/593) Accurately ripped
02 [46f5741d|0e51c91b] (027+034/589) Accurately ripped
03 [3e4a554f|3e7405be] (027+034/593) Accurately ripped
04 [d629d852|50e732ec] (027+034/594) Accurately ripped
05 [e733f170|0f35f1f7] (027+034/592) Accurately ripped
06 [20c74baa|9da27e8d] (027+034/589) Accurately ripped
07 [3bed9085|f734c552] (027+034/586) Accurately ripped
08 [ef151ebb|176da7d4] (027+034/588) Accurately ripped
09 [f61717e4|13ab2867] (027+034/591) Accurately ripped
10 [42f08a91|66c29757] (027+033/584) Accurately ripped
11 [5deb1e08|21918b0b] (027+034/586) Accurately ripped
12 [3423b961|24b8ac87] (027+033/586) Accurately ripped
Offsetted by -634:
01 [b8d350a9] (004/593) Accurately ripped
02 [bf72953a] (004/589) Accurately ripped
03 [e2babf47] (004/593) Accurately ripped
04 [36a8dea4] (004/594) Accurately ripped
05 [e82019cc] (004/592) Accurately ripped
06 [ace18fa9] (004/589) Accurately ripped
07 [90f9db1c] (004/586) Accurately ripped
08 [9398eb7f] (004/588) Accurately ripped
09 [8c8b5788] (004/591) Accurately ripped
10 [609c2163] (004/584) Accurately ripped
11 [e7e801b6] (004/586) Accurately ripped
12 [6ebd5147] (004/586) Accurately ripped
Offsetted by 12:
01 [9aa648ac] (163/593) Accurately ripped
02 [344c8b3b] (164/589) Accurately ripped
03 [90c7cd3f] (162/593) Accurately ripped
04 [599613f6] (164/594) Accurately ripped
05 [75516428] (163/592) Accurately ripped
06 [516ecd2e] (161/589) Accurately ripped
07 [35c7ff65] (162/586) Accurately ripped
08 [f9b28643] (163/588) Accurately ripped
09 [d966752c] (163/591) Accurately ripped
10 [1793a735] (161/584) Accurately ripped
11 [f7f9b664] (163/586) Accurately ripped
12 [8b0e3e2d] (162/586) Accurately ripped
Offsetted by -120:
01 [9921053d] (002/593) Accurately ripped
02 [c0a01752] (000/589) No match (V2 was not tested)
03 [0563a5ef] (002/593) Accurately ripped
04 [b3ef83ea] (002/594) Accurately ripped
05 [5a0d7640] (002/592) Accurately ripped
06 [e99ebfc3] (002/589) Accurately ripped
07 [86de3c14] (000/586) No match (V2 was not tested)
08 [84ef136b] (000/588) No match (V2 was not tested)
09 [14fd7314] (000/591) No match (V2 was not tested)
10 [f4916c29] (000/584) No match (V2 was not tested)
11 [59592a70] (000/586) No match (V2 was not tested)
12 [cefa8969] (000/586) No match
Offsetted by 18:
01 [23300576] (000/593) No match
02 [29409835] (000/589) No match
03 [ba068937] (000/593) No match (V2 was not tested)
04 [1b4c31c8] (000/594) No match
05 [bc601d84] (000/592) No match
06 [67542d0c] (000/589) No match
07 [32ceb6d5] (000/586) No match
08 [7f013a07] (000/588) No match
09 [cb0e23d0] (002/591) Accurately ripped
10 [81e53587] (002/584) Accurately ripped
11 [45010292] (002/586) Accurately ripped
12 [36838093] (002/586) Accurately ripped

Track Peak [ CRC32 ] [W/O NULL] [ LOG ]
– 99,9 [298CEEDA] [DEEB222E] CRC32
01 94,6 [3DBD6A37] [4F57A4A4]
02 90,3 [FC15824D] [9797D26F]
03 92,8 [8533011C] [6AF4E687]
04 99,9 [93853D2C] [FF1A8BFD]
05 99,9 [E70B4126] [E55D1FFE]
06 90,3 [2DE8ACDE] [A6F499B0]
07 92,8 [64ACB3B1] [12B62A6B]
08 90,3 [89EC1054] [FEBAD587]
09 91,1 [A733B00B] [AC85CE1F]
10 92,4 [860DAA3A] [2BF6EDDA]
11 67,3 [6ED1C617] [DF66015A]
12 97,1 [D866B75B] [B69BF5C0]

foobar2000 1.2 / Dynamic Range Meter 1.1.1
log date: 2016-08-16 14:46:15

––––––––––––––––––––––––––––––––––––––––
Analyzed: Beth Orton / Central Reservation
––––––––––––––––––––––––––––––––––––––––

DR Peak RMS Duration Track
––––––––––––––––––––––––––––––––––––––––
DR9 -0.47 dB -10.93 dB 5:26 01-Stolen Car
DR9 -0.88 dB -11.26 dB 5:39 02-Sweetest Decline
DR8 -0.64 dB -9.82 dB 4:48 03-Could't Cause Me Harm
DR9 -0.01 dB -12.83 dB 5:42 04-So Mach More
DR9 0.00 dB -12.43 dB 7:18 05-Pass In Time
DR8 -0.89 dB -11.23 dB 4:50 06-Central Reservation (Original Version)
DR9 -0.64 dB -11.02 dB 4:40 07-Stars All Seem To Weep
DR8 -0.89 dB -10.53 dB 3:08 08-Love Like Laughter
DR10 -0.81 dB -13.06 dB 4:16 09-Blood Red River
DR9 -0.68 dB -12.93 dB 5:05 10-Devil Song
DR8 -3.43 dB -13.16 dB 4:04 11-Feel To Believe
DR8 -0.26 dB -10.52 dB 4:02 12-Central Reservation (The Then Again Version)
––––––––––––––––––––––––––––––––––––––––

Number of tracks: 12
Official DR value: DR9

Samplerate: 44100 Hz
Channels: 2
Bits per sample: 16
Bitrate: 875 kbps
Codec: FLAC
================================================================================

Beth Orton - Central Reservation (1999)

Beth Orton - Central Reservation (1999)

All thanks to original releaser - vicpalbk2006

More interesting music in My Blog