Tags
Language
Tags

Blue Öyster Cult - Original Album Classics (2011) [5CD Box Set]

Posted By: v3122
Blue Öyster Cult - Original Album Classics (2011) [5CD Box Set]

Blue Öyster Cult - Original Album Classics (2011)
EAC | Flac(Image) + Cue + Log & MP3 CBR 320Kbps
Sony Music, 88691900922 | ~ 1524 or 662 Mb | Artwork(png) -> 263 Mb
Hard Rock

The 2012 box set Original Album Classics rounds up the five albums BOC released between 1975 and 1983: On Your Feet or on Your Knees, Some Enchanted Evening, Cultosaurus Erectus, Fire of Unknown Origin, and Revölution by Night. Every one of these CDs is packaged as a mini-LP in a paper sleeve, making this a handsome, affordable way to get the prime of Blue Öyster Cult in one fell swoop.

~ allmusic
Blue Öyster Cult - Original Album Classics (2011):

Blue Öyster Cult - Original Album Classics (2011) [5CD Box Set]

Tracklist CD1. 1975 On Your Feet Or On Your Knees:

01. The Subhuman
02. Harvester Of Eyes
03. Hot Rails To Hell
04. The Red And The Black
05. Seven Screaming Diz-Busters
06. Buck's Boogie
07. (Then Came The) Last Days Of May
08. Cities On Flame
09. M.E. 262
10. Before The Kiss (A Recap)
11. Maserati GT (I Ain't Got You)
12. Born To Be Wild

Exact Audio Copy V1.0 beta 3 from 29. August 2011

EAC extraction logfile from 6. April 2012, 22:56

Blue Oyster Cult / On Your Feet Or On Your Knees

Used drive : HL-DT-STDVDRAM GSA-H60N Adapter: 2 ID: 0

Read mode : Secure
Utilize accurate stream : Yes
Defeat audio cache : Yes
Make use of C2 pointers : No

Read offset correction : 667
Overread into Lead-In and Lead-Out : No
Fill up missing offset samples with silence : Yes
Delete leading and trailing silent blocks : No
Null samples used in CRC calculations : Yes
Used interface : Native Win32 interface for Win NT & 2000

Used output format : Internal WAV Routines
Sample format : 44.100 Hz; 16 Bit; Stereo


TOC of the extracted CD

Track | Start | Length | Start sector | End sector
––––––––––––––––––––––––––––-
1 | 0:00.00 | 7:28.00 | 0 | 33599
2 | 7:28.00 | 4:59.15 | 33600 | 56039
3 | 12:27.15 | 5:29.10 | 56040 | 80724
4 | 17:56.25 | 4:32.72 | 80725 | 101196
5 | 22:29.22 | 8:49.35 | 101197 | 140906
6 | 31:18.57 | 6:59.05 | 140907 | 172336
7 | 38:17.62 | 4:45.05 | 172337 | 193716
8 | 43:02.67 | 4:05.43 | 193717 | 212134
9 | 47:08.35 | 8:18.35 | 212135 | 249519
10 | 55:26.70 | 5:12.30 | 249520 | 272949
11 | 60:39.25 | 9:02.02 | 272950 | 313601
12 | 69:41.27 | 6:21.10 | 313602 | 342186


Range status and errors

Selected range

Filename C:\Documents and Settings\Admin\Рабочий стол\Rip by ALLexxess\Blue Oyster Cult\2011 Original Album Classics (5CD Box Set Columbia Records)\1975 On Your Feet Or On Your Knees\Blue Oyster Cult - On Your Feet Or On Your Knees.wav

Peak level 85.1 %
Extraction speed 6.0 X
Range quality 99.9 %
Test CRC 6879C16A
Copy CRC 6879C16A
Copy OK

No errors occurred


AccurateRip summary

Track 1 not present in database
Track 2 not present in database
Track 3 not present in database
Track 4 not present in database
Track 5 not present in database
Track 6 not present in database
Track 7 not present in database
Track 8 not present in database
Track 9 not present in database
Track 10 not present in database
Track 11 not present in database
Track 12 not present in database

None of the tracks are present in the AccurateRip database

End of status report

==== Log checksum B14648D5EC6C257DF6EEAAD4D5FE40CB88C45283B539BCD392A9655A44D3D91E ====


[CUETools log; Date: 01.02.2020 13:55:28; Version: 2.1.6]
[CTDB TOCID: .epnTg0tRuU6KzOvFFJuY.6zmPs-] found.
Track | CTDB Status
1 | (230/233) Accurately ripped
2 | (231/233) Accurately ripped
3 | (232/233) Accurately ripped
4 | (231/233) Accurately ripped
5 | (232/233) Accurately ripped
6 | (231/233) Accurately ripped
7 | (232/233) Accurately ripped
8 | (232/233) Accurately ripped
9 | (231/233) Accurately ripped
10 | (232/233) Accurately ripped
11 | (231/233) Accurately ripped
12 | (231/233) Accurately ripped
[AccurateRip ID: 00211855-01358367-ae11d20c] found.
Track [ CRC | V2 ] Status
01 [9c1e21dc|8078ec4f] (06+81/87) Accurately ripped
02 [e45d4423|ab7d5deb] (05+82/87) Accurately ripped
03 [16295eff|14e8017b] (06+81/87) Accurately ripped
04 [d1f02d4f|4f06c5de] (06+81/87) Accurately ripped
05 [46efc9a2|e67adce2] (06+81/87) Accurately ripped
06 [0ade78c9|a9e67f75] (06+81/87) Accurately ripped
07 [769ecffb|baf91a7b] (06+81/87) Accurately ripped
08 [a92c35ea|14e56f4b] (06+81/87) Accurately ripped
09 [6f33f217|5f8b91f9] (06+81/87) Accurately ripped
10 [c535c5bf|2796e9a3] (06+81/87) Accurately ripped
11 [88c92600|c80e246d] (06+80/86) Accurately ripped
12 [d244d38c|5d75e8dd] (06+73/79) Accurately ripped

Track Peak [ CRC32 ] [W/O NULL] [ LOG ]
– 85,1 [6879C16A] [D82EF2A1] CRC32
01 75,8 [11708912] [45DD2388]
02 75,8 [E68A1524] [CA928C60]
03 75,8 [D115875B] [96204110]
04 80,1 [BC4CBBC2] [F7864B62]
05 79,4 [04BE9DC8] [DDD80034]
06 83,1 [697E51DE] [EADA1148]
07 85,1 [45F4A02E] [806171FC]
08 85,1 [BFC52BCE] [BB7C8F49]
09 85,1 [19BA3B7F] [DE709383]
10 83,1 [69BA1CAD] [D80AA5F0]
11 83,5 [3EF709D7] [3998214A]
12 83,1 [91928279] [468CA96A]


Blue Öyster Cult - Original Album Classics (2011) [5CD Box Set]

Tracklist CD2. 1978 Some Enchanted Evening (Live):

01. R.U. Ready 2 Rock
02. E.T.I. (Extra Terrestrial Intelligence)
03. Astronomy
04. Kick Out The Jams
05. Godzilla
06. (Don't Fear) The Reaper
07. We Gotta Get Out Of This Place

Exact Audio Copy V1.0 beta 3 from 29. August 2011

EAC extraction logfile from 6. April 2012, 22:17

Blue Oyster Cult / Some Enchanted Evening

Used drive : HL-DT-STDVDRAM GSA-H60N Adapter: 2 ID: 0

Read mode : Secure
Utilize accurate stream : Yes
Defeat audio cache : Yes
Make use of C2 pointers : No

Read offset correction : 667
Overread into Lead-In and Lead-Out : No
Fill up missing offset samples with silence : Yes
Delete leading and trailing silent blocks : No
Null samples used in CRC calculations : Yes
Used interface : Native Win32 interface for Win NT & 2000

Used output format : Internal WAV Routines
Sample format : 44.100 Hz; 16 Bit; Stereo


TOC of the extracted CD

Track | Start | Length | Start sector | End sector
––––––––––––––––––––––––––––-
1 | 0:00.00 | 6:06.67 | 0 | 27516
2 | 6:06.67 | 5:16.68 | 27517 | 51284
3 | 11:23.60 | 8:22.35 | 51285 | 88969
4 | 19:46.20 | 3:07.47 | 88970 | 103041
5 | 22:53.67 | 4:10.38 | 103042 | 121829
6 | 27:04.30 | 6:11.55 | 121830 | 149709
7 | 33:16.10 | 4:50.65 | 149710 | 171524


Range status and errors

Selected range

Filename C:\Documents and Settings\Admin\Рабочий стол\Rip by ALLexxess\Blue Oyster Cult\2011 Original Album Classics (5CD Box Set Columbia Records)\1978 Some Enchanted Evening\Blue Oyster Cult - Some Enchanted Evening.wav

Peak level 99.8 %
Extraction speed 5.5 X
Range quality 100.0 %
Test CRC 8383C188
Copy CRC 8383C188
Copy OK

No errors occurred


AccurateRip summary

Track 1 not present in database
Track 2 not present in database
Track 3 not present in database
Track 4 not present in database
Track 5 not present in database
Track 6 not present in database
Track 7 not present in database

None of the tracks are present in the AccurateRip database

End of status report

==== Log checksum 7DD1DAB3494F3659AAA65C2301A3ADF2757F061EA168C9689122B84C6D844854 ====


[CUETools log; Date: 01.02.2020 13:57:09; Version: 2.1.6]
[CTDB TOCID: IJyxdrdKHjXAGB0XRpHQQW6iPMc-] found.
Track | CTDB Status
1 | (233/235) Accurately ripped
2 | (232/235) Accurately ripped
3 | (232/235) Accurately ripped
4 | (232/235) Accurately ripped
5 | (232/235) Accurately ripped
6 | (232/235) Accurately ripped
7 | (232/235) Accurately ripped
[AccurateRip ID: 000ae497-00408fda-7208ef07] found.
Track [ CRC | V2 ] Status
01 [00ac5014|ee06dee5] (06+93/99) Accurately ripped
02 [156b8fc1|e6dbf625] (06+93/99) Accurately ripped
03 [d974ce6f|83289aef] (06+92/98) Accurately ripped
04 [31783cb3|7bc5bf42] (06+92/98) Accurately ripped
05 [16c255cd|e066a74d] (06+92/98) Accurately ripped
06 [15ded01e|c175d99c] (06+92/98) Accurately ripped
07 [3e1621b7|63dee824] (06+91/97) Accurately ripped

Track Peak [ CRC32 ] [W/O NULL] [ LOG ]
– 99,8 [8383C188] [034FD76B] CRC32
01 84,2 [ED4E9C45] [77F688E9]
02 88,8 [0E5C1DD4] [2C9D72D1]
03 96,3 [AEBE600C] [F9147915]
04 68,0 [47B7EAD0] [94579B98]
05 74,7 [AF113720] [B02B22D5]
06 70,9 [EBE9EFC3] [ED46B3A2]
07 99,8 [5C08A460] [BF07AFAD]


Blue Öyster Cult - Original Album Classics (2011) [5CD Box Set]

Tracklist CD3. 1980 Cultosaurus Erectus:

01. Black Blade
02. Monsters
03. Divine Wind
04. Deadline
05. The Marshall Plan
06. Hungry Boys
07. Fallen Angel
08. Lips In The Hills
09. Unknown Tongue

Exact Audio Copy V1.0 beta 3 from 29. August 2011

EAC extraction logfile from 6. April 2012, 17:25

Blue Oyster Cult / Cultosaurus Erectus

Used drive : HL-DT-STDVDRAM GSA-H60N Adapter: 2 ID: 0

Read mode : Secure
Utilize accurate stream : Yes
Defeat audio cache : Yes
Make use of C2 pointers : No

Read offset correction : 667
Overread into Lead-In and Lead-Out : No
Fill up missing offset samples with silence : Yes
Delete leading and trailing silent blocks : No
Null samples used in CRC calculations : Yes
Used interface : Native Win32 interface for Win NT & 2000

Used output format : Internal WAV Routines
Sample format : 44.100 Hz; 16 Bit; Stereo


TOC of the extracted CD

Track | Start | Length | Start sector | End sector
––––––––––––––––––––––––––––-
1 | 0:00.00 | 6:33.52 | 0 | 29526
2 | 6:33.52 | 5:11.00 | 29527 | 52851
3 | 11:44.52 | 5:07.03 | 52852 | 75879
4 | 16:51.55 | 4:27.15 | 75880 | 95919
5 | 21:18.70 | 5:23.05 | 95920 | 120149
6 | 26:42.00 | 3:38.15 | 120150 | 136514
7 | 30:20.15 | 3:11.25 | 136515 | 150864
8 | 33:31.40 | 4:25.52 | 150865 | 170791
9 | 37:57.17 | 3:55.58 | 170792 | 188474


Range status and errors

Selected range

Filename C:\Documents and Settings\Admin\Рабочий стол\Rip by ALLexxess\Blue Oyster Cult\2011 Original Album Classics (5CD Box Set Columbia Records)\1980 Cultosaurus Erectus\Blue Oyster Cult - Cultosaurus Erectus.wav

Peak level 100.0 %
Extraction speed 5.7 X
Range quality 100.0 %
Test CRC F595312D
Copy CRC F595312D
Copy OK

No errors occurred


AccurateRip summary

Track 1 not present in database
Track 2 not present in database
Track 3 not present in database
Track 4 not present in database
Track 5 not present in database
Track 6 not present in database
Track 7 not present in database
Track 8 not present in database
Track 9 not present in database

None of the tracks are present in the AccurateRip database

End of status report

==== Log checksum F7F63C34B65AC9DB7609044F202134DF68FA6397E5A04CD42836CE4F22DA3E0D ====


[CUETools log; Date: 01.02.2020 13:59:12; Version: 2.1.6]
[CTDB TOCID: lNdaZ634iigq2pEBFyps7OAZplY-] found.
Track | CTDB Status
1 | (246/246) Accurately ripped
2 | (246/246) Accurately ripped
3 | (246/246) Accurately ripped
4 | (246/246) Accurately ripped
5 | (246/246) Accurately ripped
6 | (246/246) Accurately ripped
7 | (246/246) Accurately ripped
8 | (246/246) Accurately ripped
9 | (245/246) Accurately ripped
[AccurateRip ID: 000f9430-006f7b32-6209d109] found.
Track [ CRC | V2 ] Status
01 [c8ee4ad5|22fb66db] (09+83/92) Accurately ripped
02 [34e35425|46192228] (09+83/92) Accurately ripped
03 [dec722f7|814efc13] (09+83/92) Accurately ripped
04 [d8486e2a|114df21c] (09+82/91) Accurately ripped
05 [0a4c3d3b|a0046e9e] (08+83/91) Accurately ripped
06 [bc05c063|ebd1cc6c] (09+82/91) Accurately ripped
07 [01cfc653|8778eef8] (09+82/91) Accurately ripped
08 [003fd159|62a76f47] (09+83/92) Accurately ripped
09 [e5426b25|d5215fc8] (09+82/91) Accurately ripped

Track Peak [ CRC32 ] [W/O NULL] [ LOG ]
– 100,0 [F595312D] [D8A5461F] CRC32
01 100,0 [D42B36AA] [77EFDA20]
02 87,0 [CEC92645] [83040344]
03 99,9 [9041FAC2] [6CA53A59]
04 86,1 [F5F33EED] [8CA6C64B]
05 100,0 [63CDDA6C] [CCE02E7D]
06 95,3 [FB9219B0] [4FC4EF35]
07 88,4 [F10FAC9C] [7570C0DB]
08 100,0 [0EB16D91] [B1E37326]
09 86,1 [E72E1A01] [13E3ADF4]


Blue Öyster Cult - Original Album Classics (2011) [5CD Box Set]

Tracklist CD4. 1981 Fire Of Unknown Origin:

01. Fire Of Unknown Origin
02. Burnin' For You
03. Veteran Of The Psychic Wars
04. Sole Survivor
05. Heavy Metal: The Black And Silver
06. Vengeance
07. After Dark
08. Joan Crawford
09. Don't Turn Your Back

Exact Audio Copy V1.0 beta 3 from 29. August 2011

EAC extraction logfile from 6. April 2012, 21:02

Blue Oyster Cult / Fire Of Unknown Origin

Used drive : HL-DT-STDVDRAM GSA-H60N Adapter: 2 ID: 0

Read mode : Secure
Utilize accurate stream : Yes
Defeat audio cache : Yes
Make use of C2 pointers : No

Read offset correction : 667
Overread into Lead-In and Lead-Out : No
Fill up missing offset samples with silence : Yes
Delete leading and trailing silent blocks : No
Null samples used in CRC calculations : Yes
Used interface : Native Win32 interface for Win NT & 2000

Used output format : Internal WAV Routines
Sample format : 44.100 Hz; 16 Bit; Stereo


TOC of the extracted CD

Track | Start | Length | Start sector | End sector
––––––––––––––––––––––––––––-
1 | 0:00.00 | 4:10.30 | 0 | 18779
2 | 4:10.30 | 4:30.65 | 18780 | 39094
3 | 8:41.20 | 4:50.22 | 39095 | 60866
4 | 13:31.42 | 4:05.55 | 60867 | 79296
5 | 17:37.22 | 3:19.18 | 79297 | 94239
6 | 20:56.40 | 4:41.10 | 94240 | 115324
7 | 25:37.50 | 4:25.52 | 115325 | 135251
8 | 30:03.27 | 4:54.00 | 135252 | 157301
9 | 34:57.27 | 4:07.40 | 157302 | 175866


Range status and errors

Selected range

Filename C:\Documents and Settings\Admin\Рабочий стол\Rip by ALLexxess\Blue Oyster Cult\2011 Original Album Classics (5CD Box Set Columbia Records)\1981 Fire Of Unknown Origin\Blue Oyster Cult - Fire Of Unknown Origin.wav

Peak level 100.0 %
Extraction speed 5.2 X
Range quality 99.9 %
Test CRC 65593E92
Copy CRC 65593E92
Copy OK

No errors occurred


AccurateRip summary

Track 1 not present in database
Track 2 not present in database
Track 3 not present in database
Track 4 not present in database
Track 5 not present in database
Track 6 not present in database
Track 7 not present in database
Track 8 not present in database
Track 9 not present in database

None of the tracks are present in the AccurateRip database

End of status report

==== Log checksum EAE51662170AB757BF4D72FA9737CE37222387FD3023B125481D088E15FC57EC ====


[CUETools log; Date: 01.02.2020 14:01:17; Version: 2.1.6]
[CTDB TOCID: KqUYCBkqAhYNAFhxi9pLwYKryws-] found.
Track | CTDB Status
1 | (271/273) Accurately ripped
2 | (271/273) Accurately ripped
3 | (271/273) Accurately ripped
4 | (270/273) Accurately ripped
5 | (271/273) Accurately ripped
6 | (271/273) Accurately ripped
7 | (271/273) Accurately ripped
8 | (271/273) Accurately ripped
9 | (268/273) Accurately ripped
[AccurateRip ID: 000d5df9-0062056e-74092809] found.
Track [ CRC | V2 ] Status
01 [b9d1e691|314cf854] (007+092/099) Accurately ripped
02 [e4cacb2f|b5f8dd38] (007+093/100) Accurately ripped
03 [f3ec36e9|3bd126ec] (007+093/100) Accurately ripped
04 [ede0d072|f61294ff] (007+092/099) Accurately ripped
05 [b67e2235|8911fdb4] (007+092/099) Accurately ripped
06 [12c24521|7c9177c3] (007+093/100) Accurately ripped
07 [09891406|dd7f004e] (007+091/098) Accurately ripped
08 [430c79ab|edbc30f0] (007+094/101) Accurately ripped
09 [6804dde4|634068f0] (007+091/098) Accurately ripped

Track Peak [ CRC32 ] [W/O NULL] [ LOG ]
– 100,0 [65593E92] [DBA98F54] CRC32
01 100,0 [3950ED3C] [496731E8]
02 90,3 [A16795F8] [7F15202C]
03 93,4 [09CDF77A] [B6858C60]
04 100,0 [BBB89081] [FDAA5FEB]
05 95,5 [631BD3F4] [730B5505]
06 98,5 [2256D8CB] [CB44755A]
07 89,8 [BA633658] [C89DBD31]
08 93,3 [8AF2C197] [62EAB565]
09 78,2 [5471A2CF] [B3253644]


Blue Öyster Cult - Original Album Classics (2011) [5CD Box Set]

Tracklist CD5. 1983 The Revolution By Night:

01. Take Me Away
02. Eyes On Fire
03. Shooting Shark
04. Veins
05. Shadows Of California
06. Feel The Thunder
07. Let Go
08. Dragon Lady
09. Light Years Of Love

Exact Audio Copy V1.0 beta 3 from 29. August 2011

EAC extraction logfile from 6. April 2012, 21:50

Blue Oyster Cult / The Revolution By Night

Used drive : HL-DT-STDVDRAM GSA-H60N Adapter: 2 ID: 0

Read mode : Secure
Utilize accurate stream : Yes
Defeat audio cache : Yes
Make use of C2 pointers : No

Read offset correction : 667
Overread into Lead-In and Lead-Out : No
Fill up missing offset samples with silence : Yes
Delete leading and trailing silent blocks : No
Null samples used in CRC calculations : Yes
Used interface : Native Win32 interface for Win NT & 2000

Used output format : Internal WAV Routines
Sample format : 44.100 Hz; 16 Bit; Stereo


TOC of the extracted CD

Track | Start | Length | Start sector | End sector
––––––––––––––––––––––––––––-
1 | 0:00.00 | 4:31.25 | 0 | 20349
2 | 4:31.25 | 3:56.37 | 20350 | 38086
3 | 8:27.62 | 7:09.63 | 38087 | 70324
4 | 15:37.50 | 3:59.42 | 70325 | 88291
5 | 19:37.17 | 5:10.23 | 88292 | 111564
6 | 24:47.40 | 5:48.40 | 111565 | 137704
7 | 30:36.05 | 3:25.32 | 137705 | 153111
8 | 34:01.37 | 4:08.40 | 153112 | 171751
9 | 38:10.02 | 4:04.38 | 171752 | 190089


Range status and errors

Selected range

Filename C:\Documents and Settings\Admin\Рабочий стол\Rip by ALLexxess\Blue Oyster Cult\2011 Original Album Classics (5CD Box Set Columbia Records)\1983 The Revolution By Night\Blue Oyster Cult - The Revolution By Night.wav

Peak level 72.1 %
Extraction speed 5.6 X
Range quality 99.9 %
Test CRC 7D248972
Copy CRC 7D248972
Copy OK

No errors occurred


AccurateRip summary

Track 1 not present in database
Track 2 not present in database
Track 3 not present in database
Track 4 not present in database
Track 5 not present in database
Track 6 not present in database
Track 7 not present in database
Track 8 not present in database
Track 9 not present in database

None of the tracks are present in the AccurateRip database

End of status report

==== Log checksum A774D02C5040B2ED2C653F7519FBC07EFECDDA306E05B2EB0CB1E621F8CE2B2B ====


[CUETools log; Date: 01.02.2020 14:03:20; Version: 2.1.6]
[CTDB TOCID: 6Ko2m3sz.r3JVXQqnwywIKzweLk-] found.
Track | CTDB Status
1 | (243/244) Accurately ripped
2 | (243/244) Accurately ripped
3 | (243/244) Accurately ripped
4 | (242/244) Accurately ripped
5 | (242/244) Accurately ripped
6 | (243/244) Accurately ripped
7 | (243/244) Accurately ripped
8 | (242/244) Accurately ripped
9 | (242/244) Accurately ripped
[AccurateRip ID: 000ef91e-006d9913-8509e609] found.
Track [ CRC | V2 ] Status
01 [f4050c40|733405f0] (005+090/099) Accurately ripped
02 [ab3e0d5f|ac77aa58] (006+089/099) Accurately ripped
03 [dfab5aca|06048d2d] (006+091/101) Accurately ripped
04 [ccc63a67|bf0d5077] (006+090/100) Accurately ripped
05 [9c967d47|646d7fd4] (006+090/100) Accurately ripped
06 [ef5a4fab|66bce35f] (006+091/101) Accurately ripped
07 [f2d2b9ec|e8abb57c] (006+091/101) Accurately ripped
08 [03b99328|28a38511] (006+090/100) Accurately ripped
09 [9c2b0198|2624926d] (006+088/098) Accurately ripped
Offsetted by -30:
01 [ee046bea] (000/099) No match (V2 was not tested)
02 [8c019276] (000/099) No match (V2 was not tested)
03 [3b230f9f] (000/101) No match (V2 was not tested)
04 [4a5413d4] (000/100) No match (V2 was not tested)
05 [aec70089] (000/100) No match (V2 was not tested)
06 [3269c352] (000/101) No match (V2 was not tested)
07 [2c02e5b4] (000/101) No match (V2 was not tested)
08 [9899cd20] (000/100) No match (V2 was not tested)
09 [d2898940] (000/098) No match (V2 was not tested)

Track Peak [ CRC32 ] [W/O NULL] [ LOG ]
– 72,1 [7D248972] [B2943C97] CRC32
01 67,3 [ADE82B55] [183EAAFF]
02 72,1 [E13AD13C] [66B224AC]
03 58,0 [73D21C20] [804AE890]
04 69,2 [FC1CEFA6] [AB1FA2BE]
05 67,8 [BAAD6699] [196ED23A]
06 64,4 [027604B6] [4A6A61A2]
07 58,9 [9A11113A] [A81F7016]
08 62,3 [BDEAC58A] [28E5BD91]
09 51,6 [CB0D3632] [56C13A03]


Blue Öyster Cult - Original Album Classics (2011) [5CD Box Set]

All thanks go to ALLexxess

Blue Öyster Cult in my Blog

Download Blue Öyster Cult - Original Album Classics (2011):