Subcategories

Bob Geldof - Great Songs Of Indifference: The Anthology 1986-2001 (2005) 4 CD Box Set

Posted By: Designol
Bob Geldof - Great Songs Of Indifference: The Anthology 1986-2001 (2005) 4 CD Box Set

Bob Geldof - Great Songs Of Indifference: The Anthology 1986-2001 (2005) 4 CD Box Set
EAC | FLAC | Image (Cue&Log) ~ 1.8 Gb | Mp3 (CBR320) ~ 711 Mb | Scans ~ 342 Mb | 05:09:48
Rock, Pop/Rock, Folk-Rock, New Wave, Post-Punk | Label: Mercury/UMC | # 983 376-8

Eclectic singer, songwriter, and social activist, the one-time Boomtown Rats leader became a progressive force in the 1980s. Great Songs of Indifference: The Anthology 1986-2001 brings together 4 solo albums: Deep in the Heart of Nowhere, the Vegetarians of Love, the Happy Club and Sex, Age and Death, with a wealth of bonus material, some previously unreleased.

Bob Geldof formed the punk group Boomtown Rats in 1975. During the band's existence, it moved from the pure energy and aggression of hits like "Looking After No. 1" to the more sophisticated but still provocative "I Don't Like Mondays" (its title derived from the answer given by a San Diego schoolgirl when asked why she'd killed her classmates). The band became a moderate success in the U.K., though it never really broke through in the U.S.

In the fall of 1984, Geldof watched a BBC documentary on Ethiopian poverty and was inspired to co-write, with Ultravox frontman Midge Ure, the charity single "Do They Know It's Christmas?" It featured a large number of British pop stars performing under the name Band Aid and became the best-selling single in U.K. history. Michael Jackson and Lionel Richie repeated the feat the following year in the U.S. with "We Are the World." By then Geldof was involved in plans for a massive charity concert that eventually became Live Aid, two marathon shows held July 13, 1985, at Wembley Stadium in London and at JFK Stadium in Philadelphia, featuring a who's who of pop/rock talent. Millions were raised and distributed to the African poor. Geldof was nominated for a Nobel Prize and knighted, and his autobiography Is That All? became a U.K. best-seller.

In 1986, the Rats split and Geldof launched a solo career, again with greater success in England than in the U.S. Deep in the Heart of Nowhere appeared that same year; however, Geldof's signature lyrical intellect wasn't up to par. He fared a bit better on 1990's The Vegetarians of Love. Instead of using an all-star cast found on his previous two albums, Geldof put a band together for the solid 1993 release Happy Club. For the rest of the decade, Geldof continued his fight against world hunger, specifically African famine. He joined Wyclef Jean, Bono, and others such as Bryan Ferry, Jimmy Page, Stereophonics, and Sean "Puffy" Combs for NetAid in October 1999. Three stadium concerts, which took place in New York, London, and Geneva, were simulcasted live on the Internet, radio, and television, staging a multimedia event that aimed to help end world poverty.

In the new millennium, Geldof returned to music for 2002's Sex, Age & Death. In 2004 he was asked to participate in DMC Records' Under the Influence series, a project that compiles songs that influenced the chosen performer's career, with extensive liner notes from the artists themselves. During the mid-2000s, Geldof devoted himself to charity work, most prominently re-teaming with Midge Ure for 2005's Live 8 concerts, which were designed to showcase the various social ills affecting Africa. Geldof did not return to pop music until 2011, when he released the full-length How to Compose Popular Songs That Will Sell in February.

Review by William Ruhlmann, Allmusic.com

Bob Geldof - Great Songs Of Indifference: The Anthology 1986-2001 (2005) 4 CD Box Set






Bob Geldof - Great Songs Of Indifference: The Anthology 1986-2001 (2005) 4 CD Box Set

Great Songs 1: Bob Geldof - Deep In The Heart Of Nowhere (1986)
EAC | FLAC | Image (Cue&Log) ~ 489 Mb | Mp3 (CBR320) ~ 176 Mb | 01:16:56

A year removed from his work organizing the Live Aid concerts to raise money and awareness concerning famine in Africa, ex-Boomtown Rat lead singer Bob Geldof released his solo debut. Deep in the Heart of Nowhere features a host of name performers ranging from Midge Ure (Ultravox) to Brian Setzer (Stray Cats) to Eric Clapton lending a hand. The lyrics are a bit self-conscious and overreaching at moments, but, with all of the talent on board, the album does have some winning tracks. The single, This Is the World Calling, barely scraped into the charts, but is an anthemic plea to the cosmos with a heavenly background vocal trio of Maria Mckee, Annie Lennox, and Alison Moyet. "August Was a Heavy Month" and "Love Like a Rocket" both contain fluid, melodic guitar work from Clapton, with the latter being an infectiously catchy lyrical take-off on the Kinks' "Waterloo Sunset." Unfortunately, the second half begins to waver and the album, overall, is unfocused and less than the sum of some pretty spectacular parts.

Tom Demalon, Allmusic.com

Tracklist:

01. This Is The World Calling (4:27)
02. In The Pouring Rain (4:32)
03. August Was A Heavy Month (5:08)
04. Love Like A Rocket (4:53)
05. I Cry Too (4:29)
06. When I Was Young (5:02)
07. This Heartless Heart (4:13)
08. The Beat Of The Night (4:57)
09. Truly, True Blue (1:20)
10. Pulled Apart By Horses (4:30)
11. Words From Heaven (4:39)
12. Good Boys In The Wrong (5:19)
13. Night Turns To Day (4:55)
14. Deep In The Heart Of Nowhere (1:18)

Bonus Tracks:

15. Life Is The Hardest Thing (3:13)
16. Friends For Life (5:30)
17. August Was A Heavy Month (Instrumental featuring Eric Clapton) (4:02)
18. Dig A Ditch (4:29)


Exact Audio Copy V0.99 prebeta 5 from 4. May 2009

Отчёт EAC об извлечении, выполненном 9. июля 2011, 13:24

Bob Geldof / Great Songs Of Indifference - The Anthology 1986-2001

Дисковод: PIONEER DVD-RW DVR-215D Adapter: 1 ID: 1

Режим чтения : Достоверность
Использование точного потока : Да
Отключение кэша аудио : Да
Использование указателей C2 : Нет

Коррекция смещения при чтении : 48
Способность читать области Lead-in и Lead-out : Нет
Заполнение пропущенных сэмплов тишиной : Да
Удаление блоков с тишиной в начале и конце : Нет
При вычислениях CRC использовались нулевые сэмплы : Да
Интерфейс : Встроенный Win32-интерфейс для Win NT/2000

Выходной формат : Пользовательский кодировщик
Выбранный битрейт : 1024 kBit/s
Качество : Высокий
Добавление ID3-тэга : Нет
Утилита сжатия : H:\Program Files\Exact Audio Copy\FLAC\FLAC.EXE
Дополнительные параметры : -6 -V -T "ARTIST=%a" -T "TITLE=%t" -T "ALBUM=%g" -T "DATE=%y" -T "TRACKNUMBER=%n" -T "GENRE=%m" -T "COMMENT=%e" %s -o %d


TOC извлечённого CD

Трек | Старт | Длительность | Начальный сектор | Конечный сектор
––––––––––––––––––––––––––––––––––-
1 | 0:00.00 | 4:26.73 | 0 | 20022
2 | 4:26.73 | 4:31.59 | 20023 | 40406
3 | 8:58.57 | 5:08.25 | 40407 | 63531
4 | 14:07.07 | 4:53.30 | 63532 | 85536
5 | 19:00.37 | 4:28.70 | 85537 | 105706
6 | 23:29.32 | 5:02.14 | 105707 | 128370
7 | 28:31.46 | 4:13.12 | 128371 | 147357
8 | 32:44.58 | 4:57.29 | 147358 | 169661
9 | 37:42.12 | 1:19.43 | 169662 | 175629
10 | 39:01.55 | 4:29.74 | 175630 | 195878
11 | 43:31.54 | 4:39.17 | 195879 | 216820
12 | 48:10.71 | 5:18.63 | 216821 | 240733
13 | 53:29.59 | 4:55.01 | 240734 | 262859
14 | 58:24.60 | 1:17.65 | 262860 | 268699
15 | 59:42.50 | 3:13.35 | 268700 | 283209
16 | 62:56.10 | 5:29.42 | 283210 | 307926
17 | 68:25.52 | 4:01.72 | 307927 | 326073
18 | 72:27.49 | 4:28.44 | 326074 | 346217


Характеристики диапазона извлечения и сообщения об ошибках

Выбранный диапазон

Имя файла L:\Audio Lossless\Bob Geldof. 2005 Great Songs Of Indifference - The Bob Geldof Anthology 1986-2001\CD 1 Deep In The Heart Of Nowhere\Bob Geldof - Great Songs Of Indifference - The Anthology 1986-2001.wav

Пиковый уровень 100.0 %
Качество диапазона 100.0 %
CRC теста EC95CD48
CRC копии EC95CD48
Копирование… OK

Ошибок не произошло


AccurateRip: сводка

Трек 1 точное извлечение (доверие 6) [BC363DA3]
Трек 2 точное извлечение (доверие 6) [E34BCB72]
Трек 3 точное извлечение (доверие 6) [7D4A9D0A]
Трек 4 точное извлечение (доверие 6) [5A6B2FFE]
Трек 5 точное извлечение (доверие 6) [1E8737DE]
Трек 6 точное извлечение (доверие 6) [F705EF45]
Трек 7 точное извлечение (доверие 6) [595447CF]
Трек 8 точное извлечение (доверие 5) [2DA88F22]
Трек 9 точное извлечение (доверие 6) [7761D8B6]
Трек 10 точное извлечение (доверие 6) [2197667E]
Трек 11 точное извлечение (доверие 6) [1949EE0B]
Трек 12 точное извлечение (доверие 6) [3CE18A30]
Трек 13 точное извлечение (доверие 6) [A0E17AB8]
Трек 14 точное извлечение (доверие 6) [1DC66757]
Трек 15 точное извлечение (доверие 6) [02957F4D]
Трек 16 точное извлечение (доверие 6) [D96E1455]
Трек 17 точное извлечение (доверие 6) [55BC9B90]
Трек 18 точное извлечение (доверие 6) [C415B180]

Все треки извлечены точно

Конец отчёта

[CUETools log; Date: 22.11.2017 20:21:38; Version: 2.1.4]
[CTDB TOCID: COjlifdKYw6t48JKBaxui17Sz_I-] found.
Track | CTDB Status
1 | (1/1) Accurately ripped
2 | (1/1) Accurately ripped
3 | (1/1) Accurately ripped
4 | (1/1) Accurately ripped
5 | (1/1) Accurately ripped
6 | (1/1) Accurately ripped
7 | (1/1) Accurately ripped
8 | (1/1) Accurately ripped
9 | (1/1) Accurately ripped
10 | (1/1) Accurately ripped
11 | (1/1) Accurately ripped
12 | (1/1) Accurately ripped
13 | (1/1) Accurately ripped
14 | (1/1) Accurately ripped
15 | (1/1) Accurately ripped
16 | (1/1) Accurately ripped
17 | (1/1) Accurately ripped
18 | (1/1) Accurately ripped
[AccurateRip ID: 0033a54a-02a9472e-fe120812] found.
Track [ CRC | V2 ] Status
01 [bc363da3|9670c67c] (09+03/12) Accurately ripped
02 [e34bcb72|20975a24] (09+03/12) Accurately ripped
03 [7d4a9d0a|1f7edf72] (09+03/12) Accurately ripped
04 [5a6b2ffe|a5c584a3] (09+03/12) Accurately ripped
05 [1e8737de|b8131536] (09+03/12) Accurately ripped
06 [f705ef45|209ec2e3] (08+03/11) Accurately ripped
07 [595447cf|6306ca8b] (09+03/12) Accurately ripped
08 [2da88f22|151c5274] (08+03/11) Accurately ripped
09 [7761d8b6|36cf3393] (09+03/12) Accurately ripped
10 [2197667e|9a7bacd8] (09+03/12) Accurately ripped
11 [1949ee0b|9d259cee] (09+03/12) Accurately ripped
12 [3ce18a30|fbc858c9] (09+03/12) Accurately ripped
13 [a0e17ab8|00409819] (10+03/13) Accurately ripped
14 [1dc66757|fbce64ae] (10+03/13) Accurately ripped
15 [02957f4d|c84ed4e5] (10+03/13) Accurately ripped
16 [d96e1455|77e12547] (10+03/13) Accurately ripped
17 [55bc9b90|43bfec61] (10+03/13) Accurately ripped
18 [c415b180|2984bab1] (10+03/13) Accurately ripped

Track Peak [ CRC32 ] [W/O NULL] [ LOG ]
– 100,0 [EC95CD48] [B0E7FE90] CRC32
01 97,7 [2CD25C9D] [46898E78]
02 96,0 [ED27350C] [DEDA46AA]
03 100,0 [D6295A77] [A9058D6E]
04 85,9 [6D1D5933] [B708ED02]
05 99,1 [755B987C] [37830021]
06 90,1 [73DD77DD] [D42889AF]
07 85,6 [3C740D5B] [7458440A]
08 67,6 [FAB326D3] [921BD353]
09 52,1 [83959B4E] [96C3C916]
10 85,8 [191B5E90] [E6823749]
11 76,7 [92B596A1] [D5AF315A]
12 74,4 [158268FD] [75648547]
13 100,0 [7B72F4DF] [69000E8B]
14 95,4 [5E059131] [E11AF3C8]
15 90,4 [92289932] [B092C64E]
16 85,0 [1A7E4A66] [19CF631C]
17 83,5 [46A93B89] [C175FBA3]
18 68,2 [454D4D8B] [93189B4D]

foobar2000 1.2 / Dynamic Range Meter 1.1.1
log date: 2017-11-22 20:49:18

––––––––––––––––––––––––––––––––––––––––
Analyzed: Bob Geldof / The Anthology 1986-2001, CD1 - Deep In The Heart Of Nowhere (1986)
––––––––––––––––––––––––––––––––––––––––

DR Peak RMS Duration Track
––––––––––––––––––––––––––––––––––––––––
DR12 -0.19 dB -16.35 dB 4:27 01-This Is The World Calling
DR13 -0.35 dB -15.47 dB 4:32 02-In The Pouring Rain
DR13 0.00 dB -17.70 dB 5:08 03-August Was A Heavy Month
DR13 -1.31 dB -16.36 dB 4:53 04-Love Like A Rocket
DR12 -0.08 dB -16.14 dB 4:29 05-I Cry Too
DR13 -0.90 dB -15.49 dB 5:02 06-When I Was Young
DR13 -1.34 dB -16.42 dB 4:13 07-This Heartless Heart
DR13 -3.39 dB -18.44 dB 4:57 08-The Beat Of The Night
DR11 -5.66 dB -19.49 dB 1:20 09-Truly, True Blue
DR12 -1.33 dB -16.82 dB 4:30 10-Pulled Apart By Horses
DR13 -2.30 dB -18.13 dB 4:39 11-Words From Heaven
DR14 -2.56 dB -19.48 dB 5:19 12-Good Boys In The Wrong
DR13 0.00 dB -16.09 dB 4:55 13-Night Turns To Day
DR12 -0.40 dB -19.79 dB 1:18 14-Deep In The Heart Of Nowhere
DR13 -0.88 dB -18.30 dB 3:13 15-Life Is The Hardest Thing
DR15 -1.41 dB -18.22 dB 5:30 16-Friends For Life
DR11 -1.56 dB -15.87 dB 4:02 17-August Was A Heavy Month (Instrumental featuring Eric Clapton)
DR9 -3.32 dB -14.38 dB 4:29 18-Dig A Ditch
––––––––––––––––––––––––––––––––––––––––

Number of tracks: 18
Official DR value: DR12

Samplerate: 44100 Hz
Channels: 2
Bits per sample: 16
Bitrate: 888 kbps
Codec: FLAC
================================================================================




Bob Geldof - Great Songs Of Indifference: The Anthology 1986-2001 (2005) 4 CD Box Set

Great Songs 2: Bob Geldof - The Vegetarians Of Love (1990)
EAC | FLAC | Image (Cue&Log) ~ 477 Mb | Mp3 (CBR320) ~ 183 Mb | 01:19:48

Geldof returns after a four-year absence with his second solo release, The Vegetarians of Love. Again, there are some high-profile guests including Paul Carrack, Kevin Godley, and Dave Stewart, but this Rupert Hine-produced affair has a low-key feel to it. Geldof applies his Dylanesque croak to a set that is very heavy on Irish-folk influences with rich results.

"A Gospel Song" is a gorgeous, organ-driven track that leads things off. Dave Stewart lends his guitar work to the catchy pop/rock of "Love Or Something." "The Great Song of Indifference," is a wry, tongue-in-cheek stomp fueled by pennywhistles, accordion and violin. There's even the appearance of former Boomtown Rat bandmate Pete Briquette playing bass and keyboards and co-writing the pleasant, albeit meandering, "Thinking Voyager 2 Type Things." A commercial flop on both sides of the Atlantic, this album is, nonetheless, a joyous romp from start to finish.

Tom Demalon, Allmusic.com

Tracklist:

01. A Gospel Song (5:22)
02. Love Or Something (4:41)
03. Great Song Of Indifference (4:41)
04. Thinking Voyager 2 Type Things (8:21)
05. Big Romantic Stuff (4:06)
06. Crucified Me (2:06)
07. The Chains Of Pain (3:44)
08. A Rose At Night (5:43)
09. No Small Wonder (4:43)
10. Walking Back To Happiness (7:29)
11. Let It Go (4:40)
12. The End Of The World (1:51)

Bonus Tracks:

13. Out Of Order (3:29)
14. Hotel 75 (3:56)
15. One Of The Girls (2:29)
16. The Original Miss Jesus (3:45)
17. The Vegetarians Of Love (1:20)
18. Sunny Afternoon (3:45)
19. The Great Song Of Indifference (French Version) (3:38)


Exact Audio Copy V0.99 prebeta 5 from 4. May 2009

Отчёт EAC об извлечении, выполненном 9. июля 2011, 13:49

Bob Geldof / Great Songs Of Indifference - The Anthology 1986-2001 CD2

Дисковод: PIONEER DVD-RW DVR-215D Adapter: 1 ID: 1

Режим чтения : Достоверность
Использование точного потока : Да
Отключение кэша аудио : Да
Использование указателей C2 : Нет

Коррекция смещения при чтении : 48
Способность читать области Lead-in и Lead-out : Нет
Заполнение пропущенных сэмплов тишиной : Да
Удаление блоков с тишиной в начале и конце : Нет
При вычислениях CRC использовались нулевые сэмплы : Да
Интерфейс : Встроенный Win32-интерфейс для Win NT/2000

Выходной формат : Пользовательский кодировщик
Выбранный битрейт : 1024 kBit/s
Качество : Высокий
Добавление ID3-тэга : Нет
Утилита сжатия : H:\Program Files\Exact Audio Copy\FLAC\FLAC.EXE
Дополнительные параметры : -6 -V -T "ARTIST=%a" -T "TITLE=%t" -T "ALBUM=%g" -T "DATE=%y" -T "TRACKNUMBER=%n" -T "GENRE=%m" -T "COMMENT=%e" %s -o %d


TOC извлечённого CD

Трек | Старт | Длительность | Начальный сектор | Конечный сектор
––––––––––––––––––––––––––––––––––-
1 | 0:00.00 | 5:21.64 | 0 | 24138
2 | 5:21.64 | 4:40.50 | 24139 | 45188
3 | 10:02.39 | 4:41.29 | 45189 | 66292
4 | 14:43.68 | 8:20.74 | 66293 | 103866
5 | 23:04.67 | 4:05.59 | 103867 | 122300
6 | 27:10.51 | 2:06.35 | 122301 | 131785
7 | 29:17.11 | 3:44.21 | 131786 | 148606
8 | 33:01.32 | 5:42.49 | 148607 | 174305
9 | 38:44.06 | 4:42.51 | 174306 | 195506
10 | 43:26.57 | 7:29.33 | 195507 | 229214
11 | 50:56.15 | 4:39.51 | 229215 | 250190
12 | 55:35.66 | 1:50.57 | 250191 | 258497
13 | 57:26.48 | 3:29.36 | 258498 | 274208
14 | 60:56.09 | 3:56.08 | 274209 | 291916
15 | 64:52.17 | 2:28.39 | 291917 | 303055
16 | 67:20.56 | 3:44.63 | 303056 | 319918
17 | 71:05.44 | 1:19.68 | 319919 | 325911
18 | 72:25.37 | 3:44.60 | 325912 | 342771
19 | 76:10.22 | 3:37.46 | 342772 | 359092


Характеристики диапазона извлечения и сообщения об ошибках

Выбранный диапазон

Имя файла L:\Audio Lossless\Bob Geldof. 2005 Great Songs Of Indifference - The Bob Geldof Anthology 1986-2001\CD 2 The Vegetarians Of Love\Bob Geldof - Great Songs Of Indifference - The Anthology 1986-2001 CD2.wav

Пиковый уровень 100.0 %
Качество диапазона 100.0 %
CRC теста ED94CEE8
CRC копии ED94CEE8
Копирование… OK

Ошибок не произошло


AccurateRip: сводка

Трек 1 точное извлечение (доверие 5) [8ED3B4CE]
Трек 2 точное извлечение (доверие 5) [86C8CEF3]
Трек 3 точное извлечение (доверие 5) [AE07D837]
Трек 4 точное извлечение (доверие 5) [8F5B2309]
Трек 5 точное извлечение (доверие 5) [C6E2EB67]
Трек 6 точное извлечение (доверие 5) [909C5D0E]
Трек 7 точное извлечение (доверие 5) [F09BBD9A]
Трек 8 точное извлечение (доверие 5) [609E9AF9]
Трек 9 точное извлечение (доверие 5) [B4CB60D5]
Трек 10 точное извлечение (доверие 4) [86AB46D1]
Трек 11 точное извлечение (доверие 5) [CE0F19F1]
Трек 12 точное извлечение (доверие 5) [7787F2C4]
Трек 13 точное извлечение (доверие 5) [2B7BB43B]
Трек 14 точное извлечение (доверие 5) [F14DD132]
Трек 15 точное извлечение (доверие 5) [EB968B08]
Трек 16 точное извлечение (доверие 5) [54B19678]
Трек 17 точное извлечение (доверие 5) [D914E7B3]
Трек 18 точное извлечение (доверие 5) [E893318C]
Трек 19 точное извлечение (доверие 5) [3B4D3427]

Все треки извлечены точно

Конец отчёта

[CUETools log; Date: 22.11.2017 20:22:07; Version: 2.1.4]
[CTDB TOCID: JCIINiDBkIilZDytGnsci68l5TE-] found.
Track | CTDB Status
1 | (1/1) Accurately ripped
2 | (1/1) Accurately ripped
3 | (1/1) Accurately ripped
4 | (1/1) Accurately ripped
5 | (1/1) Accurately ripped
6 | (1/1) Accurately ripped
7 | (1/1) Accurately ripped
8 | (1/1) Accurately ripped
9 | (1/1) Accurately ripped
10 | (1/1) Accurately ripped
11 | (1/1) Accurately ripped
12 | (1/1) Accurately ripped
13 | (1/1) Accurately ripped
14 | (1/1) Accurately ripped
15 | (1/1) Accurately ripped
16 | (1/1) Accurately ripped
17 | (1/1) Accurately ripped
18 | (1/1) Accurately ripped
19 | (1/1) Accurately ripped
[AccurateRip ID: 003c8739-033c5d00-3212b313] found.
Track [ CRC | V2 ] Status
01 [8ed3b4ce|98c9112c] (09+03/12) Accurately ripped
02 [86c8cef3|2e8517b4] (09+03/12) Accurately ripped
03 [ae07d837|da8cfc02] (09+03/12) Accurately ripped
04 [8f5b2309|05fec25e] (09+03/12) Accurately ripped
05 [c6e2eb67|c3bdba36] (09+03/12) Accurately ripped
06 [909c5d0e|3af1332a] (09+03/12) Accurately ripped
07 [f09bbd9a|6f6479ad] (09+03/12) Accurately ripped
08 [609e9af9|5f6fa79f] (09+03/12) Accurately ripped
09 [b4cb60d5|da8e5aec] (09+03/12) Accurately ripped
10 [86ab46d1|b8dd9b88] (08+03/11) Accurately ripped
11 [ce0f19f1|82095963] (09+03/12) Accurately ripped
12 [7787f2c4|7fec44cd] (09+03/12) Accurately ripped
13 [2b7bb43b|f3496ad4] (09+03/12) Accurately ripped
14 [f14dd132|2d600a7d] (09+03/12) Accurately ripped
15 [eb968b08|46b4bac7] (09+03/12) Accurately ripped
16 [54b19678|40794ece] (09+03/12) Accurately ripped
17 [d914e7b3|266dc20e] (09+03/12) Accurately ripped
18 [e893318c|60b0dc8b] (09+03/12) Accurately ripped
19 [3b4d3427|90e47e9a] (09+03/12) Accurately ripped

Track Peak [ CRC32 ] [W/O NULL] [ LOG ]
– 100,0 [ED94CEE8] [B6598F74] CRC32
01 95,4 [FB5FE583] [28411421]
02 77,4 [BFC630A9] [ED671762]
03 69,5 [ED79133F] [D996DDE8]
04 77,4 [E8848C0F] [5DDAA147]
05 73,8 [982E8EBA] [5CBDE329]
06 66,4 [0F7EBE70] [4BA60C72]
07 97,1 [2FB3AD85] [9B4E9DFC]
08 81,0 [FEFF4A2A] [E8F9E8EA]
09 98,7 [CF9C240F] [100432B9]
10 100,0 [36E42855] [70FB27F1]
11 100,0 [DF8A9632] [D4B868E4]
12 62,1 [8CD62C85] [94BF249E]
13 87,0 [AD87ADA5] [320796CB]
14 79,3 [DE4DA754] [9ACA5AF7]
15 74,1 [99CBB74D] [132B8C5E]
16 86,6 [50F41C7A] [6EDB135F]
17 100,0 [AB0776C0] [A45B9F04]
18 100,0 [F31FCBA8] [AED3E5F2]
19 85,2 [A43811CB] [612EBA7D]

foobar2000 1.2 / Dynamic Range Meter 1.1.1
log date: 2017-11-22 20:49:58

––––––––––––––––––––––––––––––––––––––––
Analyzed: Bob Geldof / The Anthology 1986-2001, CD2 - The Vegetarians Of Love (1990)
––––––––––––––––––––––––––––––––––––––––

DR Peak RMS Duration Track
––––––––––––––––––––––––––––––––––––––––
DR14 -0.41 dB -17.48 dB 5:22 01-A Gospel Song
DR13 -2.22 dB -17.12 dB 4:41 02-Love Or Something
DR12 -3.16 dB -18.56 dB 4:41 03-Great Song Of Indifference
DR13 -2.22 dB -19.05 dB 8:21 04-Thinking Voyager 2 Type Things
DR13 -2.63 dB -18.13 dB 4:06 05-Big Romantic Stuff
DR12 -3.55 dB -20.39 dB 2:06 06-Crucified Me
DR13 -0.25 dB -15.26 dB 3:44 07-The Chains Of Pain
DR14 -1.83 dB -19.07 dB 5:43 08-A Rose At Night
DR12 -0.11 dB -17.92 dB 4:43 09-No Small Wonder
DR15 0.00 dB -17.94 dB 7:29 10-Walking Back To Happiness
DR13 0.00 dB -15.95 dB 4:40 11-Let It Go
DR12 -4.14 dB -21.03 dB 1:51 12-The End Of The World
DR13 -1.20 dB -15.77 dB 3:29 13-Out Of Order
DR11 -2.01 dB -15.29 dB 3:56 14-Hotel 75
DR13 -2.60 dB -17.48 dB 2:29 15-One Of The Girls
DR11 -1.25 dB -15.56 dB 3:45 16-The Original Miss Jesus
DR13 0.00 dB -15.39 dB 1:20 17-The Vegetarians Of Love
DR12 0.00 dB -14.18 dB 3:45 18-Sunny Afternoon
DR13 -1.39 dB -18.17 dB 3:38 19-The Great Song Of Indifference (French Version)
––––––––––––––––––––––––––––––––––––––––

Number of tracks: 19
Official DR value: DR13

Samplerate: 44100 Hz
Channels: 2
Bits per sample: 16
Bitrate: 835 kbps
Codec: FLAC
================================================================================




Bob Geldof - Great Songs Of Indifference: The Anthology 1986-2001 (2005) 4 CD Box Set

Great Songs 3: Bob Geldof - The Happy Club (1993)
EAC | FLAC | Image (Cue&Log) ~ 477 Mb | Mp3 (CBR320) ~ 176 Mb | 01:16:50

Irish singer Bob Geldof's third solo set, The Happy Club, finds him again being produced by Rupert Hine, although he and Pete Briquette lend a hand. Geldof eschews the guest star-laden turns of his prior albums and settles with a set band line-up, with World Party's Karl Wallinger the only name guest. While not quite the triumph of his previous outing, The Happy Club is still an engaging release through and through. Drawing on his love for Motown, the album is an often upbeat, ebullient affair starting with the lead track "Room 19," complete with "sha la las, " hand claps, and comical lyrics about cryogenics. Other standouts include the gentle, lovely "The Soft Soil," the singalong slice of neo-psychedelic pop "My Hippy Angel," and the catchy title track. Thought-provoking lyrics wrapped in some great melodies, The Happy Club is mature, adult pop/rock that doesn't forget to have a good time.

Tom Demalon, Allmusic.com

Tracklist:

01. Room 19 (Sha La La Lee) (5:16)
02. Attitude Chicken (4:37)
03. The Soft Soil (7:30)
04. A Hole To Fill (5:06)
05. The Song Of The Emergent Nationalist (6:56)
06. My Hippy Angel (5:30)
07. The Happy Club (4:06)
08. Like Down On Me (5:59)
09. Too Late God (3:47)
10. Roads Of Germany (After BD) (5:12)
11. A Sex Thing (5:12)
12. The House At The Top Of The World (4:13)

Bonus Tracks:

13. Shine On (4:11)
14. Huge Birdless Silence (3:24)
15. Maybe Heaven (5:52)


Exact Audio Copy V0.99 prebeta 5 from 4. May 2009

Отчёт EAC об извлечении, выполненном 9. июля 2011, 14:13

Bob Geldof / Great Songs Of Indifference - The Anthology 1986-2001 CD3

Дисковод: PIONEER DVD-RW DVR-215D Adapter: 1 ID: 1

Режим чтения : Достоверность
Использование точного потока : Да
Отключение кэша аудио : Да
Использование указателей C2 : Нет

Коррекция смещения при чтении : 48
Способность читать области Lead-in и Lead-out : Нет
Заполнение пропущенных сэмплов тишиной : Да
Удаление блоков с тишиной в начале и конце : Нет
При вычислениях CRC использовались нулевые сэмплы : Да
Интерфейс : Встроенный Win32-интерфейс для Win NT/2000

Выходной формат : Пользовательский кодировщик
Выбранный битрейт : 1024 kBit/s
Качество : Высокий
Добавление ID3-тэга : Нет
Утилита сжатия : H:\Program Files\Exact Audio Copy\FLAC\FLAC.EXE
Дополнительные параметры : -6 -V -T "ARTIST=%a" -T "TITLE=%t" -T "ALBUM=%g" -T "DATE=%y" -T "TRACKNUMBER=%n" -T "GENRE=%m" -T "COMMENT=%e" %s -o %d


TOC извлечённого CD

Трек | Старт | Длительность | Начальный сектор | Конечный сектор
––––––––––––––––––––––––––––––––––-
1 | 0:00.00 | 5:15.73 | 0 | 23697
2 | 5:15.73 | 4:36.69 | 23698 | 44466
3 | 9:52.67 | 7:29.71 | 44467 | 78212
4 | 17:22.63 | 5:05.59 | 78213 | 101146
5 | 22:28.47 | 6:55.67 | 101147 | 132338
6 | 29:24.39 | 5:29.57 | 132339 | 157070
7 | 34:54.21 | 4:05.69 | 157071 | 175514
8 | 39:00.15 | 5:59.02 | 175515 | 202441
9 | 44:59.17 | 3:46.69 | 202442 | 219460
10 | 48:46.11 | 5:11.38 | 219461 | 242823
11 | 53:57.49 | 5:11.45 | 242824 | 266193
12 | 59:09.19 | 4:13.13 | 266194 | 285181
13 | 63:22.32 | 4:10.69 | 285182 | 304000
14 | 67:33.26 | 3:24.37 | 304001 | 319337
15 | 70:57.63 | 5:52.36 | 319338 | 345773


Характеристики диапазона извлечения и сообщения об ошибках

Выбранный диапазон

Имя файла L:\Audio Lossless\Bob Geldof. 2005 Great Songs Of Indifference - The Bob Geldof Anthology 1986-2001\CD 3 The Happy Club\Bob Geldof - Great Songs Of Indifference - The Anthology 1986-2001 CD3.wav

Пиковый уровень 100.0 %
Качество диапазона 100.0 %
CRC теста C3E2679F
CRC копии C3E2679F
Копирование… OK

Ошибок не произошло


AccurateRip: сводка

Трек 1 точное извлечение (доверие 5) [3AC42CCF]
Трек 2 точное извлечение (доверие 5) [759A531C]
Трек 3 точное извлечение (доверие 5) [99E17D2B]
Трек 4 точное извлечение (доверие 5) [BBCE1137]
Трек 5 точное извлечение (доверие 5) [BB80142D]
Трек 6 точное извлечение (доверие 5) [6CC5FC09]
Трек 7 точное извлечение (доверие 5) [573187A0]
Трек 8 точное извлечение (доверие 5) [5CBD6B48]
Трек 9 точное извлечение (доверие 5) [3380A91E]
Трек 10 точное извлечение (доверие 5) [A4097FC2]
Трек 11 точное извлечение (доверие 5) [67115BF6]
Трек 12 точное извлечение (доверие 5) [49846C9C]
Трек 13 точное извлечение (доверие 5) [5D5E2292]
Трек 14 точное извлечение (доверие 5) [C81F8071]
Трек 15 точное извлечение (доверие 5) [E824F668]

Все треки извлечены точно

Конец отчёта

[CUETools log; Date: 22.11.2017 20:22:39; Version: 2.1.4]
[CTDB TOCID: C3eX5bv4gC16c8speicyCxYAlAc-] found.
Track | CTDB Status
1 | (1/1) Accurately ripped
2 | (1/1) Accurately ripped
3 | (1/1) Accurately ripped
4 | (1/1) Accurately ripped
5 | (1/1) Accurately ripped
6 | (1/1) Accurately ripped
7 | (1/1) Accurately ripped
8 | (1/1) Accurately ripped
9 | (1/1) Accurately ripped
10 | (1/1) Accurately ripped
11 | (1/1) Accurately ripped
12 | (1/1) Accurately ripped
13 | (1/1) Accurately ripped
14 | (1/1) Accurately ripped
15 | (1/1) Accurately ripped
[AccurateRip ID: 002c3702-01ef5fd2-d012020f] found.
Track [ CRC | V2 ] Status
01 [3ac42ccf|0c783ebf] (08+03/11) Accurately ripped
02 [759a531c|502b9c10] (08+03/11) Accurately ripped
03 [99e17d2b|dc9900a8] (08+03/11) Accurately ripped
04 [bbce1137|487eba42] (08+03/11) Accurately ripped
05 [bb80142d|1e538fff] (08+03/11) Accurately ripped
06 [6cc5fc09|7a89e86f] (08+03/11) Accurately ripped
07 [573187a0|eb0ac75d] (08+03/11) Accurately ripped
08 [5cbd6b48|31723e45] (08+03/11) Accurately ripped
09 [3380a91e|6678a493] (08+03/11) Accurately ripped
10 [a4097fc2|13ceefe5] (08+03/11) Accurately ripped
11 [67115bf6|2613f567] (08+03/11) Accurately ripped
12 [49846c9c|75065048] (08+03/11) Accurately ripped
13 [5d5e2292|8b19dfae] (08+03/11) Accurately ripped
14 [c81f8071|5f55db4f] (09+03/12) Accurately ripped
15 [e824f668|dd4fc733] (09+03/12) Accurately ripped

Track Peak [ CRC32 ] [W/O NULL] [ LOG ]
– 100,0 [C3E2679F] [8A242B10] CRC32
01 85,1 [65DCE381] [5FC9DA49]
02 85,6 [BCE15436] [AE337A95]
03 100,0 [FAA10A20] [D73A0867]
04 100,0 [2220D8DB] [EBD5AF06]
05 92,5 [47F42018] [73EC11BC]
06 99,9 [8922B6D2] [DB745572]
07 99,1 [17A1714C] [4913608B]
08 97,7 [2357FEBD] [9A47585D]
09 80,7 [5773A594] [59F0AB76]
10 75,4 [E11C65ED] [41DFA72E]
11 94,6 [DEA1E258] [42A1005F]
12 74,2 [F8C9ED05] [D9253B46]
13 100,0 [3F70A464] [64A11847]
14 100,0 [E83E3D88] [7C29CEA1]
15 100,0 [D9B73E3B] [47406ED7]

foobar2000 1.2 / Dynamic Range Meter 1.1.1
log date: 2017-11-22 20:50:37

––––––––––––––––––––––––––––––––––––––––
Analyzed: Bob Geldof / The Anthology 1986-2001, CD3 - The Happy Club (1993)
––––––––––––––––––––––––––––––––––––––––

DR Peak RMS Duration Track
––––––––––––––––––––––––––––––––––––––––
DR13 -1.40 dB -16.98 dB 5:16 01-Room 19 (Sha La La Lee)
DR13 -1.34 dB -15.95 dB 4:37 02-Attitude Chicken
DR14 0.00 dB -17.05 dB 7:30 03-The Soft Soil
DR14 0.00 dB -16.17 dB 5:06 04-A Hole To Fill
DR14 -0.67 dB -18.32 dB 6:56 05-The Song Of The Emergent Nationalist
DR14 0.00 dB -15.97 dB 5:30 06-My Hippy Angel
DR13 -0.07 dB -15.97 dB 4:06 07-The Happy Club
DR14 -0.20 dB -17.50 dB 5:59 08-Like Down On Me
DR14 -1.86 dB -18.75 dB 3:47 09-Too Late God
DR13 -2.44 dB -18.74 dB 5:12 10-Roads Of Germany (After BD)
DR13 -0.48 dB -16.49 dB 5:12 11-A Sex Thing
DR17 -2.59 dB -23.84 dB 4:13 12-The House At The Top Of The World
DR12 0.00 dB -13.34 dB 4:11 13-Shine On
DR12 0.00 dB -14.43 dB 3:24 14-Huge Birdless Silence
DR12 0.00 dB -14.71 dB 5:52 15-Maybe Heaven
––––––––––––––––––––––––––––––––––––––––

Number of tracks: 15
Official DR value: DR14

Samplerate: 44100 Hz
Channels: 2
Bits per sample: 16
Bitrate: 867 kbps
Codec: FLAC
================================================================================




Bob Geldof - Great Songs Of Indifference: The Anthology 1986-2001 (2005) 4 CD Box Set

Great Songs 4: Bob Geldof - Sex Age And Death (2001)
EAC | FLAC | Image (Cue&Log) ~ 404 Mb | Mp3 (CBR320) ~ 175 Mb | 01:16:14

There's no evidence here that political beatification has mellowed Bob Geldof. If anything, his message has grown more apocalyptic, even as his music broadens to a degree unprecedented in his own catalog. The title gives a pretty clear picture of what this is all about. Whether viciously dismembering some withered media icon on "One for Me" or desiccating a relationship addiction that borders on necrophilia in "Pale White Girls," Geldof maintains the highest pop standards of lyrical expression and musical setting. A punk energy, broken down at times to techno/tribal components or filtered through shimmering electronica, permeates each performance. The rhythm track to "Scream in Vain" deserves special mention, with its segues from a pumping house-style synth bass drum through various atmospheric moments and, for a moment, some Clash-like fist pumping. Geldof refers to other works – a Dylan paraphrase, a sampled fragment from "Get Off of My Cloud" – not to distract from any weaknesses in his vision, but to fit into its strengths. All this finesse serves a righteous, primal anger. Dramatic contrasts in dynamics, and a vocal that veers from beatnik poetry to a searing shout that somehow recalls both Prince and John Lennon, convey a bleak picture in "Mudslide," built on a metaphor of bugs being burned in an electric trap. This song, like everything else on this album, is about rage and resistance against those who succumb too easily to life's suffocations. Perhaps the essence of the album lies in the almost incoherent fury of "Inside Your Head," in which he throws subtlety against the wall and screams, "What the f**k's going on inside your head?" With its blunt scatology set against what sounds like a roomful of oblivious chowhounds in a café, Geldof goes eyeball to eyeball with his real enemy: all among us who nestle ourselves into the bosom of mendacity. Sex, Age & Death bashes at the door and demands attention; only fear keeps us from letting it in.

Robert L. Doerschuk, Allmusic.com

Tracklist:

01. One For Me (5:00)
02. $6,000,000 Loser (4:23)
03. Pale White Girls (4:59)
04. The New Routine (5:25)
05. Mudslide (4:51)
06. Mind In Pocket (4:38)
07. My Birthday Suit (2:58)
08. Scream In Vain (5:00)
09. Inside Your Head (4:39)
10. 10.15 (3:22)

Bonus Tracks:

11. A Summer Day (London '95) (2:49)
12. Sighs And Whispers (3:10)
13. Voodoo Child (3:57)
14. Two Dogs (3:23)
15. Harvest Moon (3:29)
16. A Summer Night (London '95) (3:12)
17. Pale White Girls (French Mix) (3:48)
18. Cool Blue Easy (4:56)
19. Pity The Poor Drifter (2:15)


Exact Audio Copy V0.99 prebeta 5 from 4. May 2009

Отчёт EAC об извлечении, выполненном 9. июля 2011, 14:41

Bob Geldof / Great Songs Of Indifference - The Anthology 1986-2001 CD4

Дисковод: PIONEER DVD-RW DVR-215D Adapter: 1 ID: 1

Режим чтения : Достоверность
Использование точного потока : Да
Отключение кэша аудио : Да
Использование указателей C2 : Нет

Коррекция смещения при чтении : 48
Способность читать области Lead-in и Lead-out : Нет
Заполнение пропущенных сэмплов тишиной : Да
Удаление блоков с тишиной в начале и конце : Нет
При вычислениях CRC использовались нулевые сэмплы : Да
Интерфейс : Встроенный Win32-интерфейс для Win NT/2000

Выходной формат : Пользовательский кодировщик
Выбранный битрейт : 1024 kBit/s
Качество : Высокий
Добавление ID3-тэга : Нет
Утилита сжатия : H:\Program Files\Exact Audio Copy\FLAC\FLAC.EXE
Дополнительные параметры : -6 -V -T "ARTIST=%a" -T "TITLE=%t" -T "ALBUM=%g" -T "DATE=%y" -T "TRACKNUMBER=%n" -T "GENRE=%m" -T "COMMENT=%e" %s -o %d


TOC извлечённого CD

Трек | Старт | Длительность | Начальный сектор | Конечный сектор
––––––––––––––––––––––––––––––––––-
1 | 0:00.00 | 4:59.65 | 0 | 22489
2 | 4:59.65 | 4:23.22 | 22490 | 42236
3 | 9:23.12 | 4:58.48 | 42237 | 64634
4 | 14:21.60 | 5:25.30 | 64635 | 89039
5 | 19:47.15 | 4:50.67 | 89040 | 110856
6 | 24:38.07 | 4:37.50 | 110857 | 131681
7 | 29:15.57 | 2:58.13 | 131682 | 145044
8 | 32:13.70 | 4:59.55 | 145045 | 167524
9 | 37:13.50 | 4:38.57 | 167525 | 188431
10 | 41:52.32 | 3:21.61 | 188432 | 203567
11 | 45:14.18 | 2:49.06 | 203568 | 216248
12 | 48:03.24 | 3:10.37 | 216249 | 230535
13 | 51:13.61 | 3:57.14 | 230536 | 248324
14 | 55:11.00 | 3:22.48 | 248325 | 263522
15 | 58:33.48 | 3:29.15 | 263523 | 279212
16 | 62:02.63 | 3:12.34 | 279213 | 293646
17 | 65:15.22 | 3:47.54 | 293647 | 310725
18 | 69:03.01 | 4:56.10 | 310726 | 332935
19 | 73:59.11 | 2:14.48 | 332936 | 343033


Характеристики диапазона извлечения и сообщения об ошибках

Выбранный диапазон

Имя файла L:\Audio Lossless\Bob Geldof. 2005 Great Songs Of Indifference - The Bob Geldof Anthology 1986-2001\CD 4 Sex Age And Death\Bob Geldof - Great Songs Of Indifference - The Anthology 1986-2001 CD4.wav

Пиковый уровень 100.0 %
Качество диапазона 99.9 %
CRC теста C60BF032
CRC копии C60BF032
Копирование… OK

Ошибок не произошло


AccurateRip: сводка

Трек 1 точное извлечение (доверие 5) [22AB90B1]
Трек 2 точное извлечение (доверие 5) [9ED6D515]
Трек 3 точное извлечение (доверие 5) [85CC1568]
Трек 4 точное извлечение (доверие 5) [33BB9F0A]
Трек 5 точное извлечение (доверие 5) [6F5F3C57]
Трек 6 точное извлечение (доверие 5) [96FCF5AC]
Трек 7 точное извлечение (доверие 5) [6F8A4869]
Трек 8 точное извлечение (доверие 5) [01FFE3CB]
Трек 9 точное извлечение (доверие 5) [7884158D]
Трек 10 точное извлечение (доверие 5) [CA74D5B6]
Трек 11 точное извлечение (доверие 5) [86672791]
Трек 12 точное извлечение (доверие 5) [DDF4AE7A]
Трек 13 точное извлечение (доверие 5) [BF787401]
Трек 14 точное извлечение (доверие 5) [6B9F5C6A]
Трек 15 точное извлечение (доверие 5) [67479F45]
Трек 16 точное извлечение (доверие 5) [BFD37B47]
Трек 17 точное извлечение (доверие 4) [8B64DFF5]
Трек 18 точное извлечение (доверие 5) [9FC9247D]
Трек 19 точное извлечение (доверие 5) [36BD878C]

Все треки извлечены точно

Конец отчёта

[CUETools log; Date: 22.11.2017 20:23:03; Version: 2.1.4]
[CTDB TOCID: j2PF6574eSGrfCm2jmV6sPyehXQ-] found.
Track | CTDB Status
1 | (1/1) Accurately ripped
2 | (1/1) Accurately ripped
3 | (1/1) Accurately ripped
4 | (1/1) Accurately ripped
5 | (1/1) Accurately ripped
6 | (1/1) Accurately ripped
7 | (1/1) Accurately ripped
8 | (1/1) Accurately ripped
9 | (1/1) Accurately ripped
10 | (1/1) Accurately ripped
11 | (1/1) Accurately ripped
12 | (1/1) Accurately ripped
13 | (1/1) Accurately ripped
14 | (1/1) Accurately ripped
15 | (1/1) Accurately ripped
16 | (1/1) Accurately ripped
17 | (1/1) Accurately ripped
18 | (1/1) Accurately ripped
19 | (1/1) Accurately ripped
[AccurateRip ID: 00383574-0302c973-1311dd13] found.
Track [ CRC | V2 ] Status
01 [22ab90b1|c27036be] (09+03/12) Accurately ripped
02 [9ed6d515|dde9094a] (09+03/12) Accurately ripped
03 [85cc1568|fb0400e1] (09+03/12) Accurately ripped
04 [33bb9f0a|bf5c70fd] (09+03/12) Accurately ripped
05 [6f5f3c57|9e83bedf] (09+03/12) Accurately ripped
06 [96fcf5ac|63afcb7c] (09+03/12) Accurately ripped
07 [6f8a4869|64921809] (09+03/12) Accurately ripped
08 [01ffe3cb|8bf36d3d] (09+03/12) Accurately ripped
09 [7884158d|cbb88da8] (09+03/12) Accurately ripped
10 [ca74d5b6|681d71f7] (09+03/12) Accurately ripped
11 [86672791|b8a162b4] (08+03/11) Accurately ripped
12 [ddf4ae7a|2c2e7ac0] (09+03/12) Accurately ripped
13 [bf787401|6280de61] (09+03/12) Accurately ripped
14 [6b9f5c6a|893033a7] (09+03/12) Accurately ripped
15 [67479f45|9b1e5cb6] (09+03/12) Accurately ripped
16 [bfd37b47|027cc52f] (09+03/12) Accurately ripped
17 [8b64dff5|5d9ba11d] (08+03/11) Accurately ripped
18 [9fc9247d|0995f139] (09+03/12) Accurately ripped
19 [36bd878c|d55573ec] (09+03/12) Accurately ripped

Track Peak [ CRC32 ] [W/O NULL] [ LOG ]
– 100,0 [C60BF032] [C3FC1465] CRC32
01 97,4 [C4739A49] [F5722598]
02 100,0 [78650D3C] [3C3D2833]
03 100,0 [BC070BD5] [0A15991C]
04 100,0 [CDD9112D] [E4032709]
05 97,4 [75A35126] [1869ED8F]
06 99,2 [4C35F032] [71BF7E8C]
07 92,2 [FB76C808] [E3E58B6A]
08 97,4 [6E32CF8B] [89C07C8E]
09 97,4 [9FE45DBF] [9F8C1785]
10 97,4 [0A9DE032] [7BDDCA35]
11 93,8 [4D1AD41C] [AEC5A417]
12 94,5 [4975F3F9] [A77CECDB]
13 82,2 [69CE2D67] [BC7DB546]
14 93,5 [B20BC54F] [9C56BF7C]
15 100,0 [945A1978] [04B32285]
16 52,6 [87246CA7] [BEB86A5D]
17 51,8 [EC63AA02] [6DCB1C23]
18 85,1 [76D333F9] [4CFA8388]
19 100,0 [2DD7FC88] [1803CA8B]

foobar2000 1.2 / Dynamic Range Meter 1.1.1
log date: 2017-11-22 20:51:07

––––––––––––––––––––––––––––––––––––––––
Analyzed: Bob Geldof / The Anthology 1986-2001, CD4 - Sex Age And Death (2001)
––––––––––––––––––––––––––––––––––––––––

DR Peak RMS Duration Track
––––––––––––––––––––––––––––––––––––––––
DR11 -0.22 dB -13.51 dB 5:00 01-One For Me
DR10 0.00 dB -11.83 dB 4:23 02-$6,000,000 Loser
DR14 0.00 dB -16.57 dB 4:59 03-Pale White Girls
DR12 0.00 dB -13.85 dB 5:25 04-The New Routine
DR10 -0.22 dB -13.44 dB 4:51 05-Mudslide
DR9 -0.07 dB -11.08 dB 4:38 06-Mind In Pocket
DR11 -0.70 dB -14.04 dB 2:58 07-My Birthday Suit
DR11 -0.22 dB -13.33 dB 5:00 08-Scream In Vain
DR11 -0.22 dB -13.69 dB 4:39 09-Inside Your Head
DR12 -0.22 dB -15.81 dB 3:22 10-10.15
DR11 -0.55 dB -16.94 dB 2:49 11-A Summer Day (London '95)
DR13 -0.49 dB -17.42 dB 3:10 12-Sighs And Whispers
DR11 -1.70 dB -15.03 dB 3:57 13-Voodoo Child
DR13 -0.58 dB -15.41 dB 3:23 14-Two Dogs
DR14 0.00 dB -16.29 dB 3:29 15-Harvest Moon
DR16 -5.57 dB -26.13 dB 3:12 16-A Summer Night (London '95)
DR8 -5.70 dB -15.44 dB 3:48 17-Pale White Girls (French Mix)
DR12 -1.40 dB -15.29 dB 4:56 18-Cool Blue Easy
DR14 0.00 dB -18.85 dB 2:15 19-Pity The Poor Drifter
––––––––––––––––––––––––––––––––––––––––

Number of tracks: 19
Official DR value: DR12

Samplerate: 44100 Hz
Channels: 2
Bits per sample: 16
Bitrate: 741 kbps
Codec: FLAC
================================================================================




Bob Geldof - Great Songs Of Indifference: The Anthology 1986-2001 (2005) 4 CD Box Set