Subcategories

Camel - Albums Collection 1974-1984 (6 CD) [Re-Up]

Posted By: Designol
Camel - Albums Collection 1974-1984 (6 CD) [Re-Up]

Camel - Albums Collection 1974-1978 & 1984 [6CD]
EAC | FLAC | Image (Cue&Log) ~ 1.53 Gb (incl 5%) | Mp3 (CBR320) ~ 609 Mb (incl 5%) | Scans ~ 1.13 Gb
Genre: Progressive Rock, Art Rock, Canterbury Scene, Space Rock | Time: 04:13:38

Collection includes: Mirage (1974); The Snow Goose (1975); Moonmadness (1976); Rain Dances (1977); Breathless (1978) and Stationary Traveller (1984).

Camel never achieved the mass popularity of fellow British progressive rock bands like the Alan Parsons Project, but they cultivated a dedicated cult following. Over the course of their career, Camel experienced numerous changes, but throughout the years, Andrew Latimer remained the leader of the band.

Formed in 1972 in Surrey, Camel originally consisted of Latimer (guitar, flute, vocals), Andy Ward (drums), Doug Ferguson (bass), and keyboardist Peter Bardens, previously of Them. By the end of 1973, the group signed with MCA and released their eponymous debut. In 1974, the band switched record labels, signing with Decca's Gama subsidiary, and released Mirage. In 1975, Camel released their breakthrough album The Snow Goose, which climbed into the British Top 30. The band's English audience declined with 1976's Moonmadness, but the album was more successful in America, reaching number 118 – the highest chart position the band ever attained in the U.S. Following the release of Moonmadness, Ferguson left the band and was replaced by Richard Sinclair (ex-Caravan); at the same time, the group added saxophonist Mel Collins. Latimer and Bardens conflicted during the recording of 1977's Rain Dances and those tensions would come to a head during the making of 1978's Breathless. After Breathless was completed, Bardens left the band. Before recording their next album, Camel replaced Bardens with two keyboardists – Kit Watkins (Happy the Man) and Jim Schelhaas (Caravan) – and replaced Sinclair with Colin Bass.

By the time Camel released their 1979 album, I Can See Your House From Here, rock & roll had been changed by the emergence of punk rock, which resulted in less press coverage for progressive rock, as well as decreased record sales. Camel suffered from this shift in popular taste – I Can See Your House From Here received less attention than any of the band's releases since their debut. Latimer returned to writing concept albums with 1981's Nude. In 1982, drummer Andy Ward was forced to leave the band after suffering a severe hand injury. Camel's 1982 album, The Single Factor, was a slicker, more accessible affair than previous Camel records, but it failed to chart. Stationary Traveller (1984) was another concept album.

After the release of the 1984 live album, Pressure Points, Camel entered a long period of hibernation that lasted until the early '90s. In 1985, Decca dropped Camel from its roster. Latimer wasn't able to find a new label because he was embroiled in a difficult legal battle with Camel's former manager Geoff Jukes; Camel eventually won the lawsuit in the late '80s. Throughout this period, Camel produced no new music. In 1988, Latimer sold his home in England and moved to California, where he founded the independent label Camel Productions. By the time Camel recorded their follow-up to Stationary Traveller in the early '90s, the band was, for most intents and purposes, simply Andrew Latimer and a handful of session musicians. Dust and Dreams (1991) was the first release on Camel Productions. In 1993, PolyGram released a double-disc Camel retrospective, Echoes. In early 1996, Camel released Harbour of Tears.

Biography by Stephen Thomas Erlewine, Allmusic.com

Camel - Albums Collection 1974-1984 (6 CD) [Re-Up]



–––––––––––––––––––––––––––––––––––––––––-


Camel - Albums Collection 1974-1984 (6 CD) [Re-Up]

Camel - Mirage (1974) CD issue 1989
EAC | FLAC | Image (Cue&Log) ~ 242 Mb (incl 5%) | Mp3 (CBR320) ~ 91 Mb (incl 5%)
Label: Deram | # 820 613-2 | Time: 00:38:04 | Scans ~ 261 Mb

With their second album, Mirage, Camel begin to develop their own distinctive sound, highlighted by the group's liquid, intricate rhythms and the wonderful, unpredictable instrumental exchanges by keyboardist Pete Bardens and guitarist Andy Latimer. Camel also distinguish themselves from their prog rock peers with the multi-part suite "Lady Fantasy," which suggests the more complex directions they would take a few albums down the line. Also, Latimer's graceful flute playing distinguishes several songs on the record, including "Supertwister," and it's clear that he has a more supple technique than such contemporaries as Ian Anderson. Camel are still ironing out some quirks in their sound on Mirage, but it's evident that they are coming into their own.

Review by Daevid Jehnzen, Allmusic.com

Tracklist:

01. Freefall (05:54)
02. Supertwister (03:23)
03. Nimrodel - The Procession - The White Rider (09:18)
04. Earthrise (06:41)
05. Lady Fantasy (12:45)


Exact Audio Copy V1.0 beta 3 from 29. August 2011

EAC extraction logfile from 20. January 2013, 21:18

Camel / Mirage

Used drive : ATAPI iHAS124 A Adapter: 2 ID: 1

Read mode : Secure
Utilize accurate stream : Yes
Defeat audio cache : Yes
Make use of C2 pointers : No

Read offset correction : 6
Overread into Lead-In and Lead-Out : No
Fill up missing offset samples with silence : Yes
Delete leading and trailing silent blocks : No
Null samples used in CRC calculations : Yes
Used interface : Native Win32 interface for Win NT & 2000

Used output format : Internal WAV Routines
Sample format : 44.100 Hz; 16 Bit; Stereo


TOC of the extracted CD

Track | Start | Length | Start sector | End sector
––––––––––––––––––––––––––––-
1 | 0:00.33 | 5:54.37 | 33 | 26619
2 | 5:54.70 | 3:23.45 | 26620 | 41889
3 | 9:18.40 | 9:18.30 | 41890 | 83769
4 | 18:36.70 | 6:41.65 | 83770 | 113909
5 | 25:18.60 | 12:45.40 | 113910 | 171324


Range status and errors

Selected range

Filename C:\Camel - 1974 - Mirage\Camel - Mirage.wav

Peak level 99.9 %
Extraction speed 2.2 X
Range quality 99.9 %
Test CRC 6B875B5E
Copy CRC 6B875B5E
Copy OK

No errors occurred


AccurateRip summary

Track 1 accurately ripped (confidence 8) [75802810] (AR v2)
Track 2 accurately ripped (confidence 9) [C6B007F8] (AR v2)
Track 3 accurately ripped (confidence 9) [F9DDC9AE] (AR v2)
Track 4 accurately ripped (confidence 9) [7EAE44CB] (AR v2)
Track 5 accurately ripped (confidence 9) [A8541095] (AR v2)

All tracks accurately ripped

End of status report

foobar2000 1.2.1 / Dynamic Range Meter 1.1.1
log date: 2013-02-20 18:52:59

––––––––––––––––––––––––––––––––––––––––
Analyzed: Camel / Mirage
––––––––––––––––––––––––––––––––––––––––

DR Peak RMS Duration Track
––––––––––––––––––––––––––––––––––––––––
DR12 0.00 dB -13.74 dB 5:54 01-Freefall
DR11 -0.56 dB -15.01 dB 3:24 02-Supertwister
DR10 -0.56 dB -13.31 dB 9:18 03-Nimrodel - The Procession - The White Rider
DR10 -0.56 dB -12.19 dB 6:42 04-Earthrise
DR10 -0.56 dB -12.30 dB 12:46 05-Lady Fantasy
––––––––––––––––––––––––––––––––––––––––

Number of tracks: 5
Official DR value: DR11

Samplerate: 44100 Hz
Channels: 2
Bits per sample: 16
Bitrate: 847 kbps
Codec: FLAC
================================================================================


–––––––––––––––––––––––––––––––––––––––––-


Camel - Albums Collection 1974-1984 (6 CD) [Re-Up]

Camel - The Snow Goose (1975) CD issue 1988
EAC | FLAC | Image (Cue&Log) ~ 237 Mb (incl 5%) | Mp3 (CBR320) ~ 104 Mb (incl 5%)
Label: Deram | # 800 080-2 | Time: 00:43:31 | Scans ~ 213 Mb

Camel's classic period started with The Snow Goose, an instrumental concept album based on a novella by Paul Gallico. Although there are no lyrics on the album – two songs feature wordless vocals – the music follows the emotional arc of the novella's story, which is about a lonely man named Rhayader who helps nurse a wounded snow goose back to health with the help of a young girl called Fritha he recently befriended. Once the goose is healed, it is set free, but Fritha no longer visits the man because the goose is gone. Later, Rhayader is killed in battle during the evacuation of Dunkirk. The goose returned during the battle, and it is then named La Princesse Perdue, symbolizing the hopes that can still survive even during the evils of war. With such a complex fable to tell, it is no surprise that Camel keep their improvisational tendencies reined in, deciding to concentrate on surging, intricate soundscapes that telegraph the emotion of the piece without a single word. And even though The Snow Goose is an instrumental album, it is far more accessible than some of Camel's later work, since it relies on beautiful sonic textures instead of musical experimentation.

Review by Stephen Thomas Erlewine, Allmusic.com

Tracklist:

01. The Great Marsh (1) (02:02)
02. Rhayader (03:01)
03. Rhayader Goes To Town (05:20)
04. Sanctuary (01:05)
05. Fritha (01:19)
06. The Snow Goose (03:12)
07. Friendship (01:44)
08. Migration (02:01)
09. Rhayader Alone (01:50)
10. Flight Of The Snow Goose (02:40)
11. Preparation (03:58)
12. Dunkirk (05:19)
13. Epitaph (02:07)
14. Fritha Alone (01:40)
15. La Princesse Perdue (04:44)
16. The Great Marsh (2) (01:20)


Exact Audio Copy V1.0 beta 3 from 29. August 2011

EAC extraction logfile from 20. January 2013, 20:43

Camel / The Snow Goose

Used drive : ATAPI iHAS124 A Adapter: 2 ID: 1

Read mode : Secure
Utilize accurate stream : Yes
Defeat audio cache : Yes
Make use of C2 pointers : No

Read offset correction : 6
Overread into Lead-In and Lead-Out : No
Fill up missing offset samples with silence : Yes
Delete leading and trailing silent blocks : No
Null samples used in CRC calculations : Yes
Used interface : Native Win32 interface for Win NT & 2000

Used output format : Internal WAV Routines
Sample format : 44.100 Hz; 16 Bit; Stereo


TOC of the extracted CD

Track | Start | Length | Start sector | End sector
––––––––––––––––––––––––––––-
1 | 0:00.32 | 2:02.43 | 32 | 9224
2 | 2:03.00 | 3:01.62 | 9225 | 22861
3 | 5:04.62 | 5:20.13 | 22862 | 46874
4 | 10:25.00 | 1:05.55 | 46875 | 51804
5 | 11:30.55 | 1:19.27 | 51805 | 57756
6 | 12:50.07 | 3:12.10 | 57757 | 72166
7 | 16:02.17 | 1:44.15 | 72167 | 79981
8 | 17:46.32 | 2:01.40 | 79982 | 89096
9 | 19:47.72 | 1:50.28 | 89097 | 97374
10 | 21:38.25 | 2:40.37 | 97375 | 109411
11 | 24:18.62 | 3:58.53 | 109412 | 127314
12 | 28:17.40 | 5:19.67 | 127315 | 151306
13 | 33:37.32 | 2:07.60 | 151307 | 160891
14 | 35:45.17 | 1:40.45 | 160892 | 168436
15 | 37:25.62 | 4:44.18 | 168437 | 189754
16 | 42:10.05 | 1:20.52 | 189755 | 195806


Range status and errors

Selected range

Filename C:\Camel - 1975 - The Snow Goose\Camel - The Snow Goose.wav

Peak level 84.9 %
Extraction speed 4.2 X
Range quality 100.0 %
Test CRC B0C2D151
Copy CRC B0C2D151
Copy OK

No errors occurred


AccurateRip summary

Track 1 accurately ripped (confidence 5) [70AE6F73] (AR v2)
Track 2 accurately ripped (confidence 5) [3BAB0126] (AR v2)
Track 3 accurately ripped (confidence 5) [DC57E0D8] (AR v2)
Track 4 accurately ripped (confidence 5) [DA9F78D6] (AR v2)
Track 5 accurately ripped (confidence 5) [A25FD74C] (AR v2)
Track 6 accurately ripped (confidence 5) [87F7B39A] (AR v2)
Track 7 accurately ripped (confidence 5) [750C357C] (AR v2)
Track 8 accurately ripped (confidence 5) [050B0F11] (AR v2)
Track 9 accurately ripped (confidence 5) [F6D46454] (AR v2)
Track 10 accurately ripped (confidence 5) [221C4FD2] (AR v2)
Track 11 accurately ripped (confidence 5) [D2550E14] (AR v2)
Track 12 accurately ripped (confidence 5) [ADA14D3B] (AR v2)
Track 13 accurately ripped (confidence 5) [26254EBF] (AR v2)
Track 14 accurately ripped (confidence 5) [F9AFA1FE] (AR v2)
Track 15 accurately ripped (confidence 5) [3C2F3ABE] (AR v2)
Track 16 accurately ripped (confidence 5) [9945524C] (AR v2)

All tracks accurately ripped

End of status report

foobar2000 1.2.1 / Dynamic Range Meter 1.1.1
log date: 2013-02-20 18:54:06

––––––––––––––––––––––––––––––––––––––––
Analyzed: Camel / The Snow Goose
––––––––––––––––––––––––––––––––––––––––

DR Peak RMS Duration Track
––––––––––––––––––––––––––––––––––––––––
DR11 -5.57 dB -23.18 dB 2:03 01-The Great Marsh (1)
DR11 -2.79 dB -16.66 dB 3:02 02-Rhayader
DR13 -3.65 dB -19.06 dB 5:20 03-Rhayader Goes To Town
DR9 -16.93 dB -28.89 dB 1:06 04-Sanctuary
DR12 -13.80 dB -28.24 dB 1:19 05-Fritha
DR11 -3.18 dB -17.82 dB 3:12 06-The Snow Goose
DR10 -11.99 dB -25.22 dB 1:44 07-Friendship
DR13 -2.64 dB -18.47 dB 2:02 08-Migration
DR10 -12.21 dB -26.22 dB 1:50 09-Rhayader Alone
DR12 -1.42 dB -17.56 dB 2:40 10-Flight Of The Snow Goose
DR10 -9.41 dB -22.98 dB 3:59 11-Preparation
DR12 -2.50 dB -16.56 dB 5:20 12-Dunkirk
DR12 -10.32 dB -29.14 dB 2:08 13-Epitaph
DR13 -14.20 dB -30.31 dB 1:41 14-Fritha Alone
DR11 -2.28 dB -16.73 dB 4:44 15-La Princesse Perdue
DR11 -21.77 dB -36.83 dB 1:21 16-The Great Marsh (2)
––––––––––––––––––––––––––––––––––––––––

Number of tracks: 16
Official DR value: DR11

Samplerate: 44100 Hz
Channels: 2
Bits per sample: 16
Bitrate: 727 kbps
Codec: FLAC
================================================================================


–––––––––––––––––––––––––––––––––––––––––-


Camel - Albums Collection 1974-1984 (6 CD) [Re-Up]

Camel - Moonmadness (1976) CD issue 1983
EAC | FLAC | Image (Cue&Log) ~ 269 Mb (incl 5%) | Mp3 (CBR320) ~ 94 Mb (incl 5%)
Label: London | # 810 879-2 | Time: 00:39:19 | Scans ~ 141 Mb

Abandoning the lovely soundscapes of Snow Goose, Camel delved into layered guitar and synthesizers similar to those of Pink Floyd's Wish You Were Here on the impressive Moonmadness. Part of the reason behind the shift in musical direction was the label's insistence that Camel venture into more commercial territory after the experimental Snow Goose, and it is true that the music on Moonmadness is more akin to traditional English progressive rock, even though it does occasionally dip into jazz-fusion territory with syncopated rhythms and shimmering keyboards. Furthermore, the songs are a little more concise and accessible than those of its predecessor. That doesn't mean Camel has abandoned art. Moonmadness is indeed a concept album, based loosely on the personalities of each member – "Chord Change" is Peter Bardens, "Air Born" is Andy Latimer, "Lunar Sea" is Andy Ward and "Another Night" is Doug Ferguson. Certainly, it's a concept that is considerably less defined than that of Snow Goose, and the music isn't quite as challenging, yet that doesn't mean that Moonmadness is devoid of pleasure. In fact, with its long stretches of atmospheric instrumentals and spacy solos, it's quite rewarding.

Review by Daevid Jehnzen, Allmusic.com

Tracklist:

01. Aristillus (01:56)
02. Song within a Song (07:16)
03. Chord change (06:45)
04. Spirit of the Water (02:07)
05. Another Night (06:58)
06. Air Born (05:02)
07. Lunar Sea (09:11)


Exact Audio Copy V1.0 beta 3 from 29. August 2011

EAC extraction logfile from 20. January 2013, 20:19

Camel / Moonmadness

Used drive : ATAPI iHAS124 A Adapter: 2 ID: 1

Read mode : Secure
Utilize accurate stream : Yes
Defeat audio cache : Yes
Make use of C2 pointers : No

Read offset correction : 6
Overread into Lead-In and Lead-Out : No
Fill up missing offset samples with silence : Yes
Delete leading and trailing silent blocks : No
Null samples used in CRC calculations : Yes
Used interface : Native Win32 interface for Win NT & 2000

Used output format : Internal WAV Routines
Sample format : 44.100 Hz; 16 Bit; Stereo


TOC of the extracted CD

Track | Start | Length | Start sector | End sector
––––––––––––––––––––––––––––-
1 | 0:00.32 | 1:56.60 | 32 | 8791
2 | 1:57.17 | 7:16.00 | 8792 | 41491
3 | 9:13.17 | 6:45.63 | 41492 | 71929
4 | 15:59.05 | 2:07.52 | 71930 | 81506
5 | 18:06.57 | 6:58.18 | 81507 | 112874
6 | 25:05.00 | 5:02.42 | 112875 | 135566
7 | 30:07.42 | 9:11.50 | 135567 | 176941


Range status and errors

Selected range

Filename C:\Camel - 1976 - Moonmadness\Camel - Moonmadness.wav

Peak level 100.0 %
Extraction speed 5.2 X
Range quality 100.0 %
Test CRC D24FB4AD
Copy CRC D24FB4AD
Copy OK

No errors occurred


AccurateRip summary

Track 1 accurately ripped (confidence 2) [AB4CE7F1] (AR v2)
Track 2 accurately ripped (confidence 2) [25AD09F8] (AR v2)
Track 3 accurately ripped (confidence 2) [1CBC496F] (AR v2)
Track 4 accurately ripped (confidence 2) [1F69C055] (AR v2)
Track 5 accurately ripped (confidence 2) [340AA04F] (AR v2)
Track 6 accurately ripped (confidence 2) [B4695647] (AR v2)
Track 7 accurately ripped (confidence 2) [36B13035] (AR v2)

All tracks accurately ripped

End of status report

foobar2000 1.2.1 / Dynamic Range Meter 1.1.1
log date: 2013-02-20 18:55:05

––––––––––––––––––––––––––––––––––––––––
Analyzed: Camel / Moonmadness
––––––––––––––––––––––––––––––––––––––––

DR Peak RMS Duration Track
––––––––––––––––––––––––––––––––––––––––
DR5 -0.54 dB -7.49 dB 1:57 01-Aristillus
DR7 0.00 dB -9.60 dB 7:16 02-Song within a Song
DR7 0.00 dB -9.18 dB 6:46 03-Chord change
DR10 -0.81 dB -15.01 dB 2:08 04-Spirit of the Water
DR8 0.00 dB -10.69 dB 6:58 05-Another Night
DR9 0.00 dB -12.26 dB 5:03 06-Air Born
DR6 0.00 dB -9.02 dB 9:12 07-Lunar Sea
––––––––––––––––––––––––––––––––––––––––

Number of tracks: 7
Official DR value: DR7

Samplerate: 44100 Hz
Channels: 2
Bits per sample: 16
Bitrate: 910 kbps
Codec: FLAC
================================================================================


–––––––––––––––––––––––––––––––––––––––––-


Camel - Albums Collection 1974-1984 (6 CD) [Re-Up]

Camel - Rain Dances (1977)
EAC | FLAC | Image (Cue&Log) ~ 266 Mb (incl 5%) | Mp3 (CBR320) ~ 109 Mb (incl 5%)
Label: Deram | # 820 725-2 | Time: 00:45:29 | Scans ~ 136 Mb

The band's fifth release, Rain Dances is Camel at its best, offering the most consistent and representative package in their saga. The addition of Caravan-cofounder Richard Sinclair proves profitable, as do a few colorist touches by Brian Eno on "Elke." Mel Collins' woodwinds are among the highlights, especially on "Tell Me" and the title track. From beginning to end, this project flows gracefully.

Review by Matthew Plichta, Allmusic.com

Tracklist:

01. First Light (05:00)
02. Metrognome (04:19)
03. Tell Me (04:08)
04. Highways Of The Sun (04:30)
05. Unevensong (05:35)
06. One Of These Days I'll Get An Early Night (05:54)
07. Elke (04:29)
08. Skylines (04:29)
09. Rain Dances (03:01)
10. Highways Of The Sun - Single Version (04:00)


Exact Audio Copy V1.0 beta 3 from 29. August 2011

EAC extraction logfile from 19. January 2013, 21:23

Camel / Rain Dances

Used drive : ATAPI iHAS124 A Adapter: 2 ID: 1

Read mode : Secure
Utilize accurate stream : Yes
Defeat audio cache : Yes
Make use of C2 pointers : No

Read offset correction : 6
Overread into Lead-In and Lead-Out : No
Fill up missing offset samples with silence : Yes
Delete leading and trailing silent blocks : No
Null samples used in CRC calculations : Yes
Used interface : Native Win32 interface for Win NT & 2000

Used output format : Internal WAV Routines
Sample format : 44.100 Hz; 16 Bit; Stereo


TOC of the extracted CD

Track | Start | Length | Start sector | End sector
––––––––––––––––––––––––––––-
1 | 0:00.33 | 5:00.52 | 33 | 22584
2 | 5:01.10 | 4:19.20 | 22585 | 42029
3 | 9:20.30 | 4:07.70 | 42030 | 60624
4 | 13:28.25 | 4:30.60 | 60625 | 80934
5 | 17:59.10 | 5:35.18 | 80935 | 106077
6 | 23:34.28 | 5:54.15 | 106078 | 132642
7 | 29:28.43 | 4:29.65 | 132643 | 152882
8 | 33:58.33 | 4:28.70 | 152883 | 173052
9 | 38:27.28 | 3:01.35 | 173053 | 186662
10 | 41:28.63 | 4:00.47 | 186663 | 204709


Range status and errors

Selected range

Filename C:\Camel - 1977 - Rain Dances\Camel - Rain Dances.wav

Peak level 97.3 %
Extraction speed 2.8 X
Range quality 100.0 %
Test CRC A374465B
Copy CRC A374465B
Copy OK

No errors occurred


AccurateRip summary

Track 1 accurately ripped (confidence 5) [911BBE09] (AR v2)
Track 2 accurately ripped (confidence 5) [A49A08D7] (AR v2)
Track 3 accurately ripped (confidence 5) [95409C70] (AR v2)
Track 4 accurately ripped (confidence 5) [F602D920] (AR v2)
Track 5 accurately ripped (confidence 5) [C16DC188] (AR v2)
Track 6 accurately ripped (confidence 5) [067791D5] (AR v2)
Track 7 accurately ripped (confidence 5) [0D85A240] (AR v2)
Track 8 accurately ripped (confidence 5) [DA127EEC] (AR v2)
Track 9 accurately ripped (confidence 5) [9F61646E] (AR v2)
Track 10 accurately ripped (confidence 5) [B8988AD4] (AR v2)

All tracks accurately ripped

End of status report

foobar2000 1.2.1 / Dynamic Range Meter 1.1.1
log date: 2013-02-20 18:56:15

––––––––––––––––––––––––––––––––––––––––
Analyzed: Camel / Rain Dances
––––––––––––––––––––––––––––––––––––––––

DR Peak RMS Duration Track
––––––––––––––––––––––––––––––––––––––––
DR12 -0.24 dB -16.71 dB 5:01 01-First Light
DR12 -0.50 dB -16.95 dB 4:19 02-Metrognome
DR10 -6.39 dB -19.74 dB 4:08 03-Tell Me
DR12 -2.48 dB -16.98 dB 4:31 04-Highways Of The Sun
DR12 -0.64 dB -16.73 dB 5:35 05-Unevensong
DR14 -2.12 dB -17.77 dB 5:54 06-One Of These Days I'll Get An Early Night
DR9 -9.40 dB -22.76 dB 4:30 07-Elke
DR11 -4.14 dB -16.98 dB 4:29 08-Skylines
DR10 -6.60 dB -21.07 dB 3:01 09-Rain Dances
DR10 -1.37 dB -13.01 dB 4:01 10-Highways Of The Sun - Single Version
––––––––––––––––––––––––––––––––––––––––

Number of tracks: 10
Official DR value: DR11

Samplerate: 44100 Hz
Channels: 2
Bits per sample: 16
Bitrate: 781 kbps
Codec: FLAC
================================================================================


–––––––––––––––––––––––––––––––––––––––––-


Camel - Albums Collection 1974-1984 (6 CD) [Re-Up]

Camel - Breathless (1978)
EAC | FLAC | Image (Cue&Log) ~ 298 Mb (incl 5%) | Mp3 (CBR320) ~ 107 Mb (incl 5%)
Label: Deram | # 820 726-2 | Time: 00:44:54 | Scans ~ 134 Mb

With Rain Dances, Camel began exploring shorter, more concise songs, but it wasn't until its follow-up, Breathless, that they truly made a stab at writing pop songs. Although they didn't completely abandon improvisational prog rock – there are several fine, jazzy interludes – most of the record is comprised of shorter songs designed for radio play. While the group didn't quite achieve that goal, Breathless is nevertheless a more accessible record than Camel's other albums, which tend to focus on instrumentals. Here, they try to be a straightforward prog rock band, and while the results are occasionally a little muddled, it is on the whole surprisingly successful.

Review by Daevid Jehnzen, Allmusic.com

Tracklist:

01. Breathless (04:20)
02. Echoes (07:20)
03. Wing And A Prayer (04:46)
04. Down On The Farm (04:25)
05. Starlight Ride (03:26)
06. Summer Lightning (06:10)
07. You Make Me Smile (04:18)
08. The Sleeper (07:08)
09. Rainbow's End (03:01)


Exact Audio Copy V1.0 beta 3 from 29. August 2011

EAC extraction logfile from 19. January 2013, 21:52

Camel / Breathless

Used drive : ATAPI iHAS124 A Adapter: 2 ID: 1

Read mode : Secure
Utilize accurate stream : Yes
Defeat audio cache : Yes
Make use of C2 pointers : No

Read offset correction : 6
Overread into Lead-In and Lead-Out : No
Fill up missing offset samples with silence : Yes
Delete leading and trailing silent blocks : No
Null samples used in CRC calculations : Yes
Used interface : Native Win32 interface for Win NT & 2000

Used output format : Internal WAV Routines
Sample format : 44.100 Hz; 16 Bit; Stereo


TOC of the extracted CD

Track | Start | Length | Start sector | End sector
––––––––––––––––––––––––––––-
1 | 0:00.33 | 4:20.00 | 33 | 19532
2 | 4:20.33 | 7:20.00 | 19533 | 52532
3 | 11:40.33 | 4:46.00 | 52533 | 73982
4 | 16:26.33 | 4:25.00 | 73983 | 93857
5 | 20:51.33 | 3:26.00 | 93858 | 109307
6 | 24:17.33 | 6:10.00 | 109308 | 137057
7 | 30:27.33 | 4:18.00 | 137058 | 156407
8 | 34:45.33 | 7:08.00 | 156408 | 188507
9 | 41:53.33 | 3:00.70 | 188508 | 202077


Range status and errors

Selected range

Filename C:\Camel - 1978 - Breathless\Camel - Breathless.wav

Peak level 98.5 %
Extraction speed 2.7 X
Range quality 99.9 %
Test CRC 6ECB9CD9
Copy CRC 6ECB9CD9
Copy OK

No errors occurred


AccurateRip summary

Track 1 accurately ripped (confidence 3) [3FAE3FF7] (AR v2)
Track 2 accurately ripped (confidence 3) [EF0342F6] (AR v2)
Track 3 accurately ripped (confidence 3) [6B99B7DE] (AR v2)
Track 4 accurately ripped (confidence 3) [899DEB7D] (AR v2)
Track 5 accurately ripped (confidence 3) [2476CAA6] (AR v2)
Track 6 accurately ripped (confidence 3) [49EA9114] (AR v2)
Track 7 accurately ripped (confidence 3) [5D4437F6] (AR v2)
Track 8 accurately ripped (confidence 3) [590BBED8] (AR v2)
Track 9 accurately ripped (confidence 3) [91EBC0F8] (AR v2)

All tracks accurately ripped

End of status report

foobar2000 1.2.1 / Dynamic Range Meter 1.1.1
log date: 2013-02-20 18:57:25

––––––––––––––––––––––––––––––––––––––––
Analyzed: Camel / Breathless
––––––––––––––––––––––––––––––––––––––––

DR Peak RMS Duration Track
––––––––––––––––––––––––––––––––––––––––
DR12 -0.56 dB -14.68 dB 4:20 01-Breathless
DR10 -0.13 dB -12.23 dB 7:20 02-Echoes
DR12 -0.13 dB -13.72 dB 4:46 03-Wing And A Prayer
DR11 -0.13 dB -13.27 dB 4:25 04-Down On The Farm
DR12 -2.39 dB -16.77 dB 3:26 05-Starlight Ride
DR10 -0.56 dB -13.17 dB 6:10 06-Summer Lightning
DR11 -0.13 dB -12.59 dB 4:18 07-You Make Me Smile
DR9 -0.13 dB -12.50 dB 7:08 08-The Sleeper
DR11 -0.64 dB -16.72 dB 3:01 09-Rainbow's End
––––––––––––––––––––––––––––––––––––––––

Number of tracks: 9
Official DR value: DR11

Samplerate: 44100 Hz
Channels: 2
Bits per sample: 16
Bitrate: 885 kbps
Codec: FLAC
================================================================================


–––––––––––––––––––––––––––––––––––––––––-


Camel - Albums Collection 1974-1984 (6 CD) [Re-Up]

Camel - Stationary Traveller (1984)
EAC | FLAC | Image (Cue&Log) ~ 256 Mb (incl 5%) | Mp3 (CBR320) ~ 101 Mb (incl 5%)
Label: Decca | # 820 020-2 | Time: 00:42:19 | Scans ~ 277 Mb

Although Stationary Traveller is a concept album, it musically falls into line with its predecessor The Single Factor, which found Camel trying to refashion themselves as the Alan Parsons Project. Where The Single Factor suffered from Camel's attempts to write pop hooks, Stationary Traveller finds the band breaking down the barriers, opening up their relatively concise songs with long, atmospheric instrumental passages. The album's lyrics, which were written by Susan Hoover, is about the divided Berlin and its political, emotional and physical divides. Often, the lyrics and music – which work as individual entities – don't quite work together, since they follow different emotional directions, yet the record remains a worthwhile listen, especially since it features Andy Latimer on pan flute.

Review by Daevid Jehnzen, Allmusic.com

Tracklist:

01. Pressure Points (Instrumental) (02:10)
02. Refugee (03:47)
03. Vopos (05:32)
04. Cloak And Dagger Man (03:55)
05. Stationary Traveller (Instrumental) (05:34)
06. West Berlin (05:10)
07. Fingertips (04:29)
08. Missing (Instrumental) (04:22)
09. After Words (Instrumental) (02:01)
10. Long Goodbyes (05:14)


Exact Audio Copy V1.0 beta 3 from 29. August 2011

EAC extraction logfile from 20. January 2013, 23:01

Camel / Stationary Traveller

Used drive : ATAPI iHAS124 A Adapter: 2 ID: 1

Read mode : Secure
Utilize accurate stream : Yes
Defeat audio cache : Yes
Make use of C2 pointers : No

Read offset correction : 6
Overread into Lead-In and Lead-Out : No
Fill up missing offset samples with silence : Yes
Delete leading and trailing silent blocks : No
Null samples used in CRC calculations : Yes
Used interface : Native Win32 interface for Win NT & 2000

Used output format : Internal WAV Routines
Sample format : 44.100 Hz; 16 Bit; Stereo


TOC of the extracted CD

Track | Start | Length | Start sector | End sector
––––––––––––––––––––––––––––-
1 | 0:00.32 | 2:10.63 | 32 | 9844
2 | 2:11.20 | 3:47.25 | 9845 | 26894
3 | 5:58.45 | 5:32.40 | 26895 | 51834
4 | 11:31.10 | 3:55.35 | 51835 | 69494
5 | 15:26.45 | 5:34.35 | 69495 | 94579
6 | 21:01.05 | 5:10.25 | 94580 | 117854
7 | 26:11.30 | 4:29.62 | 117855 | 138091
8 | 30:41.17 | 4:22.03 | 138092 | 157744
9 | 35:03.20 | 2:01.10 | 157745 | 166829
10 | 37:04.30 | 5:14.40 | 166830 | 190419


Range status and errors

Selected range

Filename C:\Camel - 1984 - Stationary Traveller\Camel - Stationary Traveller.wav

Peak level 99.7 %
Extraction speed 2.3 X
Range quality 99.9 %
Test CRC A4F0B5D4
Copy CRC A4F0B5D4
Copy OK

No errors occurred


AccurateRip summary

Track 1 accurately ripped (confidence 9) [0C3B7CCE] (AR v2)
Track 2 accurately ripped (confidence 9) [CF0FF0BF] (AR v2)
Track 3 accurately ripped (confidence 9) [CC7A817D] (AR v2)
Track 4 accurately ripped (confidence 9) [3D9FBED1] (AR v2)
Track 5 accurately ripped (confidence 8) [9F8FD78C] (AR v2)
Track 6 accurately ripped (confidence 9) [BF8CFEA9] (AR v2)
Track 7 accurately ripped (confidence 9) [E3978EE1] (AR v2)
Track 8 accurately ripped (confidence 9) [55689A7A] (AR v2)
Track 9 accurately ripped (confidence 9) [D4E591DB] (AR v2)
Track 10 accurately ripped (confidence 8) [500CC767] (AR v2)

All tracks accurately ripped

End of status report

foobar2000 1.2.1 / Dynamic Range Meter 1.1.1
log date: 2013-02-20 19:01:54

––––––––––––––––––––––––––––––––––––––––
Analyzed: Camel / Stationary Traveller
––––––––––––––––––––––––––––––––––––––––

DR Peak RMS Duration Track
––––––––––––––––––––––––––––––––––––––––
DR9 -2.08 dB -14.09 dB 2:11 01-Pressure Points (Instrumental)
DR14 -0.14 dB -16.36 dB 3:47 02-Refugee
DR12 -1.00 dB -16.22 dB 5:33 03-Vopos
DR12 -2.37 dB -16.25 dB 3:55 04-Cloak And Dagger Man
DR13 -1.86 dB -18.91 dB 5:34 05-Stationary Traveller (Instrumental)
DR14 -0.02 dB -16.32 dB 5:10 06-West Berlin
DR11 -2.33 dB -17.57 dB 4:30 07-Fingertips
DR13 -2.48 dB -16.84 dB 4:22 08-Missing (Instrumental)
DR11 -17.25 dB -33.06 dB 2:01 09-After Words (Instrumental)
DR12 -1.98 dB -17.62 dB 5:15 10-Long Goodbyes
––––––––––––––––––––––––––––––––––––––––

Number of tracks: 10
Official DR value: DR12

Samplerate: 44100 Hz
Channels: 2
Bits per sample: 16
Bitrate: 806 kbps
Codec: FLAC
================================================================================


–––––––––––––––––––––––––––––––––––––––––-


All thanks to original releaser - artlovesound

More interesting music in My Blog