Tags
Language
Tags
February 2023
Su Mo Tu We Th Fr Sa
29 30 31 1 2 3 4
5 6 7 8 9 10 11
12 13 14 15 16 17 18
19 20 21 22 23 24 25
26 27 28 1 2 3 4

Camouflage - Spice Crackers (1995) 2CD Deluxe Edition 2009

Posted By: Designol
Camouflage - Spice Crackers (1995) 2CD Deluxe Edition 2009

Camouflage - Spice Crackers (1995) 2CD Deluxe Edition 2009
EAC | FLAC | Image (Cue&Log) ~ 842 Mb | Mp3 (CBR320) ~ 334 Mb | Scans ~ 44 Mb
Synthpop, New Wave, Electronic, Dance-Rock | Label: Bureau B | # BB 032 | 02:25:40

By the time of Spice Crackers' 1995 release, Camouflage found themselves dealing not only with changing times on the part of their key inspirations – Depeche Mode having long since grappled with rock motifs on albums like Violator and Songs of Faith and Devotion – but with the shift from electronic pop being pop, to being a quieter concern amid the aboveground explosion of techno in Europe throughout that decade. Spice Crackers feels like a reaction to both changes in many ways, a chance for Camouflage to find their own identity as well as see how to roll with the times – and what's striking is how they predated some future developments elsewhere as a result. (It says something that the bass-heavy introduction "X-Ray" might have appeared on Depeche's Ultra, for instance, even though that album was two years away from release at that point.) There's a self-referentiality to the field that's almost amusing in its apparent po-facedness – calling one song "Kraft" and the one immediately after it "Electronic Music" is almost too much – but the exquisite instrumental "Ronda's Trigger," arguably the album's best song, celebrates things more effectively, a classic electronic dance number in the best way, propulsive and serene at the same time. As with almost any album of its length in the era of CDs, it feels like it goes on a little too long, with some of the better tracks like "Back to Heaven" buried a bit at the end. But if anything, Spice Crackers counts as a key release pointing the way for where European electronic pop with an ear for the darker side of things would go in the future – after-echoes of the freer, more flowing approach to things the band did here can be heard well down the line in groups like Apoptygma Berzerk.

Review by Ned Raggett, Allmusic.com

Camouflage - Spice Crackers (1995) 2CD Deluxe Edition 2009



Tracklist:

CD1:
01. Spice Crackers (03:35)
02. X-Ray (06:23)
03. Kraft (03:46)
04. Electronic Music (02:40)
05. Bad News (06:01)
06. Days Run Wild (05:15)
07. A Place in China (06:08)
08. Zwischenspiel 2 (01:36)
09. Funky Service (04:21)
10. Back to Heaven (07:36)
11. Je Suis Le Dieu (05:26)
12. Ronda`s Trigger (09:35)
13. Travelling without Moving (01:26)
14. Spacetrain (08:35)

CD2:
01. Spice Crackers (FX Mix) (01:12)
02. Bad News (Aural Float Mix) (10:10)
03. In Search Of Ray Milland (05:42)
04. Wet Electronics (03:58)
05. Back To Heaven (Flanger Mix) (04:51)
06. Spacetrain (Ambient Mix) (07:47)
07. Je Suis Le Dieu (Demo Version) (03:58)
08. Liberation (Part 2) (11:05)
09. Steward (06:40)
10. Eros Lunch (Edit) (05:14)
11. 5 Seconds (Edit) (05:16)
12. The Kroeppelshagen Tapes #3 (Detail 1) (02:19)
13. The Kroeppelshagen Tapes #4 (Detail 3) (04:04)
14. Band Intruduction by Wu Shan Zhuan (00:39)


Exact Audio Copy V0.99 prebeta 5 from 4. May 2009

Отчёт EAC об извлечении, выполненном 22. октября 2009, 17:33

Camouflage / Spice Crackers

Дисковод: Optiarc DVD RW AD-7201S Adapter: 2 ID: 1

Режим чтения : Достоверность
Использование точного потока : Да
Отключение кэша аудио : Да
Использование указателей C2 : Нет

Коррекция смещения при чтении : 48
Способность читать области Lead-in и Lead-out : Нет
Заполнение пропущенных сэмплов тишиной : Да
Удаление блоков с тишиной в начале и конце : Нет
При вычислениях CRC использовались нулевые сэмплы : Да
Интерфейс : Встроенный Win32-интерфейс для Win NT/2000

Выходной формат : Внутренние WAV-операции
Формат сэмплов : 44.100 Гц; 16 бит; стерео


TOC извлечённого CD

Трек | Старт | Длительность | Начальный сектор | Конечный сектор
––––––––––––––––––––––––––––––––––-
1 | 0:00.00 | 3:35.45 | 0 | 16169
2 | 3:35.45 | 6:23.15 | 16170 | 44909
3 | 9:58.60 | 3:46.32 | 44910 | 61891
4 | 13:45.17 | 2:40.28 | 61892 | 73919
5 | 16:25.45 | 6:01.05 | 73920 | 100999
6 | 22:26.50 | 5:15.10 | 101000 | 124634
7 | 27:41.60 | 6:08.10 | 124635 | 152244
8 | 33:49.70 | 1:36.10 | 152245 | 159454
9 | 35:26.05 | 4:21.00 | 159455 | 179029
10 | 39:47.05 | 7:36.12 | 179030 | 213241
11 | 47:23.17 | 5:26.10 | 213242 | 237701
12 | 52:49.27 | 9:35.28 | 237702 | 280854
13 | 62:24.55 | 1:26.40 | 280855 | 287344
14 | 63:51.20 | 8:35.60 | 287345 | 326029


Характеристики диапазона извлечения и сообщения об ошибках

Выбранный диапазон

Имя файла E:\Раздачи\Camouflage - Spice Crackers\Camouflage - Spice Crackers.wav

Пиковый уровень 96.9 %
Качество диапазона 99.9 %
CRC теста BAFD5518
CRC копии BAFD5518
Копирование… OK

Ошибок не произошло


AccurateRip: сводка

Трек 1 точность не определена (достоверность 6) [09EF7519], AccurateRip вернул [E73D8671]
Трек 2 точность не определена (достоверность 6) [99A9A2CC], AccurateRip вернул [5C6F61C1]
Трек 3 точность не определена (достоверность 6) [7EC09DB8], AccurateRip вернул [78894705]
Трек 4 точность не определена (достоверность 6) [BB32B3EF], AccurateRip вернул [2CEF8F13]
Трек 5 точность не определена (достоверность 6) [779942E2], AccurateRip вернул [5F755B89]
Трек 6 точность не определена (достоверность 6) [95066406], AccurateRip вернул [D0BA63B6]
Трек 7 точность не определена (достоверность 6) [BABED88F], AccurateRip вернул [0328DE8F]
Трек 8 точность не определена (достоверность 6) [077F5464], AccurateRip вернул [0E4A8BED]
Трек 9 точность не определена (достоверность 6) [4797B272], AccurateRip вернул [FF02D10E]
Трек 10 точность не определена (достоверность 6) [B5E3EAA4], AccurateRip вернул [E94AF4EC]
Трек 11 точность не определена (достоверность 6) [4AF30D4D], AccurateRip вернул [C589FA96]
Трек 12 точность не определена (достоверность 5) [811C1225], AccurateRip вернул [BE0EA49B]
Трек 13 точность не определена (достоверность 6) [1A168FAC], AccurateRip вернул [C1DEFA80]
Трек 14 точность не определена (достоверность 6) [3662A46C], AccurateRip вернул [737A7999]

Ни один трек не прошёл проверки на точность
В вашей базе может быть иной вариант штамповки диска

Конец отчёта

[CUETools log; Date: 14.05.2018 15:30:14; Version: 2.1.4]
[CTDB TOCID: U5xUlhhZIDah_UJbgrZ2b0dtt98-] found.
Track | CTDB Status
1 | (19/63) Accurately ripped
2 | (19/63) Accurately ripped
3 | (19/63) Accurately ripped
4 | (19/63) Accurately ripped
5 | (19/63) Accurately ripped
6 | (19/63) Accurately ripped
7 | (19/63) Accurately ripped
8 | (19/63) Accurately ripped
9 | (19/63) Accurately ripped
10 | (19/63) Accurately ripped
11 | (19/63) Accurately ripped
12 | (19/63) Accurately ripped
13 | (19/63) Accurately ripped
14 | (17/63) Accurately ripped
[AccurateRip ID: 002275ff-01755c28-c810fb0e] found.
Track [ CRC | V2 ] Status
01 [09ef7519|082103cf] (00+00/46) No match
02 [99a9a2cc|01bcc916] (00+00/47) No match
03 [7ec09db8|4f6d05e4] (00+00/45) No match
04 [bb32b3ef|46984d1b] (00+00/46) No match
05 [779942e2|77a2bf5f] (00+00/46) No match
06 [95066406|577ef869] (00+00/47) No match
07 [babed88f|47871018] (00+00/46) No match
08 [077f5464|a0416172] (00+00/46) No match
09 [4797b272|66f39233] (00+00/47) No match
10 [b5e3eaa4|f5b3b4c4] (00+00/46) No match
11 [4af30d4d|efd70c38] (00+00/46) No match
12 [811c1225|fd35b55a] (00+00/44) No match
13 [1a168fac|3018b097] (00+00/46) No match
14 [3662a46c|4bec23e1] (00+00/46) No match
Offsetted by 676:
01 [69a0e99b] (07/46) Accurately ripped
02 [1f4576a6] (07/47) Accurately ripped
03 [75b220bf] (06/45) Accurately ripped
04 [401f422c] (07/46) Accurately ripped
05 [8dfc79e4] (07/46) Accurately ripped
06 [9d9baf1b] (07/47) Accurately ripped
07 [3c0a888d] (07/46) Accurately ripped
08 [3eface52] (07/46) Accurately ripped
09 [4c0cf4f8] (07/47) Accurately ripped
10 [e94dbe63] (07/46) Accurately ripped
11 [c8c998f0] (07/46) Accurately ripped
12 [72ea4661] (06/44) Accurately ripped
13 [ddbcc15c] (07/46) Accurately ripped
14 [99381f12] (07/46) Accurately ripped

Track Peak [ CRC32 ] [W/O NULL] [ LOG ]
– 96,9 [BAFD5518] [5608AC91] CRC32
01 96,9 [197BBFB8] [5997259C]
02 96,9 [320CBDEC] [7CF4ED26]
03 96,9 [9DB01667] [F60A6D5E]
04 96,9 [A839634A] [5AFD7B5A]
05 96,9 [D7258D7A] [5B183DE8]
06 96,9 [0E81ABE0] [5224578D]
07 96,9 [3B8A902E] [DABD805B]
08 96,9 [F62410F1] [F90BCE3A]
09 96,9 [CE2615A9] [B7195CED]
10 96,9 [6721E128] [07766989]
11 96,9 [42F943A6] [82EAC22A]
12 96,9 [F14C7B12] [1F3C3F58]
13 96,9 [D2E148D5] [68F315D0]
14 96,9 [FB84855E] [6BED336A]

foobar2000 1.2 / Dynamic Range Meter 1.1.1
log date: 2018-05-14 15:39:32

––––––––––––––––––––––––––––––––––––––––
Analyzed: Camouflage / Spice Crackers [Deluxe Edition 2009] CD1
––––––––––––––––––––––––––––––––––––––––

DR Peak RMS Duration Track
––––––––––––––––––––––––––––––––––––––––
DR9 -0.27 dB -10.90 dB 3:36 01-Spice Crackers
DR8 -0.27 dB -9.12 dB 6:23 02-X-Ray
DR10 -0.27 dB -11.31 dB 3:46 03-Kraft
DR9 -0.27 dB -11.02 dB 2:40 04-Electronic Music
DR7 -0.27 dB -8.14 dB 6:01 05-Bad News
DR7 -0.27 dB -8.97 dB 5:15 06-Days Run Wild
DR8 -0.27 dB -9.50 dB 6:08 07-A Place in China
DR11 -0.27 dB -13.91 dB 1:36 08-Zwischenspiel 2
DR7 -0.27 dB -7.79 dB 4:21 09-Funky Service
DR8 -0.27 dB -11.45 dB 7:36 10-Back to Heaven
DR9 -0.27 dB -10.35 dB 5:26 11-Je Suis Le Dieu
DR8 -0.27 dB -11.47 dB 9:35 12-Ronda`s Trigger
DR16 -0.27 dB -18.56 dB 1:27 13-Travelling without Moving
DR7 -0.27 dB -9.13 dB 8:36 14-Spacetrain
––––––––––––––––––––––––––––––––––––––––

Number of tracks: 14
Official DR value: DR9

Samplerate: 44100 Hz
Channels: 2
Bits per sample: 16
Bitrate: 835 kbps
Codec: FLAC
================================================================================


Exact Audio Copy V0.99 prebeta 5 from 4. May 2009

Отчёт EAC об извлечении, выполненном 22. октября 2009, 17:51

Camouflage / Spice Crackers Bonus CD

Дисковод: Optiarc DVD RW AD-7201S Adapter: 2 ID: 1

Режим чтения : Достоверность
Использование точного потока : Да
Отключение кэша аудио : Да
Использование указателей C2 : Нет

Коррекция смещения при чтении : 48
Способность читать области Lead-in и Lead-out : Нет
Заполнение пропущенных сэмплов тишиной : Да
Удаление блоков с тишиной в начале и конце : Нет
При вычислениях CRC использовались нулевые сэмплы : Да
Интерфейс : Встроенный Win32-интерфейс для Win NT/2000

Выходной формат : Внутренние WAV-операции
Формат сэмплов : 44.100 Гц; 16 бит; стерео


TOC извлечённого CD

Трек | Старт | Длительность | Начальный сектор | Конечный сектор
––––––––––––––––––––––––––––––––––-
1 | 0:00.00 | 1:12.61 | 0 | 5460
2 | 1:12.61 | 10:12.02 | 5461 | 51362
3 | 11:24.63 | 5:44.00 | 51363 | 77162
4 | 17:08.63 | 4:00.41 | 77163 | 95203
5 | 21:09.29 | 4:51.23 | 95204 | 117051
6 | 26:00.52 | 7:48.30 | 117052 | 152181
7 | 33:49.07 | 4:00.45 | 152182 | 170226
8 | 37:49.52 | 11:05.53 | 170227 | 220154
9 | 48:55.30 | 6:40.07 | 220155 | 250161
10 | 55:35.37 | 5:14.05 | 250162 | 273716
11 | 60:49.42 | 5:16.72 | 273717 | 297488
12 | 66:06.39 | 2:20.10 | 297489 | 307998
13 | 68:26.49 | 4:06.52 | 307999 | 326500
14 | 72:33.26 | 0:39.65 | 326501 | 329490


Характеристики диапазона извлечения и сообщения об ошибках

Выбранный диапазон

Имя файла E:\Раздачи\Camouflage - Spice Crackers\Camouflage - Spice Crackers Bonus CD.wav

Пиковый уровень 97.7 %
Качество диапазона 99.9 %
CRC теста E184667C
CRC копии E184667C
Копирование… OK

Ошибок не произошло


AccurateRip: сводка

Трек 1 нет в базе данных
Трек 2 нет в базе данных
Трек 3 нет в базе данных
Трек 4 нет в базе данных
Трек 5 нет в базе данных
Трек 6 нет в базе данных
Трек 7 нет в базе данных
Трек 8 нет в базе данных
Трек 9 нет в базе данных
Трек 10 нет в базе данных
Трек 11 нет в базе данных
Трек 12 нет в базе данных
Трек 13 нет в базе данных
Трек 14 нет в базе данных

Ни одного трека нет в базе AccurateRip

Конец отчёта

[CUETools log; Date: 14.05.2018 15:30:33; Version: 2.1.4]
[CTDB TOCID: lFHtAjbwHX1owLxs8IJg_Iord40-] found.
Track | CTDB Status
1 | (18/18) Accurately ripped
2 | (18/18) Accurately ripped
3 | (18/18) Accurately ripped
4 | (18/18) Accurately ripped
5 | (18/18) Accurately ripped
6 | (18/18) Accurately ripped
7 | (18/18) Accurately ripped
8 | (17/18) Accurately ripped
9 | (18/18) Accurately ripped
10 | (18/18) Accurately ripped
11 | (18/18) Accurately ripped
12 | (18/18) Accurately ripped
13 | (18/18) Accurately ripped
14 | (17/18) Accurately ripped
[AccurateRip ID: 0028cdf6-01b551fe-bc11290e] found.
Track [ CRC | V2 ] Status
01 [f6ccaac2|9ce3561f] (00+00/16) No match
02 [336a50bc|15d7d9fe] (00+00/15) No match
03 [9f34df63|e54603dd] (00+00/15) No match
04 [742aa9ff|01d99bb4] (00+00/15) No match
05 [c04f403d|bdf6339c] (00+00/15) No match
06 [46fdcc9e|d34372e6] (00+00/15) No match
07 [24fa7f19|2e6fddea] (00+00/15) No match
08 [96d732d3|85e3a969] (00+00/15) No match
09 [644f0787|84696136] (00+00/14) No match
10 [ed6f27a2|8b2a819f] (00+00/15) No match
11 [2e1957e9|d6d74ee7] (00+00/15) No match
12 [7689ba74|244ba88f] (00+00/15) No match
13 [9f1d7aca|39310f01] (00+00/15) No match
14 [635ac8f5|8c8519c0] (00+00/15) No match
Offsetted by 676:
01 [68344285] (06/16) Accurately ripped
02 [077d5e30] (05/15) Accurately ripped
03 [291361d8] (05/15) Accurately ripped
04 [a8a573aa] (05/15) Accurately ripped
05 [f4918b3d] (05/15) Accurately ripped
06 [3e280065] (05/15) Accurately ripped
07 [f401090f] (05/15) Accurately ripped
08 [382e6aa2] (05/15) Accurately ripped
09 [464aef38] (04/14) Accurately ripped
10 [63ce0eb8] (05/15) Accurately ripped
11 [7ec30ae6] (05/15) Accurately ripped
12 [1ae772c2] (05/15) Accurately ripped
13 [baf71e17] (05/15) Accurately ripped
14 [d7d0beb0] (05/15) Accurately ripped

Track Peak [ CRC32 ] [W/O NULL] [ LOG ]
– 97,7 [E184667C] [B03CDBCA] CRC32
01 97,4 [8ADE694A] [CA9C6F26]
02 97,6 [9BBA173B] [AFC5633E]
03 97,5 [07A24660] [4B1A8039]
04 97,4 [48F4BE30] [C6AA3403]
05 97,5 [8722F7BF] [AA958B62]
06 97,5 [5556C527] [9CFE2274]
07 97,6 [465F5542] [230E1FC4]
08 97,5 [8C56B0C6] [21E01F08]
09 97,6 [044278B9] [553FC8BB]
10 97,7 [595AB736] [977E95AE]
11 97,4 [90873E86] [6C67769B]
12 97,4 [0AE22EBA] [79CF71E2]
13 97,4 [B2D4252F] [2CB9BA8D]
14 69,0 [7F7F3AB4] [E4003ADE]

foobar2000 1.2 / Dynamic Range Meter 1.1.1
log date: 2018-05-14 15:40:05

––––––––––––––––––––––––––––––––––––––––
Analyzed: Camouflage / Spice Crackers [Deluxe Edition 2009] CD2
––––––––––––––––––––––––––––––––––––––––

DR Peak RMS Duration Track
––––––––––––––––––––––––––––––––––––––––
DR15 -0.22 dB -19.75 dB 1:13 01-Spice Crackers (FX Mix)
DR8 -0.21 dB -10.41 dB 10:12 02-Bad News (Aural Float Mix)
DR7 -0.21 dB -9.30 dB 5:44 03-In Search Of Ray Milland
DR9 -0.22 dB -12.04 dB 4:01 04-Wet Electronics
DR10 -0.21 dB -11.57 dB 4:51 05-Back To Heaven (Flanger Mix)
DR9 -0.22 dB -11.26 dB 7:48 06-Spacetrain (Ambient Mix)
DR8 -0.21 dB -10.09 dB 4:01 07-Je Suis Le Dieu (Demo Version)
DR10 -0.22 dB -12.14 dB 11:06 08-Liberation (Part 2)
DR10 -0.21 dB -11.21 dB 6:40 09-Steward
DR11 -0.20 dB -14.42 dB 5:14 10-Eros Lunch (Edit)
DR7 -0.22 dB -9.92 dB 5:17 11-5 Seconds (Edit)
DR9 -0.22 dB -11.66 dB 2:20 12-The Kroeppelshagen Tapes #3 (Detail 1)
DR8 -0.22 dB -10.27 dB 4:07 13-The Kroeppelshagen Tapes #4 (Detail 3)
DR13 -3.22 dB -18.93 dB 0:40 14-Band Intruduction by Wu Shan Zhuan
––––––––––––––––––––––––––––––––––––––––

Number of tracks: 14
Official DR value: DR10

Samplerate: 44100 Hz
Channels: 2
Bits per sample: 16
Bitrate: 782 kbps
Codec: FLAC
================================================================================

Camouflage - Spice Crackers (1995) 2CD Deluxe Edition 2009

Camouflage - Spice Crackers (1995) 2CD Deluxe Edition 2009