Subcategories
Tags
Language
Tags

Catherine Ribeiro + Alpes - Intégrale Des Albums Originaux 1969-1980 [9CD Box Set] (2015)

Posted By: gribovar
Catherine Ribeiro + Alpes - Intégrale Des Albums Originaux 1969-1980 [9CD Box Set] (2015)

Catherine Ribeiro + Alpes - Integrale Des Albums Originaux 1969-1980 [9CD Box Set] (2015)
EAC Rip | FLAC (image+.cue+log) - 2,09 GB | MP3 CBR 320 kbps (LAME 3.93) - 871 MB | Covers - 74 MB
Genre: Progressive/Psychedelic Rock, Avant-Folk | RAR 3% Rec. | Label: Mercury Records (4728221)

During the 70's, Catherine Ribeiro & Alpes recorded a string of stunning and successful albums, gathering a few plaudits and yearly awards from specialized press, played throughout Europe and even in Latin America and Northern Africa and are now seen as an iconic group of the hippy 70's in France. Their music is rather experimental and hard to define and involves folk, progressive and improvisation. Their use of seldom-seen percuphone and cosmophone (both alpine instruments), their lengthy Poème Non-Epique pieces, Ribeiro's anarchist avant-garde and ecologist lyrics and doomed atmosphere (there is some VdGG feel in their music) made this group a very distinct and very original group that has their own sound. In a similar vocal style to Brigitte Fontaine, Catherine Ribeiro's low voice tone may also evoke Nico at times and is theatrical and declamatory.

Catherine Ribeiro + Alpes - Intégrale Des Albums Originaux 1969-1980 [9CD Box Set] (2015)

CD 1: Catherine Ribeiro + 2 Bis - Catherine Ribeiro + 2bis (1969)
EAC Rip | FLAC (image+.cue+log) - 213 MB | MP3 CBR 320 kbps (LAME 3.93) - 84 MB
Genre: Progressive/Psychedelic Rock, Avant-Folk | RAR 3% Rec. | Label: Mercury Records (4728109)

Tracklist:
01. Lumière écarlate
02. Sœur de race
03. Les fées carabosse
04. Voyage 1
05. La solitude
06. Un sourire, un rire, des éclats
07. Le crime de l'enfant dieu
08. Le point qui scintille

Total time: 36:02

Exact Audio Copy V1.1 from 23. June 2015

Отчёт EAC об извлечении, выполненном 1. июня 2016, 9:32

Catherine Ribeiro + 2bis / Catherine Ribeiro + 2bis

Дисковод: TSSTcorpCDDVDW SH-224DB Adapter: 1 ID: 1

Режим чтения : Достоверность
Использование точного потока : Да
Отключение кэша аудио : Да
Использование указателей C2 : Нет

Коррекция смещения при чтении : 6
Способность читать области Lead-in и Lead-out : Нет
Заполнение пропущенных сэмплов тишиной : Да
Удаление блоков с тишиной в начале и конце : Нет
При вычислениях CRC использовались нулевые сэмплы : Да
Интерфейс : Встроенный Win32-интерфейс для Win NT/2000

Выходной формат : Пользовательский кодировщик
Выбранный битрейт : 896 kBit/s
Качество : Высокий
Добавление ID3-тега : Нет
Утилита сжатия : C:\Program Files (x86)\flac-1.3.1-win\win64\flac.exe
Дополнительные параметры : -V -8 -T "Date=%year%" -T "Genre=%genre%" %source%


TOC извлечённого CD

Трек | Старт | Длительность | Начальный сектор | Конечный сектор
––––––––––––––––––––––––––––––––––-
1 | 0:00.00 | 4:13.09 | 0 | 18983
2 | 4:13.09 | 2:43.66 | 18984 | 31274
3 | 6:57.00 | 5:23.34 | 31275 | 55533
4 | 12:20.34 | 5:34.41 | 55534 | 80624
5 | 17:55.00 | 3:11.72 | 80625 | 95021
6 | 21:06.72 | 4:10.00 | 95022 | 113771
7 | 25:16.72 | 4:36.35 | 113772 | 134506
8 | 29:53.32 | 6:08.11 | 134507 | 162117


Характеристики диапазона извлечения и сообщения об ошибках

Выбранный диапазон

Имя файла E:\MOVIES2\Alpes\1- Catherine Ribeiro 2Bis\Catherine Ribeiro + 2bis - Catherine Ribeiro + 2bis.wav

Пиковый уровень 83.7 %
Скорость извлечения 2.7 X
Качество диапазона 100.0 %
CRC теста 73E49180
CRC копии 73E49180
Копирование… OK

Ошибок не произошло


AccurateRip: сводка

Трек 1 : извлечено точно (доверие 3) [5903909C] (AR v2)
Трек 2 : извлечено точно (доверие 3) [5607EFAC] (AR v2)
Трек 3 : извлечено точно (доверие 3) [9FAE1845] (AR v2)
Трек 4 : извлечено точно (доверие 3) [E6D9C14D] (AR v2)
Трек 5 : извлечено точно (доверие 3) [62730FE3] (AR v2)
Трек 6 : извлечено точно (доверие 3) [20A53CC3] (AR v2)
Трек 7 : извлечено точно (доверие 3) [E2CAAD4C] (AR v2)
Трек 8 : извлечено точно (доверие 3) [F7328A36] (AR v2)

Все треки извлечены точно

Конец отчёта

==== Контрольная сумма отчёта 5BD08123CFA3CA4505B8C2BBA09DD6A724F262DE0D74A33614FBA4AE9DF3AD2D ====

[CUETools log; Date: 19.05.2021 14:46:44; Version: 2.1.4]
[CTDB TOCID: aAheCqP6EDqdB1n4e.TNz4nZxNc-] found.
Track | CTDB Status
1 | (33/33) Accurately ripped
2 | (33/33) Accurately ripped
3 | (33/33) Accurately ripped
4 | (33/33) Accurately ripped
5 | (33/33) Accurately ripped
6 | (33/33) Accurately ripped
7 | (33/33) Accurately ripped
8 | (33/33) Accurately ripped
[AccurateRip ID: 000a8e7d-00471615-6e087108] found.
Track [ CRC | V2 ] Status
01 [fabf3761|5903909c] (0+9/9) Accurately ripped
02 [fbf67c2f|5607efac] (0+9/9) Accurately ripped
03 [e58dd52b|9fae1845] (0+9/9) Accurately ripped
04 [bc23f0ba|e6d9c14d] (0+9/9) Accurately ripped
05 [caed9411|62730fe3] (0+9/9) Accurately ripped
06 [7b0a6c5f|20a53cc3] (0+9/9) Accurately ripped
07 [6b4fa996|e2caad4c] (0+9/9) Accurately ripped
08 [4b3f3bd7|f7328a36] (0+9/9) Accurately ripped

Track Peak [ CRC32 ] [W/O NULL] [ LOG ]
– 83,7 [73E49180] [0FF13794] CRC32
01 75,4 [5B75C17A] [70E37C32]
02 60,7 [3BAEA211] [0EC8DF5B]
03 76,9 [1124B38C] [AD401AD4]
04 83,7 [446B9F7F] [F12F6279]
05 79,7 [8A978714] [7213C258]
06 75,1 [D85070B1] [920275EF]
07 67,4 [839954FA] [56D584F9]
08 77,7 [24E6DC87] [658B0B2B]

Catherine Ribeiro + Alpes - Intégrale Des Albums Originaux 1969-1980 [9CD Box Set] (2015)

CD 2: Catherine Ribeiro + Alpes - N°2 (1970)
EAC Rip | FLAC (image+.cue+log) - 207 MB | MP3 CBR 320 kbps (LAME 3.93) - 95 MB
Genre: Progressive/Psychedelic Rock, Avant-Folk | RAR 3% Rec. | Label: Mercury Records (4728086)

Tracklist:
01. Prélude
02. Sîrba
03. 15 Août 1970
04. Silen Voy Kathy
05. Prélude
06. Poème non épique
07. Ballada das aguas

Total time: 40:22

Exact Audio Copy V1.1 from 23. June 2015

Отчёт EAC об извлечении, выполненном 1. июня 2016, 10:03

Catherine Ribeiro + Alpes / Catherine Ribeiro + Alpes #2

Дисковод: TSSTcorpCDDVDW SH-224DB Adapter: 1 ID: 1

Режим чтения : Достоверность
Использование точного потока : Да
Отключение кэша аудио : Да
Использование указателей C2 : Нет

Коррекция смещения при чтении : 6
Способность читать области Lead-in и Lead-out : Нет
Заполнение пропущенных сэмплов тишиной : Да
Удаление блоков с тишиной в начале и конце : Нет
При вычислениях CRC использовались нулевые сэмплы : Да
Интерфейс : Встроенный Win32-интерфейс для Win NT/2000

Выходной формат : Пользовательский кодировщик
Выбранный битрейт : 896 kBit/s
Качество : Высокий
Добавление ID3-тега : Нет
Утилита сжатия : C:\Program Files (x86)\flac-1.3.1-win\win64\flac.exe
Дополнительные параметры : -V -8 -T "Date=%year%" -T "Genre=%genre%" %source%


TOC извлечённого CD

Трек | Старт | Длительность | Начальный сектор | Конечный сектор
––––––––––––––––––––––––––––––––––-
1 | 0:00.00 | 0:28.45 | 0 | 2144
2 | 0:28.45 | 5:45.23 | 2145 | 28042
3 | 6:13.68 | 4:18.62 | 28043 | 47454
4 | 10:32.55 | 7:21.39 | 47455 | 80568
5 | 17:54.19 | 0:28.20 | 80569 | 82688
6 | 18:22.39 | 18:36.72 | 82689 | 166460
7 | 36:59.36 | 3:22.36 | 166461 | 181646


Характеристики диапазона извлечения и сообщения об ошибках

Выбранный диапазон

Имя файла E:\MOVIES2\Alpes\2 - #2\Catherine Ribeiro + Alpes - Catherine Ribeiro + Alpes #2.wav

Пиковый уровень 82.7 %
Скорость извлечения 2.8 X
Качество диапазона 99.9 %
CRC теста 9F769C22
CRC копии 9F769C22
Копирование… OK

Ошибок не произошло


AccurateRip: сводка

Трек 1 : извлечено точно (доверие 2) [3818E550] (AR v2)
Трек 2 : извлечено точно (доверие 2) [51C448C3] (AR v2)
Трек 3 : извлечено точно (доверие 2) [7B0B66DF] (AR v2)
Трек 4 : извлечено точно (доверие 2) [17102593] (AR v2)
Трек 5 : извлечено точно (доверие 2) [1F3ED030] (AR v2)
Трек 6 : извлечено точно (доверие 2) [E5788133] (AR v2)
Трек 7 : извлечено точно (доверие 2) [3880DD6B] (AR v2)

Все треки извлечены точно

Конец отчёта

==== Контрольная сумма отчёта C8C2CF5403D1DD748B468DAEEB6F2F481C252166607F00B02CCA43199A8B90F4 ====

[CUETools log; Date: 19.05.2021 14:47:27; Version: 2.1.4]
[CTDB TOCID: HVQfg8dk0Ddw3rqxZbiqTthvjgg-] found.
Track | CTDB Status
1 | (27/27) Accurately ripped
2 | (27/27) Accurately ripped
3 | (27/27) Accurately ripped
4 | (27/27) Accurately ripped
5 | (27/27) Accurately ripped
6 | (26/27) Accurately ripped
7 | (27/27) Accurately ripped
[AccurateRip ID: 0008fcd1-0039eaa6-3c097507] found.
Track [ CRC | V2 ] Status
01 [7a02a17d|3818e550] (0+7/7) Accurately ripped
02 [30664f6d|51c448c3] (0+7/7) Accurately ripped
03 [081850d0|7b0b66df] (0+7/7) Accurately ripped
04 [112e4608|17102593] (0+7/7) Accurately ripped
05 [800b83cc|1f3ed030] (0+7/7) Accurately ripped
06 [491c2c91|e5788133] (0+7/7) Accurately ripped
07 [2f15e635|3880dd6b] (0+7/7) Accurately ripped

Track Peak [ CRC32 ] [W/O NULL] [ LOG ]
– 82,7 [9F769C22] [978F2730] CRC32
01 31,0 [1EB82FB9] [98344D7C]
02 82,7 [453EBD19] [726E3E20]
03 53,8 [F2DD6FE4] [C789E4EA]
04 64,8 [27B3A44F] [47CA06E0]
05 32,3 [4B1F1764] [F083F47C]
06 81,6 [B2D32974] [0094DDB2]
07 55,3 [9117CE2A] [F1091A30]

Catherine Ribeiro + Alpes - Intégrale Des Albums Originaux 1969-1980 [9CD Box Set] (2015)

CD 3: Catherine Ribeiro + Alpes - Ame Debout (1971)
EAC Rip | FLAC (image+.cue+log) - 175 MB | MP3 CBR 320 kbps (LAME 3.93) - 82 MB
Genre: Progressive/Psychedelic Rock, Avant-Folk | RAR 3% Rec. | Label: Mercury Records (4728091)

Tracklist:
01. Âme debout
02. Diborowska
03. Alpes 1
04. Alpes 2
05. Alpilles
06. Aria populaire
07. Le kleenex, le drap de lit et l'étendard
08. Dingue

Total time: 35:11

Exact Audio Copy V1.1 from 23. June 2015

Отчёт EAC об извлечении, выполненном 1. июня 2016, 10:31

Catherine Ribeiro + Alpes / Ame Debout

Дисковод: TSSTcorpCDDVDW SH-224DB Adapter: 1 ID: 1

Режим чтения : Достоверность
Использование точного потока : Да
Отключение кэша аудио : Да
Использование указателей C2 : Нет

Коррекция смещения при чтении : 6
Способность читать области Lead-in и Lead-out : Нет
Заполнение пропущенных сэмплов тишиной : Да
Удаление блоков с тишиной в начале и конце : Нет
При вычислениях CRC использовались нулевые сэмплы : Да
Интерфейс : Встроенный Win32-интерфейс для Win NT/2000

Выходной формат : Пользовательский кодировщик
Выбранный битрейт : 896 kBit/s
Качество : Высокий
Добавление ID3-тега : Нет
Утилита сжатия : C:\Program Files (x86)\flac-1.3.1-win\win64\flac.exe
Дополнительные параметры : -V -8 -T "Date=%year%" -T "Genre=%genre%" %source%


TOC извлечённого CD

Трек | Старт | Длительность | Начальный сектор | Конечный сектор
––––––––––––––––––––––––––––––––––-
1 | 0:00.00 | 7:53.27 | 0 | 35501
2 | 7:53.27 | 3:37.40 | 35502 | 51816
3 | 11:30.67 | 5:45.26 | 51817 | 77717
4 | 17:16.18 | 6:21.28 | 77718 | 106320
5 | 23:37.46 | 1:23.33 | 106321 | 112578
6 | 25:01.04 | 2:07.01 | 112579 | 122104
7 | 27:08.05 | 3:26.00 | 122105 | 137554
8 | 30:34.05 | 4:37.09 | 137555 | 158338


Характеристики диапазона извлечения и сообщения об ошибках

Выбранный диапазон

Имя файла E:\MOVIES2\Alpes\3 - Ame Debout\Catherine Ribeiro + Alpes - Ame Debout.wav

Пиковый уровень 96.4 %
Скорость извлечения 2.7 X
Качество диапазона 99.9 %
CRC теста C688C596
CRC копии C688C596
Копирование… OK

Ошибок не произошло


AccurateRip: сводка

Трек 1 : извлечено точно (доверие 2) [884B090E] (AR v2)
Трек 2 : извлечено точно (доверие 2) [5AC4A00A] (AR v2)
Трек 3 : извлечено точно (доверие 2) [FE2CD03A] (AR v2)
Трек 4 : извлечено точно (доверие 2) [1B63EAA3] (AR v2)
Трек 5 : извлечено точно (доверие 2) [9F74EB9B] (AR v2)
Трек 6 : извлечено точно (доверие 2) [64F3CE65] (AR v2)
Трек 7 : извлечено точно (доверие 2) [6DEF7D13] (AR v2)
Трек 8 : извлечено точно (доверие 2) [641ECD17] (AR v2)

Все треки извлечены точно

Конец отчёта

==== Контрольная сумма отчёта 121125D4F3245361AB1E5035413C06C35738FF9E047F2342EB964597E705EA29 ====

[CUETools log; Date: 19.05.2021 14:48:15; Version: 2.1.4]
[CTDB TOCID: wH2ngqt6g9LzcCdcmaTEodQCadg-] found.
Track | CTDB Status
1 | (30/30) Accurately ripped
2 | (30/30) Accurately ripped
3 | (30/30) Accurately ripped
4 | (30/30) Accurately ripped
5 | (30/30) Accurately ripped
6 | (30/30) Accurately ripped
7 | (30/30) Accurately ripped
8 | (30/30) Accurately ripped
[AccurateRip ID: 000c3c90-004e3219-63083f08] found.
Track [ CRC | V2 ] Status
01 [f41a3675|884b090e] (0+7/7) Accurately ripped
02 [031d7ff4|5ac4a00a] (0+7/7) Accurately ripped
03 [09e5bb92|fe2cd03a] (0+7/7) Accurately ripped
04 [739c070f|1b63eaa3] (0+7/7) Accurately ripped
05 [c4629b08|9f74eb9b] (0+7/7) Accurately ripped
06 [dd187421|64f3ce65] (0+7/7) Accurately ripped
07 [8be4bdbc|6def7d13] (0+7/7) Accurately ripped
08 [1c61cffc|641ecd17] (0+7/7) Accurately ripped

Track Peak [ CRC32 ] [W/O NULL] [ LOG ]
– 96,4 [C688C596] [721E9947] CRC32
01 81,1 [225B9A57] [2F7DA8F0]
02 64,7 [1DF44E32] [DDAE6822]
03 96,4 [CF8DFE83] [15A237D3]
04 96,3 [CE6A4A53] [C975341D]
05 64,4 [33F16DD5] [B684BB59]
06 73,8 [F6E7DEE1] [E1BCA22F]
07 59,6 [D1902614] [C838544B]
08 84,2 [55093337] [5C177A80]

Catherine Ribeiro + Alpes - Intégrale Des Albums Originaux 1969-1980 [9CD Box Set] (2015)

CD 4: Catherine Ribeiro + Alpes - Paix (1972)
EAC Rip | FLAC (image+.cue+log) - 257 MB | MP3 CBR 320 kbps (LAME 3.93) - 109 MB
Genre: Progressive/Psychedelic Rock, Avant-Folk | RAR 3% Rec. | Label: Mercury Records (4728095)

Tracklist:
01. Roc alpin
02. Jusqu'a ce que la force de t'aimer me manque
03. Paix
04. Un jour… La mort

Total time: 46:36

Exact Audio Copy V1.1 from 23. June 2015

Отчёт EAC об извлечении, выполненном 1. июня 2016, 10:47

Catherine Ribeiro + Alpes / Paix

Дисковод: TSSTcorpCDDVDW SH-224DB Adapter: 1 ID: 1

Режим чтения : Достоверность
Использование точного потока : Да
Отключение кэша аудио : Да
Использование указателей C2 : Нет

Коррекция смещения при чтении : 6
Способность читать области Lead-in и Lead-out : Нет
Заполнение пропущенных сэмплов тишиной : Да
Удаление блоков с тишиной в начале и конце : Нет
При вычислениях CRC использовались нулевые сэмплы : Да
Интерфейс : Встроенный Win32-интерфейс для Win NT/2000

Выходной формат : Пользовательский кодировщик
Выбранный битрейт : 896 kBit/s
Качество : Высокий
Добавление ID3-тега : Нет
Утилита сжатия : C:\Program Files (x86)\flac-1.3.1-win\win64\flac.exe
Дополнительные параметры : -V -8 -T "Date=%year%" -T "Genre=%genre%" %source%


TOC извлечённого CD

Трек | Старт | Длительность | Начальный сектор | Конечный сектор
––––––––––––––––––––––––––––––––––-
1 | 0:00.00 | 3:04.59 | 0 | 13858
2 | 3:04.59 | 3:00.20 | 13859 | 27378
3 | 6:05.04 | 15:49.25 | 27379 | 98578
4 | 21:54.29 | 24:41.27 | 98579 | 209680


Характеристики диапазона извлечения и сообщения об ошибках

Выбранный диапазон

Имя файла E:\MOVIES2\Alpes\4 - Paix\Catherine Ribeiro + Alpes - Paix.wav

Пиковый уровень 99.5 %
Скорость извлечения 7.3 X
Качество диапазона 100.0 %
CRC теста 5F0574C2
CRC копии 5F0574C2
Копирование… OK

Ошибок не произошло


AccurateRip: сводка

Трек 1 : извлечено точно (доверие 2) [A114F9F1] (AR v2)
Трек 2 : извлечено точно (доверие 2) [452DDA48] (AR v2)
Трек 3 : извлечено точно (доверие 2) [1D0FDCF0] (AR v2)
Трек 4 : извлечено точно (доверие 2) [93267780] (AR v2)

Все треки извлечены точно

Конец отчёта

==== Контрольная сумма отчёта EEA5DFADE073C6EA1020BB1845AF6B4AA2B57F5A29A3CE393C79191ADE5376AE ====

[CUETools log; Date: 19.05.2021 14:49:47; Version: 2.1.4]
[CTDB TOCID: WNSSlj0m4acR2TIqlq.1wHb9Fgc-] found.
Track | CTDB Status
1 | (28/28) Accurately ripped
2 | (28/28) Accurately ripped
3 | (27/28) Accurately ripped
4 | (28/28) Accurately ripped
[AccurateRip ID: 0005553a-0017b0c1-2c0aeb04] found.
Track [ CRC | V2 ] Status
01 [c38806fc|a114f9f1] (0+7/7) Accurately ripped
02 [2abfca31|452dda48] (0+7/7) Accurately ripped
03 [7842b522|1d0fdcf0] (0+7/7) Accurately ripped
04 [ea6ae51b|93267780] (0+7/7) Accurately ripped

Track Peak [ CRC32 ] [W/O NULL] [ LOG ]
– 99,5 [5F0574C2] [1DF46645] CRC32
01 99,5 [C2137924] [2ED09627]
02 90,1 [5D6B1C35] [38F5D584]
03 90,0 [A9245956] [8A1F05C2]
04 94,4 [7BB38BB9] [CD577927]

Catherine Ribeiro + Alpes - Intégrale Des Albums Originaux 1969-1980 [9CD Box Set] (2015)

CD 5: Catherine Ribeiro + Alpes - Le Rat Débile Et L'Homme Des Champs (1974)
EAC Rip | FLAC (image+.cue+log) - 270 MB | MP3 CBR 320 kbps (LAME 3.93) - 114 MB
Genre: Progressive/Psychedelic Rock, Avant-Folk | RAR 3% Rec. | Label: Mercury Records (4728105)

Tracklist:
01. La petite fille aux fraises
02. L'ère de la putréfaction (Concerto alpin en 4 mouvements)
a) Prélude
b) 1er mouvement
c) 2e mouvement
d) Finale
03. Un regard clair (Obscur)
04. Poème non épique (suite) (Concerto alpin en 6 mouvements)
a) Prélude percuphonique
b) Prélude N° 1
c) Prélude N° 2
d) Poème non épique
e) Finale N° 1
f) Finale N° 2

Total time: 48:28

Exact Audio Copy V1.1 from 23. June 2015

Отчёт EAC об извлечении, выполненном 1. июня 2016, 17:22

Catherine Ribeiro + Alpes / Le Rat Debile Et L'Homme Des Champs

Дисковод: TSSTcorpCDDVDW SH-224DB Adapter: 1 ID: 1

Режим чтения : Достоверность
Использование точного потока : Да
Отключение кэша аудио : Да
Использование указателей C2 : Нет

Коррекция смещения при чтении : 6
Способность читать области Lead-in и Lead-out : Нет
Заполнение пропущенных сэмплов тишиной : Да
Удаление блоков с тишиной в начале и конце : Нет
При вычислениях CRC использовались нулевые сэмплы : Да
Интерфейс : Встроенный Win32-интерфейс для Win NT/2000

Выходной формат : Пользовательский кодировщик
Выбранный битрейт : 896 kBit/s
Качество : Высокий
Добавление ID3-тега : Нет
Утилита сжатия : C:\Program Files (x86)\flac-1.3.1-win\win64\flac.exe
Дополнительные параметры : -V -8 -T "Date=%year%" -T "Genre=%genre%" %source%


TOC извлечённого CD

Трек | Старт | Длительность | Начальный сектор | Конечный сектор
––––––––––––––––––––––––––––––––––-
1 | 0:00.00 | 5:11.27 | 0 | 23351
2 | 5:11.27 | 13:05.29 | 23352 | 82255
3 | 18:16.56 | 4:48.47 | 82256 | 103902
4 | 23:05.28 | 25:22.63 | 103903 | 218115


Характеристики диапазона извлечения и сообщения об ошибках

Выбранный диапазон

Имя файла E:\MOVIES2\Alpes\5 - Le Rat Debile Et L'Homme Des Champs\Catherine Ribeiro + Alpes - Le Rat Debile Et L'Homme Des Champs.wav

Пиковый уровень 99.6 %
Скорость извлечения 7.4 X
Качество диапазона 100.0 %
CRC теста 9D3DD49C
CRC копии 9D3DD49C
Копирование… OK

Ошибок не произошло


AccurateRip: сводка

Трек 1 : извлечено точно (доверие 2) [4A55E2E0] (AR v2)
Трек 2 : извлечено точно (доверие 2) [E32B13AE] (AR v2)
Трек 3 : извлечено точно (доверие 2) [89E68912] (AR v2)
Трек 4 : извлечено точно (доверие 2) [855F2372] (AR v2)

Все треки извлечены точно

Конец отчёта

==== Контрольная сумма отчёта B27A803F7C47A0AEFD8B52799CB2F5880369897E4EE96EB4FFB7073A77262795 ====

[CUETools log; Date: 19.05.2021 14:50:25; Version: 2.1.4]
[CTDB TOCID: p5biJnjCSkHDPCQD1EV0M8Pdzgc-] found.
Track | CTDB Status
1 | (28/29) Accurately ripped
2 | (28/29) Accurately ripped
3 | (27/29) Accurately ripped
4 | (28/29) Accurately ripped
[AccurateRip ID: 0006866b-001b75f1-2e0b5c04] found.
Track [ CRC | V2 ] Status
01 [a124d3f4|4a55e2e0] (0+7/7) Accurately ripped
02 [2d41fb4d|e32b13ae] (0+7/7) Accurately ripped
03 [da95e2f6|89e68912] (0+7/7) Accurately ripped
04 [91d427c0|855f2372] (0+7/7) Accurately ripped

Track Peak [ CRC32 ] [W/O NULL] [ LOG ]
– 99,6 [9D3DD49C] [B90B3C18] CRC32
01 90,5 [4EDCC320] [F6A1EFE4]
02 96,6 [CBE08A47] [F72AFCF2]
03 89,9 [7C77FAA3] [C14AA363]
04 99,6 [C1E5D842] [9A4C8C69]

Catherine Ribeiro + Alpes - Intégrale Des Albums Originaux 1969-1980 [9CD Box Set] (2015)

CD 6: Catherine Ribeiro + Alpes - (Libertés ?) (1975)
EAC Rip | FLAC (image+.cue+log) - 211 MB | MP3 CBR 320 kbps (LAME 3.93) - 98 MB
Genre: Progressive/Psychedelic Rock, Avant-Folk | RAR 3% Rec. | Label: Mercury Records (4728113)

Tracklist:
01. Une infinie tendresse
02. Prélude médiéval
03. Parle-moi d'un homme heureux
04. Qui a parlé de fin?
05. Poème non épique nº III - Concerto alpin en 3 mouvements et un tombé
a) Prélude N°3
b) Poème non épique
c) Tombé

Total time: 41:36

Exact Audio Copy V1.1 from 23. June 2015

Отчёт EAC об извлечении, выполненном 1. июня 2016, 17:38

Catherine Ribeiro + Alpes / (Libertés ?)

Дисковод: TSSTcorpCDDVDW SH-224DB Adapter: 1 ID: 1

Режим чтения : Достоверность
Использование точного потока : Да
Отключение кэша аудио : Да
Использование указателей C2 : Нет

Коррекция смещения при чтении : 6
Способность читать области Lead-in и Lead-out : Нет
Заполнение пропущенных сэмплов тишиной : Да
Удаление блоков с тишиной в начале и конце : Нет
При вычислениях CRC использовались нулевые сэмплы : Да
Интерфейс : Встроенный Win32-интерфейс для Win NT/2000

Выходной формат : Пользовательский кодировщик
Выбранный битрейт : 896 kBit/s
Качество : Высокий
Добавление ID3-тега : Нет
Утилита сжатия : C:\Program Files (x86)\flac-1.3.1-win\win64\flac.exe
Дополнительные параметры : -V -8 -T "Date=%year%" -T "Genre=%genre%" %source%


TOC извлечённого CD

Трек | Старт | Длительность | Начальный сектор | Конечный сектор
––––––––––––––––––––––––––––––––––-
1 | 0:00.00 | 6:01.14 | 0 | 27088
2 | 6:01.14 | 2:52.74 | 27089 | 40062
3 | 8:54.13 | 5:18.57 | 40063 | 63969
4 | 14:12.70 | 4:45.50 | 63970 | 85394
5 | 18:58.45 | 22:36.73 | 85395 | 187167


Характеристики диапазона извлечения и сообщения об ошибках

Выбранный диапазон

Имя файла E:\MOVIES2\Alpes\6 - (Libertes)\Catherine Ribeiro + Alpes - (Libertés ).wav

Пиковый уровень 97.5 %
Скорость извлечения 7.2 X
Качество диапазона 100.0 %
CRC теста 92AC2593
CRC копии 92AC2593
Копирование… OK

Ошибок не произошло


AccurateRip: сводка

Трек 1 : извлечено точно (доверие 3) [59003078] (AR v2)
Трек 2 : извлечено точно (доверие 3) [70DE68AF] (AR v2)
Трек 3 : извлечено точно (доверие 3) [B69CD34A] (AR v2)
Трек 4 : извлечено точно (доверие 3) [4541D806] (AR v2)
Трек 5 : извлечено точно (доверие 3) [71D6A5A9] (AR v2)

Все треки извлечены точно

Конец отчёта

==== Контрольная сумма отчёта 025472CBFBA079DE4853F94912D0DD907FA9435D784C4714D6EF84B3ACA30364 ====

[CUETools log; Date: 19.05.2021 14:51:46; Version: 2.1.4]
[CTDB TOCID: pc4CFky2dLkQUywAzMZIiQKdq1o-] found.
Track | CTDB Status
1 | (29/29) Accurately ripped
2 | (29/29) Accurately ripped
3 | (28/29) Accurately ripped
4 | (28/29) Accurately ripped
5 | (29/29) Accurately ripped
[AccurateRip ID: 000628e5-001e3747-3309bf05] found.
Track [ CRC | V2 ] Status
01 [e4834fa2|59003078] (0+8/8) Accurately ripped
02 [cc224641|70de68af] (0+8/8) Accurately ripped
03 [e765841f|b69cd34a] (0+8/8) Accurately ripped
04 [01c0ed00|4541d806] (0+8/8) Accurately ripped
05 [421dac79|71d6a5a9] (0+8/8) Accurately ripped

Track Peak [ CRC32 ] [W/O NULL] [ LOG ]
– 97,5 [92AC2593] [8223446D] CRC32
01 72,5 [1C98E687] [42B2B7B2]
02 89,0 [94BF77DA] [CC676D37]
03 68,4 [CD7CCD4F] [602D9605]
04 16,2 [AE06F26B] [9686C748]
05 97,5 [B9D20274] [16F2E449]

Catherine Ribeiro + Alpes - Intégrale Des Albums Originaux 1969-1980 [9CD Box Set] (2015)

CD 7: Catherine Ribeiro + Alpes - Le Temps De L'Autre (1977)
EAC Rip | FLAC (image+.cue+log) - 240 MB | MP3 CBR 320 kbps (LAME 3.93) - 99 MB
Genre: Progressive/Psychedelic Rock, Avant-Folk | RAR 3% Rec. | Label: Mercury Records (4728120)

Tracklist:
01. Le temps de l'autre
02. Cette voix
03. Aimer quoi qu'il arrive
04. Le silence de la mort
05. Kel epik epok opak! (Quelle épique époque opaque)

Total time: 42:14

Exact Audio Copy V1.1 from 23. June 2015

Отчёт EAC об извлечении, выполненном 1. июня 2016, 18:08

Catherine Ribeiro + Alpes / "le temps de l'autre"

Дисковод: TSSTcorpCDDVDW SH-224DB Adapter: 1 ID: 1

Режим чтения : Достоверность
Использование точного потока : Да
Отключение кэша аудио : Да
Использование указателей C2 : Нет

Коррекция смещения при чтении : 6
Способность читать области Lead-in и Lead-out : Нет
Заполнение пропущенных сэмплов тишиной : Да
Удаление блоков с тишиной в начале и конце : Нет
При вычислениях CRC использовались нулевые сэмплы : Да
Интерфейс : Встроенный Win32-интерфейс для Win NT/2000

Выходной формат : Пользовательский кодировщик
Выбранный битрейт : 896 kBit/s
Качество : Высокий
Добавление ID3-тега : Нет
Утилита сжатия : C:\Program Files (x86)\flac-1.3.1-win\win64\flac.exe
Дополнительные параметры : -V -8 -T "Date=%year%" -T "Genre=%genre%" %source%


TOC извлечённого CD

Трек | Старт | Длительность | Начальный сектор | Конечный сектор
––––––––––––––––––––––––––––––––––-
1 | 0:00.00 | 7:32.29 | 0 | 33928
2 | 7:32.29 | 8:54.44 | 33929 | 74022
3 | 16:26.73 | 5:53.26 | 74023 | 100523
4 | 22:20.24 | 10:13.07 | 100524 | 146505
5 | 32:33.31 | 9:40.38 | 146506 | 190043


Характеристики диапазона извлечения и сообщения об ошибках

Выбранный диапазон

Имя файла E:\MOVIES2\Alpes\7 - Le Temps De L'Ature\Catherine Ribeiro + Alpes - ''le temps de l'autre''.wav

Пиковый уровень 97.4 %
Скорость извлечения 7.2 X
Качество диапазона 100.0 %
CRC теста B0E20D7C
CRC копии B0E20D7C
Копирование… OK

Ошибок не произошло


AccurateRip: сводка

Трек 1 : извлечено точно (доверие 2) [7491AFEF] (AR v2)
Трек 2 : извлечено точно (доверие 2) [6F184CDD] (AR v2)
Трек 3 : извлечено точно (доверие 2) [BC9ABE2B] (AR v2)
Трек 4 : извлечено точно (доверие 2) [5CD6F3FC] (AR v2)
Трек 5 : извлечено точно (доверие 2) [1A9EBC24] (AR v2)

Все треки извлечены точно

Конец отчёта

==== Контрольная сумма отчёта 1601C621E28190BAAE46AD2107AAFCB4C35293E19A444517578F00EBC8C28C98 ====

[CUETools log; Date: 19.05.2021 14:52:29; Version: 2.1.4]
[CTDB TOCID: VvsmYv25_GozTZDJ8Q4FrSCyOn4-] found.
Track | CTDB Status
1 | (29/29) Accurately ripped
2 | (29/29) Accurately ripped
3 | (29/29) Accurately ripped
4 | (29/29) Accurately ripped
5 | (29/29) Accurately ripped
[AccurateRip ID: 00085102-002722d2-4609e505] found.
Track [ CRC | V2 ] Status
01 [5b222f92|7491afef] (0+7/7) Accurately ripped
02 [417b4751|6f184cdd] (0+7/7) Accurately ripped
03 [ab4a3270|bc9abe2b] (0+7/7) Accurately ripped
04 [57ca0669|5cd6f3fc] (0+7/7) Accurately ripped
05 [8a74c898|1a9ebc24] (0+7/7) Accurately ripped

Track Peak [ CRC32 ] [W/O NULL] [ LOG ]
– 97,4 [B0E20D7C] [24CA1957] CRC32
01 97,4 [9183661A] [4890CB5A]
02 69,3 [C767DAD2] [FC59AC62]
03 87,4 [FEFD3331] [6AB6D1F6]
04 70,0 [1AAFF4B6] [49BEA4EB]
05 79,2 [D3E5C42C] [3B775AED]

Catherine Ribeiro + Alpes - Intégrale Des Albums Originaux 1969-1980 [9CD Box Set] (2015)

CD 8: Catherine Ribeiro + Alpes - Passions (1979)
EAC Rip | FLAC (image+.cue+log) - 270 MB | MP3 CBR 320 kbps (LAME 3.93) - 100 MB
Genre: Progressive/Psychedelic Rock, Avant-Folk | RAR 3% Rec. | Label: Mercury Records (4728215)

Tracklist:
01. Iona mélodie
02. Frères humains
03. Cristalpin (Instrumental)
04. Prélude (Instrumental)
05. Tous les droits sont dans la nature
06. L'oiseau devant la porte
07. Alpinette (Instrumental)
08. Femme-témoin
09. Détournements de chants

Total time: 42:49

Exact Audio Copy V1.1 from 23. June 2015

Отчёт EAC об извлечении, выполненном 1. июня 2016, 18:26

Catherine Ribeiro + Alpes / Passions

Дисковод: TSSTcorpCDDVDW SH-224DB Adapter: 1 ID: 1

Режим чтения : Достоверность
Использование точного потока : Да
Отключение кэша аудио : Да
Использование указателей C2 : Нет

Коррекция смещения при чтении : 6
Способность читать области Lead-in и Lead-out : Нет
Заполнение пропущенных сэмплов тишиной : Да
Удаление блоков с тишиной в начале и конце : Нет
При вычислениях CRC использовались нулевые сэмплы : Да
Интерфейс : Встроенный Win32-интерфейс для Win NT/2000

Выходной формат : Пользовательский кодировщик
Выбранный битрейт : 896 kBit/s
Качество : Высокий
Добавление ID3-тега : Нет
Утилита сжатия : C:\Program Files (x86)\flac-1.3.1-win\win64\flac.exe
Дополнительные параметры : -V -8 -T "Date=%year%" -T "Genre=%genre%" %source%


TOC извлечённого CD

Трек | Старт | Длительность | Начальный сектор | Конечный сектор
––––––––––––––––––––––––––––––––––-
1 | 0:00.00 | 4:35.11 | 0 | 20635
2 | 4:35.11 | 4:48.51 | 20636 | 42286
3 | 9:23.62 | 3:52.56 | 42287 | 59742
4 | 13:16.43 | 0:58.18 | 59743 | 64110
5 | 14:14.61 | 7:15.41 | 64111 | 96776
6 | 21:30.27 | 11:08.61 | 96777 | 146937
7 | 32:39.13 | 2:10.61 | 146938 | 156748
8 | 34:49.74 | 3:35.32 | 156749 | 172905
9 | 38:25.31 | 4:23.35 | 172906 | 192665


Характеристики диапазона извлечения и сообщения об ошибках

Выбранный диапазон

Имя файла E:\MOVIES2\Alpes\8 - Passions\Catherine Ribeiro + Alpes - Passions.wav

Пиковый уровень 99.4 %
Скорость извлечения 7.2 X
Качество диапазона 100.0 %
CRC теста 389321F4
CRC копии 389321F4
Копирование… OK

Ошибок не произошло


AccurateRip: сводка

Трек 1 : извлечено точно (доверие 2) [25F0971D] (AR v2)
Трек 2 : извлечено точно (доверие 2) [3F220870] (AR v2)
Трек 3 : извлечено точно (доверие 2) [F5E814B5] (AR v2)
Трек 4 : извлечено точно (доверие 2) [D7147840] (AR v2)
Трек 5 : извлечено точно (доверие 2) [16CA3E5A] (AR v2)
Трек 6 : извлечено точно (доверие 2) [10875C79] (AR v2)
Трек 7 : извлечено точно (доверие 2) [813799B5] (AR v2)
Трек 8 : извлечено точно (доверие 2) [69D9C29F] (AR v2)
Трек 9 : извлечено точно (доверие 2) [BAE8169B] (AR v2)

Все треки извлечены точно

Конец отчёта

==== Контрольная сумма отчёта 2D788DF4667CA974CE1CB6DD28DCA044D74951891C82DC482CCAD96F310C4DB6 ====

[CUETools log; Date: 19.05.2021 14:53:11; Version: 2.1.4]
[CTDB TOCID: w_HtdhLdYLZ4eIe8ldzpE9mlzP0-] found.
Track | CTDB Status
1 | (33/34) Accurately ripped
2 | (33/34) Accurately ripped
3 | (33/34) Accurately ripped
4 | (34/34) Accurately ripped
5 | (33/34) Accurately ripped
6 | (33/34) Accurately ripped
7 | (33/34) Accurately ripped
8 | (33/34) Accurately ripped
9 | (33/34) Accurately ripped
[AccurateRip ID: 000e89ed-006bef9f-840a0809] found.
Track [ CRC | V2 ] Status
01 [977813c0|25f0971d] (0+7/7) Accurately ripped
02 [706af8eb|3f220870] (0+7/7) Accurately ripped
03 [5f96df4c|f5e814b5] (0+7/7) Accurately ripped
04 [686870a7|d7147840] (0+7/7) Accurately ripped
05 [612bedc7|16ca3e5a] (0+7/7) Accurately ripped
06 [d1a32641|10875c79] (0+7/7) Accurately ripped
07 [d4f60448|813799b5] (0+7/7) Accurately ripped
08 [25c53f5e|69d9c29f] (0+7/7) Accurately ripped
09 [0ac75e4e|bae8169b] (0+7/7) Accurately ripped

Track Peak [ CRC32 ] [W/O NULL] [ LOG ]
– 99,4 [389321F4] [8FA86B8C] CRC32
01 97,7 [1B896605] [F6CD4F81]
02 92,3 [660A33CE] [7342C195]
03 82,1 [7A26FC42] [3914BFD4]
04 98,0 [07AF51B1] [E616F083]
05 98,2 [BDF922D2] [C5FECECA]
06 99,4 [2B4119C4] [90D42DBE]
07 55,4 [C557D310] [C6843774]
08 97,4 [517E4BBF] [CD2AE04F]
09 79,7 [0C1E85A9] [74555F3D]

Catherine Ribeiro + Alpes - Intégrale Des Albums Originaux 1969-1980 [9CD Box Set] (2015)

CD 9: Catherine Ribeiro + Alpes - La Deboussole (1980)
EAC Rip | FLAC (image+.cue+log) - 250 MB | MP3 CBR 320 kbps (LAME 3.93) - 90 MB
Genre: Progressive/Psychedelic Rock, Avant-Folk | RAR 3% Rec. | Label: Mercury Records (4728219)

Tracklist:
01. La vie en bref
02. Voyage au fond de l'amour
03. La grande déglingue
04. Ne pas partir - Ne pas mourir
05. Dis-moi qui tu embrasses
06. La nuit des errants
07. La parole est à la victime
08. Paix 80 (Nouvelle version)
a) Prélude
b) 1er mouvement
c) 2e mouvement
d) 3e mouvement

Total time: 38:23

Exact Audio Copy V1.1 from 23. June 2015

Отчёт EAC об извлечении, выполненном 1. июня 2016, 18:44

Catherine Ribeiro + Alpes / "la déboussole"

Дисковод: TSSTcorpCDDVDW SH-224DB Adapter: 1 ID: 1

Режим чтения : Достоверность
Использование точного потока : Да
Отключение кэша аудио : Да
Использование указателей C2 : Нет

Коррекция смещения при чтении : 6
Способность читать области Lead-in и Lead-out : Нет
Заполнение пропущенных сэмплов тишиной : Да
Удаление блоков с тишиной в начале и конце : Нет
При вычислениях CRC использовались нулевые сэмплы : Да
Интерфейс : Встроенный Win32-интерфейс для Win NT/2000

Выходной формат : Пользовательский кодировщик
Выбранный битрейт : 896 kBit/s
Качество : Высокий
Добавление ID3-тега : Нет
Утилита сжатия : C:\Program Files (x86)\flac-1.3.1-win\win64\flac.exe
Дополнительные параметры : -V -8 -T "Date=%year%" -T "Genre=%genre%" %source%


TOC извлечённого CD

Трек | Старт | Длительность | Начальный сектор | Конечный сектор
––––––––––––––––––––––––––––––––––-
1 | 0:00.00 | 3:36.03 | 0 | 16202
2 | 3:36.03 | 3:02.17 | 16203 | 29869
3 | 6:38.20 | 3:24.60 | 29870 | 45229
4 | 10:03.05 | 2:19.60 | 45230 | 55714
5 | 12:22.65 | 5:30.13 | 55715 | 80477
6 | 17:53.03 | 5:30.17 | 80478 | 105244
7 | 23:23.20 | 3:03.25 | 105245 | 118994
8 | 26:26.45 | 11:56.25 | 118995 | 172719


Характеристики диапазона извлечения и сообщения об ошибках

Выбранный диапазон

Имя файла E:\MOVIES2\Alpes\09 - La Deboussole\Catherine Ribeiro + Alpes - ''la déboussole''.wav

Пиковый уровень 90.3 %
Скорость извлечения 7.0 X
Качество диапазона 100.0 %
CRC теста 76BF9CC0
CRC копии 76BF9CC0
Копирование… OK

Ошибок не произошло


AccurateRip: сводка

Трек 1 : извлечено точно (доверие 2) [EE44EC6D] (AR v2)
Трек 2 : извлечено точно (доверие 2) [78BFDCCE] (AR v2)
Трек 3 : извлечено точно (доверие 2) [ACBD8B66] (AR v2)
Трек 4 : извлечено точно (доверие 2) [9C45BE5F] (AR v2)
Трек 5 : извлечено точно (доверие 2) [4AA4FABB] (AR v2)
Трек 6 : извлечено точно (доверие 2) [4C20E5A6] (AR v2)
Трек 7 : извлечено точно (доверие 2) [1CA5D24B] (AR v2)
Трек 8 : извлечено точно (доверие 2) [509E64E1] (AR v2)

Все треки извлечены точно

Конец отчёта

==== Контрольная сумма отчёта 30C45F536C84A27F20D614173737F0407C14089FF9D3EEE91E2BA43B1FFD80A9 ====

[CUETools log; Date: 19.05.2021 14:54:43; Version: 2.1.4]
[CTDB TOCID: RvGhvhyHPbBAysQL1G686aCsPs4-] found.
Track | CTDB Status
1 | (31/32) Accurately ripped
2 | (31/32) Accurately ripped
3 | (30/32) Accurately ripped
4 | (31/32) Accurately ripped
5 | (31/32) Accurately ripped
6 | (31/32) Accurately ripped
7 | (31/32) Accurately ripped
8 | (30/32) Accurately ripped
[AccurateRip ID: 00098748-0041ba4f-5808fe08] found.
Track [ CRC | V2 ] Status
01 [c1ff49ed|ee44ec6d] (0+7/7) Accurately ripped
02 [be28563a|78bfdcce] (0+7/7) Accurately ripped
03 [2e876976|acbd8b66] (0+7/7) Accurately ripped
04 [e5953714|9c45be5f] (0+7/7) Accurately ripped
05 [3382c027|4aa4fabb] (0+7/7) Accurately ripped
06 [15ceedf8|4c20e5a6] (0+7/7) Accurately ripped
07 [e8f916dd|1ca5d24b] (0+7/7) Accurately ripped
08 [0ff5fd98|509e64e1] (0+7/7) Accurately ripped

Track Peak [ CRC32 ] [W/O NULL] [ LOG ]
– 90,3 [76BF9CC0] [FABA1031] CRC32
01 87,0 [ED61AD2A] [4074A624]
02 71,1 [507B8C72] [00927E4F]
03 87,0 [248F9498] [1BE510E9]
04 87,0 [2CB42607] [D8A9888C]
05 88,2 [9003EAE2] [F944ED28]
06 77,5 [19635B41] [751016C5]
07 83,4 [3319D0DE] [91D1320B]
08 90,3 [4C24A7D4] [FA7BB048]

Thanks to Quizzus