Tags
Language
Tags

Chicken Shack - Complete Blue Horizon Sessions (2005) 3CD Set [Re-Up]

Posted By: Designol
Chicken Shack - Complete Blue Horizon Sessions (2005) 3CD Set [Re-Up]

Chicken Shack - Complete Blue Horizon Sessions (2005) 3CD Box Set
EAC | FLAC | Image (Cue&Log) ~ 1.17 Gb | Mp3 (CBR320) ~ 477 Mb | Scans included
British Blues, Blues-Rock | Label: Sony BMG | # 82876734842 | Time: 03:17:12

55 tracks, 3 CD set from 60's blues band on the famous Blue Horizon label. The band included Christine Perfect (who married John McVie & joined Fleetwood Mac) & Stan Webb. All tracks restored & remastered by Blue Horizon founder Mike Vernon, with previously unreleased material, detailed liner notes & new photos.

Formed and led by guitarist/vocalist Stan Webb, Chicken Shack were one of the first bands to be signed to the Blue Horizon label in the mid-'60s. As of this compilation's release in 2006, Webb was still fronting a version of the group. While never attaining any success in the States, Chicken Shack were well known in the U.K., with fleeting success second only to John Mayall and labelmates Fleetwood Mac. Webb's Freddie King-styled guitar and vocalist/pianist Christine Perfect's (later McVie) singing were the major draws to this second-tier British blues band, but neither were strong enough to carry the group's success to the U.S. market. This three-disc set collects the band's entire output for the imprint from 1967-1969 and includes alternate takes, singles, and B-sides (56 tracks in all), and also features terrific liner notes by label head/producer Mike Vernon. Perfect stayed for two of four releases for the label, exiting before the recording of 1969's 100 Ton Chicken. Hence she appears on about half of this disc, leaving after the U.K. hit single "I'd Rather Go Blind." Webb's often wobbly but amiable singing is an acquired taste, so Perfect's husky, smooth vocals and classy blues piano runs were major contributions to the band, and strong points they never adequately replaced. Occasional use of horns distinguished Chicken Shack from both Mac and Savoy Brown, another band very much in the Shack style and one with whom they swapped members. These three discs include the contents of four albums and assorted singles, with much of this music hard to obtain. The remastering is excellent, too, and it's safe to say that Chicken Shack have never sounded better. But the band wasn't strong or innovative enough to maintain interest over these four albums, making this all-inclusive set essential only for fans, collectors, and those looking to research the roots of Christine Perfect's pre-Fleetwood Mac sultry blues-tinged pop. Everyone else can make due with 2004's The Very Best of Chicken Shack, a single disc that cherry-picks the better tunes from the Blue Horizon era.

Review by Hal Horowitz, Allmusic.com

Chicken Shack - Complete Blue Horizon Sessions (2005) 3CD Set [Re-Up]



Tracklist:

CD1:

01. It's Okay With Me Baby (02:37)
02. When My Left Eye Jumps (06:27)
03. The Letter (04:26)
04. Lonesome Whistle Blues (03:01)
05. When The Train Comes Back (03:31)
06. San-Ho-Zay (03:03)
07. King Of The World (04:59)
08. See See Baby (02:22)
09. First Time I Met The Blues (06:24)
10. Webbed Feet (02:52)
11. You Ain't No Good (03:35)
12. What You Did Last Night (04:38)
13. Hey Baby (03:40)
14. Baby's Got Me Crying (02:26)
15. The Right Way Is My Way (01:58)
16. Get Like You Used To Be (03:07)
17. Pony And Trap (03:01)
18. Tell Me (04:36)
19. A Woman Is The Blues (02:55)
20. When The Train Comes Back (Single Version) (03:33)

CD2:

01. Worried About My Woman (02:35)
02. Six Nights In Seven (04:55)
03. I Wanna See My Baby (03:28)
04. Remington Ride (02:49)
05. Fishing In Your River (04:25)
06. Mean Old World (03:12)
07. Sweet Sixteen (06:04)
08. I'd Rather Go Blind (03:13)
09. Night Life (05:20)
10. The Road Of Love (03:29)
11. Look Ma, I'm Cryin' (03:23)
12. Evelyn (04:15)
13. Reconsider Baby (03:20)
14. Weekend Love (02:11)
15. Midnight Hour (02:52)
16. Tears In The Wind (02:41)
17. Horse & Cart (03:34)
18. The Way It Is (04:24)
19. Still Worried About My Woman (03:08)
20. Anji (01:36)

CD3:

01. Smartest Girl In Town (03:08)
02. Hideaway (05:06)
03. The Things You Put Me Through (03:51)
04. Diary Of Your Life (03:03)
05. Pocket (03:21)
06. Never Ever (02:41)
07. Sad Clown (02:39)
08. Maudie (02:51)
09. Telling Your Fortune (04:20)
10. Tired Eyes (02:03)
11. Some Other Time (03:04)
12. Going Round (02:29)
13. Andalucian Blues (02:18)
14. You Know You Did You Did (02:23)
15. She Didn't Use Her Loaf (04:10)
16. Maudie (single version) (03:00)


Exact Audio Copy V0.99 prebeta 4 from 23. January 2008

EAC extraction logfile from 14. July 2008, 19:32

Chicken Shack / The Complete Blue Horizon Sessions (Disc 1)

Used drive : PIONEER DVD-RW DVR-112D Adapter: 1 ID: 1

Read mode : Secure
Utilize accurate stream : Yes
Defeat audio cache : Yes
Make use of C2 pointers : No

Read offset correction : 48
Overread into Lead-In and Lead-Out : No
Fill up missing offset samples with silence : Yes
Delete leading and trailing silent blocks : No
Null samples used in CRC calculations : Yes
Used interface : Native Win32 interface for Win NT & 2000

Used output format : Monkey's Audio Lossless Encoder
Selected bitrate : Normal Lossless Compression
Quality : High
Add ID3 tag : Yes
Command line compressor : C:\Program Files\Burrrn\MAC.exe


TOC of the extracted CD

Track | Start | Length | Start sector | End sector
––––––––––––––––––––––––––––-
1 | 0:00.00 | 2:39.38 | 0 | 11962
2 | 2:39.38 | 6:29.71 | 11963 | 41208
3 | 9:09.34 | 4:29.25 | 41209 | 61408
4 | 13:38.59 | 3:04.73 | 61409 | 75281
5 | 16:43.57 | 3:33.12 | 75282 | 91268
6 | 20:16.69 | 3:05.36 | 91269 | 105179
7 | 23:22.30 | 5:03.03 | 105180 | 127907
8 | 28:25.33 | 2:25.63 | 127908 | 138845
9 | 30:51.21 | 6:27.39 | 138846 | 167909
10 | 37:18.60 | 2:55.30 | 167910 | 181064
11 | 40:14.15 | 3:38.30 | 181065 | 197444
12 | 43:52.45 | 4:41.65 | 197445 | 218584
13 | 48:34.35 | 3:43.04 | 218585 | 235313
14 | 52:17.39 | 2:29.49 | 235314 | 246537
15 | 54:47.13 | 2:01.24 | 246538 | 255636
16 | 56:48.37 | 3:10.17 | 255637 | 269903
17 | 59:58.54 | 3:04.65 | 269904 | 283768
18 | 63:03.44 | 4:38.68 | 283769 | 304686
19 | 67:42.37 | 2:58.46 | 304687 | 318082
20 | 70:41.08 | 3:33.62 | 318083 | 334119


Range status and errors

Selected range

Filename C:\EAC ape\Chicken Shack - The Complete Blue Horizon Sessions (Disc 1).wav

Peak level 97.2 %
Range quality 99.9 %
Copy CRC 470EE526
Copy OK

No errors occurred


AccurateRip summary

Track 1 not present in database
Track 2 not present in database
Track 3 not present in database
Track 4 not present in database
Track 5 not present in database
Track 6 not present in database
Track 7 not present in database
Track 8 not present in database
Track 9 not present in database
Track 10 not present in database
Track 11 not present in database
Track 12 not present in database
Track 13 not present in database
Track 14 not present in database
Track 15 not present in database
Track 16 not present in database
Track 17 not present in database
Track 18 not present in database
Track 19 not present in database
Track 20 not present in database

None of the tracks are present in the AccurateRip database

End of status report

[CUETools log; Date: 28.08.2015 19:48:06; Version: 2.1.4]
[CTDB TOCID: vZbsMb3l_Map4uiNYOugLsQxoTc-] found.
Track | CTDB Status
1 | (14/14) Accurately ripped
2 | (14/14) Accurately ripped
3 | (14/14) Accurately ripped
4 | (14/14) Accurately ripped
5 | (14/14) Accurately ripped
6 | (14/14) Accurately ripped
7 | (14/14) Accurately ripped
8 | (14/14) Accurately ripped
9 | (14/14) Accurately ripped
10 | (14/14) Accurately ripped
11 | (14/14) Accurately ripped
12 | (14/14) Accurately ripped
13 | (14/14) Accurately ripped
14 | (14/14) Accurately ripped
15 | (14/14) Accurately ripped
16 | (14/14) Accurately ripped
17 | (14/14) Accurately ripped
18 | (14/14) Accurately ripped
19 | (14/14) Accurately ripped
20 | (14/14) Accurately ripped
[AccurateRip ID: 0037f0cb-032b11a5-f9116614] found.
Track [ CRC | V2 ] Status
01 [5c8e3c7a|5ac8798a] (09+17/26) Accurately ripped
02 [b87d6025|5228a895] (09+17/26) Accurately ripped
03 [aaaa3ff0|21262a2b] (09+18/27) Accurately ripped
04 [25bca1b6|09a6fc66] (09+18/27) Accurately ripped
05 [e1709d54|770647bd] (09+18/27) Accurately ripped
06 [f0b6cecd|edeb53b6] (09+18/27) Accurately ripped
07 [391df0a9|673eff39] (09+18/27) Accurately ripped
08 [6e35b930|ee3e3a35] (09+18/27) Accurately ripped
09 [58b152c7|507c1f75] (09+18/27) Accurately ripped
10 [ddeff3be|031a78d0] (09+18/27) Accurately ripped
11 [1d59cc99|d773f5e2] (09+18/27) Accurately ripped
12 [7c18668c|9833f01f] (09+18/27) Accurately ripped
13 [79c2168d|776a91f0] (09+18/27) Accurately ripped
14 [1b46acf2|69d0ff6a] (09+18/27) Accurately ripped
15 [73d70605|d3ee0835] (09+18/27) Accurately ripped
16 [227ab014|66774854] (09+18/27) Accurately ripped
17 [96cd840a|ea1e6eec] (09+18/27) Accurately ripped
18 [7572ed09|62a62f99] (09+18/27) Accurately ripped
19 [2122efc5|0d7b5597] (09+17/26) Accurately ripped
20 [6bf48a0e|fe33a46e] (09+17/26) Accurately ripped

Track Peak [ CRC32 ] [W/O NULL] [ LOG ]
– 97,2 [470EE526] [6C65267B] CRC32
01 97,1 [8D59E239] [0B8418B7]
02 97,1 [B9E2F868] [EC426CD0]
03 97,1 [8A01BE2C] [BEEFFF72]
04 97,1 [53A0BF80] [1FF753E3]
05 97,1 [A0525755] [63FE5B72]
06 86,6 [7612B209] [35F415B5]
07 97,1 [BBFBFEBE] [5629B17E]
08 97,2 [58A7E6F1] [397DF3FF]
09 97,2 [BB5F8E63] [63598E31]
10 97,1 [3BF632DB] [6CA532CA]
11 97,1 [3C34CD8E] [7B9040A8]
12 97,1 [D69F6652] [9029BCE2]
13 92,9 [31FA9BA3] [68759D26]
14 97,1 [E16DF85F] [B0723615]
15 97,1 [201DC336] [94D0B01E]
16 97,1 [0D5203B4] [A9867E0A]
17 97,1 [7D29602F] [6F66278A]
18 97,1 [88494B80] [1C0F6058]
19 97,1 [C0AB06B7] [C3193C42]
20 90,5 [101F8E20] [D48F7299]

foobar2000 1.2 / Dynamic Range Meter 1.1.1
log date: 2015-08-28 19:41:53

––––––––––––––––––––––––––––––––––––––––
Analyzed: Chicken Shack / The Complete Blue Horizon Sessions (Disc 1)
––––––––––––––––––––––––––––––––––––––––

DR Peak RMS Duration Track
––––––––––––––––––––––––––––––––––––––––
DR8 -0.25 dB -10.43 dB 2:40 01-It's Okay With Me Baby
DR9 -0.25 dB -11.19 dB 6:30 02-When My Left Eye Jumps
DR9 -0.25 dB -10.50 dB 4:29 03-The Letter
DR8 -0.25 dB -9.63 dB 3:05 04-Lonesome Whistle Blues
DR10 -0.25 dB -10.84 dB 3:33 05-When The Train Comes Back
DR8 -1.25 dB -10.42 dB 3:05 06-San-Ho-Zay
DR11 -0.25 dB -13.76 dB 5:03 07-King Of The World
DR9 -0.25 dB -9.95 dB 2:26 08-See See Baby
DR10 -0.25 dB -12.14 dB 6:28 09-First Time I Met The Blues
DR9 -0.25 dB -10.91 dB 2:55 10-Webbed Feet
DR9 -0.25 dB -10.78 dB 3:38 11-You Ain't No Good
DR9 -0.25 dB -10.62 dB 4:42 12-What You Did Last Night
DR10 -0.63 dB -11.73 dB 3:43 13-Hey Baby
DR9 -0.25 dB -10.32 dB 2:30 14-Baby's Got Me Crying
DR9 -0.25 dB -9.74 dB 2:01 15-The Right Way Is My Way
DR10 -0.25 dB -11.49 dB 3:10 16-Get Like You Used To Be
DR10 -0.25 dB -12.14 dB 3:05 17-Pony And Trap
DR8 -0.25 dB -10.17 dB 4:39 18-Tell Me
DR10 -0.25 dB -11.97 dB 2:59 19-A Woman Is The Blues
DR9 -0.86 dB -10.38 dB 3:34 20-When The Train Comes Back (Single Version)
––––––––––––––––––––––––––––––––––––––––

Number of tracks: 20
Official DR value: DR9

Samplerate: 44100 Hz
Channels: 2


Exact Audio Copy V0.99 prebeta 4 from 23. January 2008

EAC extraction logfile from 14. July 2008, 19:04

Chicken Shack / The Complete Blue Horizon Sessions (Disc 2)

Used drive : PIONEER DVD-RW DVR-112D Adapter: 1 ID: 1

Read mode : Secure
Utilize accurate stream : Yes
Defeat audio cache : Yes
Make use of C2 pointers : No

Read offset correction : 48
Overread into Lead-In and Lead-Out : No
Fill up missing offset samples with silence : Yes
Delete leading and trailing silent blocks : No
Null samples used in CRC calculations : Yes
Used interface : Native Win32 interface for Win NT & 2000

Used output format : Monkey's Audio Lossless Encoder
Selected bitrate : Normal Lossless Compression
Quality : High
Add ID3 tag : Yes
Command line compressor : C:\Program Files\Burrrn\MAC.exe


TOC of the extracted CD

Track | Start | Length | Start sector | End sector
––––––––––––––––––––––––––––-
1 | 0:00.00 | 2:37.72 | 0 | 11846
2 | 2:37.72 | 4:58.41 | 11847 | 34237
3 | 7:36.38 | 3:31.30 | 34238 | 50092
4 | 11:07.68 | 2:52.42 | 50093 | 63034
5 | 14:00.35 | 4:28.37 | 63035 | 83171
6 | 18:28.72 | 3:15.21 | 83172 | 97817
7 | 21:44.18 | 6:07.24 | 97818 | 125366
8 | 27:51.42 | 3:17.19 | 125367 | 140160
9 | 31:08.61 | 5:22.64 | 140161 | 164374
10 | 36:31.50 | 3:31.24 | 164375 | 180223
11 | 40:02.74 | 3:25.10 | 180224 | 195608
12 | 43:28.09 | 4:17.03 | 195609 | 214886
13 | 47:45.12 | 3:23.40 | 214887 | 230151
14 | 51:08.52 | 2:14.05 | 230152 | 240206
15 | 53:22.57 | 2:54.32 | 240207 | 253288
16 | 56:17.14 | 2:43.23 | 253289 | 265536
17 | 59:00.37 | 3:35.73 | 265537 | 281734
18 | 62:36.35 | 4:27.10 | 281735 | 301769
19 | 67:03.45 | 3:09.66 | 301770 | 316010
20 | 70:13.36 | 1:36.67 | 316011 | 323277


Range status and errors

Selected range

Filename C:\EAC ape\Chicken Shack - The Complete Blue Horizon Sessions (Disc 2).wav

Peak level 97.1 %
Range quality 100.0 %
Copy CRC 6118240A
Copy OK

No errors occurred


AccurateRip summary

Track 1 accurately ripped (confidence 1) [6BA030E3]
Track 2 accurately ripped (confidence 1) [6B0012C7]
Track 3 accurately ripped (confidence 1) [A87736A3]
Track 4 accurately ripped (confidence 1) [DCD0D6EF]
Track 5 accurately ripped (confidence 1) [89EFDB0E]
Track 6 accurately ripped (confidence 1) [D1B3BBCD]
Track 7 accurately ripped (confidence 1) [E23D3516]
Track 8 accurately ripped (confidence 1) [FEB1B8C2]
Track 9 accurately ripped (confidence 1) [78B8DE6E]
Track 10 accurately ripped (confidence 1) [9023AE15]
Track 11 accurately ripped (confidence 1) [BECC1762]
Track 12 accurately ripped (confidence 1) [204F2BC3]
Track 13 accurately ripped (confidence 1) [AEA18BAD]
Track 14 accurately ripped (confidence 1) [AC912D11]
Track 15 accurately ripped (confidence 1) [C4DE766F]
Track 16 accurately ripped (confidence 1) [51706A82]
Track 17 accurately ripped (confidence 1) [0D226972]
Track 18 accurately ripped (confidence 1) [4B776B9C]
Track 19 accurately ripped (confidence 1) [D286C74C]
Track 20 accurately ripped (confidence 1) [2026FCA7]

All tracks accurately ripped

End of status report

[CUETools log; Date: 28.08.2015 19:49:07; Version: 2.1.4]
[CTDB TOCID: Nuk.snkbIIhSQl9qBjDJHTF4aTA-] found.
Track | CTDB Status
1 | (14/14) Accurately ripped
2 | (14/14) Accurately ripped
3 | (14/14) Accurately ripped
4 | (14/14) Accurately ripped
5 | (14/14) Accurately ripped
6 | (14/14) Accurately ripped
7 | (14/14) Accurately ripped
8 | (14/14) Accurately ripped
9 | (14/14) Accurately ripped
10 | (14/14) Accurately ripped
11 | (14/14) Accurately ripped
12 | (14/14) Accurately ripped
13 | (14/14) Accurately ripped
14 | (14/14) Accurately ripped
15 | (14/14) Accurately ripped
16 | (14/14) Accurately ripped
17 | (14/14) Accurately ripped
18 | (14/14) Accurately ripped
19 | (14/14) Accurately ripped
20 | (14/14) Accurately ripped
[AccurateRip ID: 00368445-031bf1f0-1210d614] found.
Track [ CRC | V2 ] Status
01 [6ba030e3|258928a7] (05+08/25) Accurately ripped
02 [6b0012c7|ca51ae5c] (05+08/25) Accurately ripped
03 [a87736a3|393fe340] (05+07/24) Accurately ripped
04 [dcd0d6ef|e5972638] (05+08/25) Accurately ripped
05 [89efdb0e|052aaa78] (05+07/24) Accurately ripped
06 [d1b3bbcd|65cdc77f] (05+07/24) Accurately ripped
07 [e23d3516|9bd368df] (05+07/24) Accurately ripped
08 [feb1b8c2|c41031d9] (05+08/25) Accurately ripped
09 [78b8de6e|7eb058e7] (05+08/25) Accurately ripped
10 [9023ae15|e46b107c] (05+07/24) Accurately ripped
11 [becc1762|9e18b99e] (05+08/25) Accurately ripped
12 [204f2bc3|4bd782cb] (05+08/25) Accurately ripped
13 [aea18bad|858427b9] (05+07/24) Accurately ripped
14 [ac912d11|ec473071] (05+07/24) Accurately ripped
15 [c4de766f|cb2f36e4] (05+07/24) Accurately ripped
16 [51706a82|81f948a0] (05+07/24) Accurately ripped
17 [0d226972|968eaeed] (05+07/24) Accurately ripped
18 [4b776b9c|f3884e0c] (05+07/24) Accurately ripped
19 [d286c74c|a7eca173] (05+07/23) Accurately ripped
20 [2026fca7|e9223628] (05+07/24) Accurately ripped
Offsetted by -599:
01 [3e73d452] (03/25) Accurately ripped
02 [7cd9aab8] (03/25) Accurately ripped
03 [0b0f42f4] (03/24) Accurately ripped
04 [3127d0c3] (03/25) Accurately ripped
05 [4decd5ef] (03/24) Accurately ripped
06 [324fc2a1] (03/24) Accurately ripped
07 [7bf485d1] (03/24) Accurately ripped
08 [5b432353] (03/25) Accurately ripped
09 [79f91502] (03/25) Accurately ripped
10 [119eb75a] (03/24) Accurately ripped
11 [93c26042] (03/25) Accurately ripped
12 [4aacea0b] (03/25) Accurately ripped
13 [eeb7d221] (03/24) Accurately ripped
14 [1fb1a9e1] (03/24) Accurately ripped
15 [b850254f] (03/24) Accurately ripped
16 [e7bf28a5] (03/24) Accurately ripped
17 [cd67109a] (03/24) Accurately ripped
18 [ef1dcc4d] (03/24) Accurately ripped
19 [7536d742] (03/23) Accurately ripped
20 [818ef5c6] (03/24) Accurately ripped
Offsetted by -635:
01 [ffe78c16] (00/25) No match (V2 was not tested)
02 [00b37574] (00/25) No match (V2 was not tested)
03 [81d02c30] (00/24) No match (V2 was not tested)
04 [b602bb73] (00/25) No match (V2 was not tested)
05 [460b6ceb] (00/24) No match (V2 was not tested)
06 [4bc6f951] (00/24) No match (V2 was not tested)
07 [ec9e8665] (00/24) No match (V2 was not tested)
08 [cb3e338f] (00/25) No match (V2 was not tested)
09 [5402ecb2] (00/25) No match (V2 was not tested)
10 [382c4ec6] (00/24) No match (V2 was not tested)
11 [d4456cc2] (00/25) No match (V2 was not tested)
12 [861024eb] (00/25) No match (V2 was not tested)
13 [2e671a51] (00/24) No match (V2 was not tested)
14 [ffb8bea1] (00/24) No match (V2 was not tested)
15 [b94499cf] (00/24) No match (V2 was not tested)
16 [e3f57799] (00/24) No match (V2 was not tested)
17 [711ad7fa] (00/24) No match (V2 was not tested)
18 [35365409] (00/24) No match (V2 was not tested)
19 [1a215e6a] (00/23) No match (V2 was not tested)
20 [d07e8eca] (00/24) No match (V2 was not tested)

Track Peak [ CRC32 ] [W/O NULL] [ LOG ]
– 97,1 [6118240A] [A5576221] CRC32
01 96,4 [68C32655] [05E7B665]
02 94,7 [F52B9FDB] [4187116C]
03 94,1 [7C92D7D2] [434E0587]
04 93,8 [0DDCC183] [4C6CD6A3]
05 89,6 [74001372] [AC73A76F]
06 96,9 [6589F340] [5CBD8A35]
07 94,7 [5F80D6F2] [D5F04DB5]
08 97,1 [F420C8F2] [E388C00E]
09 97,1 [43B7264C] [06ECAA45]
10 96,9 [100CFC5F] [55194E20]
11 97,1 [6C958D7D] [AF4F6A98]
12 92,1 [42B9BE68] [70943B4E]
13 91,2 [0E1A127B] [31609DB6]
14 97,0 [5445999A] [921AFE4C]
15 94,5 [84D4F06A] [59B7535F]
16 94,0 [17B51821] [815294A3]
17 90,8 [8C13376E] [23A9E2A9]
18 97,0 [0E19EBA4] [1B10FC36]
19 92,5 [1131E123] [8141687B]
20 93,7 [DF926221] [1D7417D7]

foobar2000 1.2 / Dynamic Range Meter 1.1.1
log date: 2015-08-28 19:43:05

––––––––––––––––––––––––––––––––––––––––
Analyzed: Chicken Shack / The Complete Blue Horizon Sessions (Disc 2)
––––––––––––––––––––––––––––––––––––––––

DR Peak RMS Duration Track
––––––––––––––––––––––––––––––––––––––––
DR8 -0.31 dB -9.78 dB 2:38 01-Worried About My Woman
DR10 -0.47 dB -11.94 dB 4:59 02-Six Nights In Seven
DR9 -0.52 dB -11.58 dB 3:31 03-I Wanna See My Baby
DR9 -0.55 dB -11.37 dB 2:53 04-Remington Ride
DR10 -0.95 dB -12.63 dB 4:28 05-Fishing In Your River
DR11 -0.27 dB -13.10 dB 3:15 06-Mean Old World
DR11 -0.47 dB -13.85 dB 6:07 07-Sweet Sixteen
DR9 -0.25 dB -10.75 dB 3:17 08-I'd Rather Go Blind
DR10 -0.25 dB -13.02 dB 5:23 09-Night Life
DR8 -0.27 dB -11.14 dB 3:31 10-The Road Of Love
DR10 -0.25 dB -11.56 dB 3:25 11-Look Ma, I'm Cryin'
DR9 -0.71 dB -11.66 dB 4:17 12-Evelyn
DR9 -0.80 dB -11.03 dB 3:24 13-Reconsider Baby
DR8 -0.26 dB -10.34 dB 2:14 14-Weekend Love
DR9 -0.49 dB -11.66 dB 2:54 15-Midnight Hour
DR10 -0.54 dB -13.47 dB 2:43 16-Tears In The Wind
DR8 -0.83 dB -11.04 dB 3:36 17-Horse & Cart
DR9 -0.26 dB -12.12 dB 4:27 18-The Way It Is
DR7 -0.67 dB -9.52 dB 3:10 19-Still Worried About My Woman
DR10 -0.56 dB -13.60 dB 1:37 20-Anji
––––––––––––––––––––––––––––––––––––––––

Number of tracks: 20
Official DR value: DR9

Samplerate: 44100 Hz
Channels: 2
Bits per sample: 16


Exact Audio Copy V0.99 prebeta 4 from 23. January 2008

EAC extraction logfile from 13. July 2008, 0:19

Chicken Shack / The Complete Blue Horizon Sessions (Disc 3)

Used drive : PIONEER DVD-RW DVR-112D Adapter: 1 ID: 1

Read mode : Secure
Utilize accurate stream : Yes
Defeat audio cache : Yes
Make use of C2 pointers : No

Read offset correction : 48
Overread into Lead-In and Lead-Out : No
Fill up missing offset samples with silence : Yes
Delete leading and trailing silent blocks : No
Null samples used in CRC calculations : Yes
Used interface : Native Win32 interface for Win NT & 2000

Used output format : Monkey's Audio Lossless Encoder
Selected bitrate : Normal Lossless Compression
Quality : High
Add ID3 tag : Yes
Command line compressor : C:\Program Files\Burrrn\MAC.exe


TOC of the extracted CD

Track | Start | Length | Start sector | End sector
––––––––––––––––––––––––––––-
1 | 0:00.00 | 3:11.03 | 0 | 14327
2 | 3:11.03 | 5:08.31 | 14328 | 37458
3 | 8:19.34 | 3:54.54 | 37459 | 55062
4 | 12:14.13 | 3:06.01 | 55063 | 69013
5 | 15:20.14 | 3:23.12 | 69014 | 84250
6 | 18:43.26 | 2:42.74 | 84251 | 96474
7 | 21:26.25 | 2:40.59 | 96475 | 108533
8 | 24:07.09 | 2:53.63 | 108534 | 121571
9 | 27:00.72 | 4:23.19 | 121572 | 141315
10 | 31:24.16 | 2:05.72 | 141316 | 150762
11 | 33:30.13 | 3:06.03 | 150763 | 164715
12 | 36:36.16 | 2:31.74 | 164716 | 176114
13 | 39:08.15 | 2:20.36 | 176115 | 186650
14 | 41:28.51 | 2:25.54 | 186651 | 197579
15 | 43:54.30 | 4:11.54 | 197580 | 216458
16 | 48:06.09 | 3:00.36 | 216459 | 229994


Range status and errors

Selected range

Filename C:\EAC ape\Chicken Shack - The Complete Blue Horizon Sessions (Disc 3).wav

Peak level 97.2 %
Range quality 99.9 %
Copy CRC A389A861
Copy OK

No errors occurred


AccurateRip summary

Track 1 accurately ripped (confidence 1) [F134909B]
Track 2 accurately ripped (confidence 1) [4EC294A0]
Track 3 accurately ripped (confidence 1) [8C9195CD]
Track 4 accurately ripped (confidence 1) [370E8260]
Track 5 accurately ripped (confidence 1) [52F86269]
Track 6 accurately ripped (confidence 1) [E64DC41A]
Track 7 accurately ripped (confidence 1) [A6C9F512]
Track 8 accurately ripped (confidence 1) [8AF0EB9C]
Track 9 accurately ripped (confidence 1) [9CA2CE9C]
Track 10 accurately ripped (confidence 1) [1F1CF298]
Track 11 accurately ripped (confidence 1) [2954A7AE]
Track 12 accurately ripped (confidence 1) [15461183]
Track 13 accurately ripped (confidence 1) [5C4E3C64]
Track 14 accurately ripped (confidence 1) [FF31D460]
Track 15 accurately ripped (confidence 1) [929238E8]
Track 16 accurately ripped (confidence 1) [F6F3FE99]

All tracks accurately ripped

End of status report

Exact Audio Copy V0.99 prebeta 4 from 23. January 2008

EAC extraction logfile from 13. July 2008, 0:19

Chicken Shack / The Complete Blue Horizon Sessions (Disc 3)

Used drive : PIONEER DVD-RW DVR-112D Adapter: 1 ID: 1

Read mode : Secure
Utilize accurate stream : Yes
Defeat audio cache : Yes
Make use of C2 pointers : No

Read offset correction : 48
Overread into Lead-In and Lead-Out : No
Fill up missing offset samples with silence : Yes
Delete leading and trailing silent blocks : No
Null samples used in CRC calculations : Yes
Used interface : Native Win32 interface for Win NT & 2000

Used output format : Monkey's Audio Lossless Encoder
Selected bitrate : Normal Lossless Compression
Quality : High
Add ID3 tag : Yes
Command line compressor : C:\Program Files\Burrrn\MAC.exe


TOC of the extracted CD

Track | Start | Length | Start sector | End sector
––––––––––––––––––––––––––––-
1 | 0:00.00 | 3:11.03 | 0 | 14327
2 | 3:11.03 | 5:08.31 | 14328 | 37458
3 | 8:19.34 | 3:54.54 | 37459 | 55062
4 | 12:14.13 | 3:06.01 | 55063 | 69013
5 | 15:20.14 | 3:23.12 | 69014 | 84250
6 | 18:43.26 | 2:42.74 | 84251 | 96474
7 | 21:26.25 | 2:40.59 | 96475 | 108533
8 | 24:07.09 | 2:53.63 | 108534 | 121571
9 | 27:00.72 | 4:23.19 | 121572 | 141315
10 | 31:24.16 | 2:05.72 | 141316 | 150762
11 | 33:30.13 | 3:06.03 | 150763 | 164715
12 | 36:36.16 | 2:31.74 | 164716 | 176114
13 | 39:08.15 | 2:20.36 | 176115 | 186650
14 | 41:28.51 | 2:25.54 | 186651 | 197579
15 | 43:54.30 | 4:11.54 | 197580 | 216458
16 | 48:06.09 | 3:00.36 | 216459 | 229994


Range status and errors

Selected range

Filename C:\EAC ape\Chicken Shack - The Complete Blue Horizon Sessions (Disc 3).wav

Peak level 97.2 %
Range quality 99.9 %
Copy CRC A389A861
Copy OK

No errors occurred


AccurateRip summary

Track 1 accurately ripped (confidence 1) [F134909B]
Track 2 accurately ripped (confidence 1) [4EC294A0]
Track 3 accurately ripped (confidence 1) [8C9195CD]
Track 4 accurately ripped (confidence 1) [370E8260]
Track 5 accurately ripped (confidence 1) [52F86269]
Track 6 accurately ripped (confidence 1) [E64DC41A]
Track 7 accurately ripped (confidence 1) [A6C9F512]
Track 8 accurately ripped (confidence 1) [8AF0EB9C]
Track 9 accurately ripped (confidence 1) [9CA2CE9C]
Track 10 accurately ripped (confidence 1) [1F1CF298]
Track 11 accurately ripped (confidence 1) [2954A7AE]
Track 12 accurately ripped (confidence 1) [15461183]
Track 13 accurately ripped (confidence 1) [5C4E3C64]
Track 14 accurately ripped (confidence 1) [FF31D460]
Track 15 accurately ripped (confidence 1) [929238E8]
Track 16 accurately ripped (confidence 1) [F6F3FE99]

All tracks accurately ripped

End of status report

foobar2000 1.2 / Dynamic Range Meter 1.1.1
log date: 2015-08-28 19:43:55

––––––––––––––––––––––––––––––––––––––––
Analyzed: Chicken Shack / The Complete Blue Horizon Sessions (Disc 3)
––––––––––––––––––––––––––––––––––––––––

DR Peak RMS Duration Track
––––––––––––––––––––––––––––––––––––––––
DR9 -0.25 dB -10.84 dB 3:11 01-Smartest Girl In Town
DR8 -0.25 dB -11.19 dB 5:08 02-Hideaway
DR9 -0.25 dB -11.03 dB 3:55 03-The Things You Put Me Through
DR8 -0.25 dB -9.88 dB 3:06 04-Diary Of Your Life
DR8 -0.25 dB -10.08 dB 3:23 05-Pocket
DR9 -0.25 dB -10.95 dB 2:43 06-Never Ever
DR11 -0.52 dB -13.82 dB 2:41 07-Sad Clown
DR9 -0.26 dB -11.02 dB 2:54 08-Maudie
DR9 -0.25 dB -11.87 dB 4:23 09-Telling Your Fortune
DR10 -0.65 dB -12.47 dB 2:06 10-Tired Eyes
DR9 -0.25 dB -11.24 dB 3:06 11-Some Other Time
DR10 -0.25 dB -11.66 dB 2:32 12-Going Round
DR11 -0.26 dB -13.10 dB 2:20 13-Andalucian Blues
DR8 -0.25 dB -9.42 dB 2:26 14-You Know You Did You Did
DR9 -0.25 dB -10.62 dB 4:12 15-She Didn't Use Her Loaf
DR9 -0.25 dB -11.36 dB 3:00 16-Maudie (single version)
––––––––––––––––––––––––––––––––––––––––

Number of tracks: 16
Official DR value: DR9

Samplerate: 44100 Hz
Channels: 2
Bits per sample: 16


Chicken Shack - Complete Blue Horizon Sessions (2005) 3CD Set [Re-Up]

Chicken Shack - Complete Blue Horizon Sessions (2005) 3CD Set [Re-Up]

All thanks to original releaser - CF-UK

More interesting music in My Blog