Tags
Language
Tags

Clarence 'Gatemouth' Brown - Alright Again! (1981) Reissue 1998 [Re-Up]

Posted By: Designol
Clarence 'Gatemouth' Brown - Alright Again! (1981) Reissue 1998 [Re-Up]

Clarence 'Gatemouth' Brown - Alright Again! (1981) Reissue 1998
EAC | FLAC | Image (Cue&Log) ~ 246 Mb | Mp3 (CBR320) ~ 107 Mb | Scans included
Genre: Modern Electric Blues | Label: Rounder | # CD 2028 | Time: 00:35:44

One of the most satisfying contemporary Brown discs of all for the discerning blues fan. Nothing but swinging, horn-abetted blues adorn this album, as Gate pays tribute to an influence and a protege by covering T-Bone Walker's "Strollin' with Bones" and Albert Collins's "Frosty." Brown's jauntily revives Junior Parker's "I Feel Alright Again" and Percy Mayfield's "Give Me Time to Explain," while his own numbers – a funky "Dollar Got the Blues," the luxurious blues "Sometimes I Slip" – are truly brilliant.

Review by Bill Dahl, Allmusic.com

Clarence 'Gatemouth' Brown at Allmusic
Clarence 'Gatemouth' Brown at Wiki

Tracklist:

01. Frosty (03:48)
02. Strollin' With Bones (03:01)
03. Give Me Time To Explain (02:15)
04. Baby Take It Easy (02:58)
05. Sometimes I Slip (06:35)
06. I Feel Alright Again (02:31)
07. Alligator Boogaloo (03:14)
08. Dollar Got the Blues (04:40)
09. Honey In The Be-Bo (02:42)
10. Gate Walks To Board (03:59)


Exact Audio Copy V1.0 beta 3 from 29. August 2011

Отчёт EAC об извлечении, выполненном 4. ноября 2014, 13:47

Clarence 'Gatemouth' Brown / Alright Again!

Дисковод: SONY CD-RW CRX230ED Adapter: 0 ID: 1

Режим чтения : Достоверность
Использование точного потока : Да
Отключение кэша аудио : Да
Использование указателей C2 : Нет

Коррекция смещения при чтении : 6
Способность читать области Lead-in и Lead-out : Нет
Заполнение пропущенных сэмплов тишиной : Да
Удаление блоков с тишиной в начале и конце : Нет
При вычислениях CRC использовались нулевые сэмплы : Да
Интерфейс : Встроенный Win32-интерфейс для Win NT/2000

Выходной формат : Внутренние WAV-операции
Формат сэмплов : 44.100 Гц; 16 бит; стерео


TOC извлечённого CD

Трек | Старт | Длительность | Начальный сектор | Конечный сектор
––––––––––––––––––––––––––––––––––-
1 | 0:00.00 | 3:48.00 | 0 | 17099
2 | 3:48.00 | 3:01.37 | 17100 | 30711
3 | 6:49.37 | 2:15.00 | 30712 | 40836
4 | 9:04.37 | 2:58.38 | 40837 | 54224
5 | 12:03.00 | 6:35.00 | 54225 | 83849
6 | 18:38.00 | 2:31.00 | 83850 | 95174
7 | 21:09.00 | 3:14.00 | 95175 | 109724
8 | 24:23.00 | 4:40.00 | 109725 | 130724
9 | 29:03.00 | 2:42.00 | 130725 | 142874
10 | 31:45.00 | 3:59.10 | 142875 | 160809


Характеристики диапазона извлечения и сообщения об ошибках

Выбранный диапазон

Имя файла F:\MusicCD\Torrent\Clarence 'Gatemouth' Brown - Alright Again!\Clarence 'Gatemouth' Brown - Alright Again!.wav

Пиковый уровень 95.3 %
Скорость извлечения 6.9 X
Качество диапазона 100.0 %
CRC теста 005324F3
CRC копии 005324F3
Копирование… OK

Ошибок не произошло


AccurateRip: сводка

Трек 1 точность не определена (достоверность 3) [DBC21BB8], AccurateRip вернул [92FFF4DA] (AR v2)
Трек 2 точность не определена (достоверность 3) [C980477B], AccurateRip вернул [A158DE90] (AR v2)
Трек 3 точность не определена (достоверность 3) [233C3A20], AccurateRip вернул [078B43E6] (AR v2)
Трек 4 точность не определена (достоверность 3) [A0AF6549], AccurateRip вернул [96B2E77D] (AR v2)
Трек 5 точность не определена (достоверность 3) [8DB13031], AccurateRip вернул [1E2A962A] (AR v2)
Трек 6 точность не определена (достоверность 3) [ADD1DD98], AccurateRip вернул [69BA2D76] (AR v2)
Трек 7 точность не определена (достоверность 3) [0AA3EF91], AccurateRip вернул [244F1814] (AR v2)
Трек 8 точность не определена (достоверность 3) [0C08741E], AccurateRip вернул [1E4602FF] (AR v2)
Трек 9 точность не определена (достоверность 3) [B73D4720], AccurateRip вернул [DA2A92FB] (AR v2)
Трек 10 точность не определена (достоверность 3) [04191C97], AccurateRip вернул [E197C7AE] (AR v2)

Ни один трек не прошёл проверки на точность
В вашей базе может быть иной вариант штамповки диска

Конец отчёта

==== Контрольная сумма отчёта 21823E1223B66AC8E64318F470566FD4F53E57D985C55DB089357CA51B658BC0 ====

foobar2000 1.2 / Dynamic Range Meter 1.1.1
log date: 2014-11-11 15:42:32

––––––––––––––––––––––––––––––––––––––––
Analyzed: Clarence 'Gatemouth' Brown / Alright Again!
––––––––––––––––––––––––––––––––––––––––

DR Peak RMS Duration Track
––––––––––––––––––––––––––––––––––––––––
DR10 -0.42 dB -13.19 dB 3:48 01-Frosty
DR10 -0.61 dB -12.92 dB 3:01 02-Strollin' With Bones
DR11 -0.68 dB -14.29 dB 2:15 03-Give Me Time To Explain
DR11 -0.64 dB -13.90 dB 2:59 04-Baby Take It Easy
DR11 -0.54 dB -14.28 dB 6:35 05-Sometimes I Slip
DR10 -0.61 dB -12.98 dB 2:31 06-I Feel Alright Again
DR11 -0.65 dB -13.98 dB 3:14 07-Alligator Boogaloo
DR9 -0.58 dB -11.71 dB 4:40 08-Dollar Got the Blues
DR11 -0.61 dB -13.71 dB 2:42 09-Honey In The Be-Bo
DR10 -0.50 dB -12.37 dB 3:59 10-Gate Walks To Board
––––––––––––––––––––––––––––––––––––––––

Number of tracks: 10
Official DR value: DR10

Samplerate: 44100 Hz
Channels: 2
Bits per sample: 16
Bitrate: 864 kbps
Codec: FLAC
================================================================================

Clarence 'Gatemouth' Brown - Alright Again! (1981) Reissue 1998 [Re-Up]

Clarence 'Gatemouth' Brown - Alright Again! (1981) Reissue 1998 [Re-Up]

All thanks to original releaser - squirr

More interesting music in My Blog