Subcategories

Corey Harris - Albums Collection 1995-2012 (10CD) [Re-Up]

Posted By: Designol
Corey Harris - Albums Collection 1995-2012 (10CD) [Re-Up]

Corey Harris - Albums Collection 1995-2012 (10CD)
EAC | FLAC | Image (Cue&Log) ~ 3.43 Gb | Mp3 (CBR320) ~ 1.23 Gb | Scans ~ 580 Mb
Genre: Blues, Reggae, Delta Blues, Desert Blues, R&B, African Folk | Time: 09:03:14

Corey Harris is an American blues and reggae musician. Along with Keb' Mo' and Alvin Youngblood Hart, he raised the flag of acoustic guitar blues in the mid-1990s. Collection includes: Between Midnight And Day (1995); Fish Ain't Bitin' (1997); Greens from the Garden (1999); Vü-Dü Menž (2000) with Henry Butler; Downhome Sophisticate (2002); Mississippi to Mali (2003); Daily Bread (2005); Zion Crossroads (2007); blu.black (2009); Fulton Blues (2012).

Corey Harris has earned substantial critical acclaim as one of the few contemporary bluesmen able to channel the raw, direct emotion of acoustic Delta blues without coming off as an authenticity-obsessed historian. Although he is well versed in the early history of blues guitar, he's no well-mannered preservationist, mixing a considerable variety of influences – from New Orleans to the Caribbean to Africa – into his richly expressive music. In doing so, he's managed to appeal to a wide spectrum of blues fans, from staunch traditionalists to more contemporary sensibilities.

Harris was born in Denver, CO, on February 21, 1969, and began playing guitar at age 12, when he fell in love with his mother's Lightnin' Hopkins records. He played in a rock & roll band in high school, as well as the marching band, and developed his singing abilities in church. Through Bates College in Maine (where he majored in anthropology), Harris traveled to Cameroon to study African linguistics and returned there on a post-graduate fellowship; during his time there, he soaked up as much African music as possible, entranced by its complex polyrhythms. After returning to the U.S., Harris taught English and French in Napoleonville, LA, and during his spare time he played the clubs, coffeehouses, and street corners of nearby New Orleans. His local reputation eventually earned him a deal with Alligator. In 1995, Alligator released Harris' debut album, Between Midnight and Day, a one-man, one-guitar affair that illustrated his mastery of numerous variations on the Delta blues style. The record won rave reviews and even some mainstream media attention, marking Harris as an exciting new presence on the blues scene; it also earned him an opening slot on tour with ex-10,000 Maniacs singer Natalie Merchant.

Harris followed it up with Fish Ain't Bitin' in 1997, a record that began to expand his style by adding a New Orleans-style brass section on several tracks, while emphasizing his own original compositions to a much greater degree. The next year, Harris was invited to participate in the Billy Bragg/Wilco collaboration Mermaid Avenue, which set a selection of unfinished Woody Guthrie songs to music; Harris played guitar and contributed bluesy backup vocals to several tunes. In 1999, Harris released what most critics called his strongest work to date, Greens from the Garden; hailed as a landmark in some quarters, the record delved deeper into New Orleans funk and R&B, while recasting its covers in surprising but effective new contexts (even reggae and hip-hop). The result was a kaleidoscope of black musical styles that earned Harris even more widespread attention than his debut. Veteran pianist Henry Butler appeared on the record, and for the follow-up, Harris recorded an entire album in tandem with Butler; issued in 2000, Vu-Du Menz updated several different strains of early jazz and blues.

Harris subsequently left Alligator for Rounder, and debuted for his new label in 2002 with Downhome Sophisticate, a typically eclectic outing that explored his African influences and added Latin music to his seemingly endless sonic palette. Two more albums followed on Rounder, the marvelous Mississippi to Mali in 2003 and Daily Bread in 2005. Ever the musical explorer, Harris turned to Jamaica and roots reggae for the template on his next album, Zion Crossroads, which was released in 2007 on Telarc Records. A second Telarc album, Blu. Black, appeared in 2009 and found Harris continuing to be fascinated by Jamaican music.

Biography by Steve Huey, Allmusic.com

Corey Harris - Albums Collection 1995-2012 (10CD) [Re-Up]

Corey Harris - Albums Collection 1995-2012 (10CD) [Re-Up]





Corey Harris - Albums Collection 1995-2012 (10CD) [Re-Up]

Corey Harris - Between Midnight And Day (1995)
EAC | FLAC | Image (Cue&Log) ~ 243 Mb | Mp3 (CBR320) ~ 114 Mb | Scans ~ 43 Mb
Label: Alligator Records | # ALCD 4837 | Time: 00:49:48

An astonishingly good record, covering a multitude of Delta-based styles and songs from Charley Patton to Muddy Waters, as well as a few originals. It's just Harris and his acoustic guitar, some dazzling finger work and a voice that's about as good as you're going to hear from anyone doing blues and still walking around at the end of the 20th century. The material alternately surges and broods, and once in a while does both at the same time, and it's all worth hearing.

Review by Bruce Eder, Allmusic.com


Tracklist:

01. Roots Woman (02:50)
02. Pony Blues (02:42)
03. Keep Your Lamp Trimmed And Burning (02:54)
04. Early In The Morning (02:13)
05. Feel Like Going Home (04:32)
06. I'm A Rattlesnakin' Daddy (02:20)
07. Between Midnight And Day (03:33)
08. Bukka's Jitterbug Swing (02:00)
09. Going To Brownsville (04:59)
10. Write Me A Few Lines (02:09)
11. She Moves Me (02:09)
12. Bound To Miss Me (03:38)
13. 61 Highway (04:48)
14. Catfish Blues (02:40)
15. I Ain't Gonna Be Worried No More (02:52)
16. It Hurts Me Too (03:22)


Exact Audio Copy V0.99 prebeta 5 from 4. May 2009

Отчёт EAC об извлечении, выполненном 9. марта 2011, 10:50

Corey Harris / Between Midnight And Day

Дисковод: TEAC CD-W552G Adapter: 1 ID: 1

Режим чтения : Достоверность
Использование точного потока : Да
Отключение кэша аудио : Да
Использование указателей C2 : Нет

Коррекция смещения при чтении : 6
Способность читать области Lead-in и Lead-out : Нет
Заполнение пропущенных сэмплов тишиной : Да
Удаление блоков с тишиной в начале и конце : Нет
При вычислениях CRC использовались нулевые сэмплы : Да
Интерфейс : Установленный внешний ASPI-интерфейс

Выходной формат : Внутренние WAV-операции
Формат сэмплов : 44.100 Гц; 16 бит; стерео


TOC извлечённого CD

Трек | Старт | Длительность | Начальный сектор | Конечный сектор
––––––––––––––––––––––––––––––––––-
1 | 0:00.00 | 2:50.07 | 0 | 12756
2 | 2:50.07 | 2:42.53 | 12757 | 24959
3 | 5:32.60 | 2:54.40 | 24960 | 38049
4 | 8:27.25 | 2:13.30 | 38050 | 48054
5 | 10:40.55 | 4:32.35 | 48055 | 68489
6 | 15:13.15 | 2:20.52 | 68490 | 79041
7 | 17:33.67 | 3:33.23 | 79042 | 95039
8 | 21:07.15 | 2:00.67 | 95040 | 104106
9 | 23:08.07 | 4:59.63 | 104107 | 126594
10 | 28:07.70 | 2:09.00 | 126595 | 136269
11 | 30:16.70 | 2:09.62 | 136270 | 146006
12 | 32:26.57 | 3:38.13 | 146007 | 162369
13 | 36:04.70 | 4:48.39 | 162370 | 184008
14 | 40:53.34 | 2:40.16 | 184009 | 196024
15 | 43:33.50 | 2:52.45 | 196025 | 208969
16 | 46:26.20 | 3:22.12 | 208970 | 224131


Характеристики диапазона извлечения и сообщения об ошибках

Выбранный диапазон

Имя файла D:\MusicCD\Torrent\Corey Harris - Between Midnight And Day\Corey Harris - Between Midnight And Day.wav

Пиковый уровень 98.8 %
Качество диапазона 100.0 %
CRC теста 364FDDBD
CRC копии 364FDDBD
Копирование… OK

Ошибок не произошло


AccurateRip: сводка

Трек 1 точность не определена (достоверность 12) [436E27E9], AccurateRip вернул [9B25897B]
Трек 2 точность не определена (достоверность 12) [89960C38], AccurateRip вернул [19B291BC]
Трек 3 точность не определена (достоверность 12) [A32DBEE9], AccurateRip вернул [E9A1DC2F]
Трек 4 точность не определена (достоверность 12) [1833B595], AccurateRip вернул [2F7F877D]
Трек 5 точность не определена (достоверность 12) [9E0C0C41], AccurateRip вернул [803FCF55]
Трек 6 точность не определена (достоверность 12) [5E81EE08], AccurateRip вернул [5CB2BB27]
Трек 7 точность не определена (достоверность 12) [377D74C9], AccurateRip вернул [0FC6203A]
Трек 8 точность не определена (достоверность 12) [545ECF01], AccurateRip вернул [490031EF]
Трек 9 точность не определена (достоверность 12) [6BCDFFF7], AccurateRip вернул [F663E27A]
Трек 10 точность не определена (достоверность 12) [DA90945B], AccurateRip вернул [EA91E604]
Трек 11 точность не определена (достоверность 12) [943C5D69], AccurateRip вернул [F14CFA75]
Трек 12 точность не определена (достоверность 12) [65A5A73E], AccurateRip вернул [0C0F1324]
Трек 13 точность не определена (достоверность 11) [18EF3705], AccurateRip вернул [A5E4C07E]
Трек 14 точность не определена (достоверность 12) [647A4A53], AccurateRip вернул [37883DBE]
Трек 15 точность не определена (достоверность 12) [2D4B2E42], AccurateRip вернул [4F7FD67F]
Трек 16 точность не определена (достоверность 12) [0C17F7C2], AccurateRip вернул [361E8DD1]

Ни один трек не прошёл проверки на точность
В вашей базе может быть иной вариант штамповки диска

Конец отчёта




Corey Harris - Albums Collection 1995-2012 (10CD) [Re-Up]

Corey Harris - Fish Ain't Bitin' (1997)
EAC | FLAC | Image (Cue&Log) ~ 304 Mb | Mp3 (CBR320) ~ 127 Mb | Scans ~ 46 Mb
Label: Alligator Records | # ALCD 4850 | Time: 00:55:18

Corey Harris' second outing for Alligator shows that he's no one-album flash in the pan, with this sophomore effort moving his modern-day acoustic Delta blues vision into even broader territory with delightful results. While his debut effort illustrated Harris' absolute mastery of older Delta styles, both instrumentally and vocally, Fish Ain't Bitin' charts new terrain using that first album as a stylistic building block. The big news here is that over half of the 17 songs are from Corey's own pen and compositions like "High Fever Blues" (heard here in two versions), "5-0 Blues," "Berry Owen Blues," and "If You Leave Me" show that he's more than adept in wedding contemporary influences to his down-home country sound. Adding to that are his takes on Son House's "Preaching Blues," Memphis Minnie's "Bumble Bee Blues," Big Maceo's "Worried Life Blues" and Blind Lemon Jefferson's "Jack O'Diamonds," all of them rendered in the proper spirit and context and all of them sounding nothing like the originals – a tough feat to pull off, but one that Harris does with consummate ease, imbuing these warhorses with the stamp of his personality. Several tracks also feature a trombone and tuba or string bass working in tandem with Corey's National steel-bodied guitar, making a Mississippi-New Orleans musical connection that sounds perfectly natural. No sophomore jinx here, as Corey Harris has turned in one great little album that examines the music's past while looking forward to the future for more input.

Review by Cub Koda, Allmusic.com


Tracklist:

01. High Fever Blues (03:11)
02. Frankie And Johnnie (02:55)
03. Berry Owens Blues (02:49)
04. Take Me Back (02:19)
05. Fish Ain't Bitin' (03:28)
06. Preaching Blues (04:57)
07. Bumble Bee Blues (04:01)
08. God Don't Ever Change (02:10)
09. 5-O Blues (04:52)
10. Mama Got Worried (02:59)
11. Worried Life Blues (03:00)
12. High Fever Blues (solo version) (04:06)
13. Jack O'Diamonds (02:38)
14. If You Leave Me (02:20)
15. Moosemilk Blues (03:17)
16. You Got To Move (03:48)
17. Clean Rag (02:21)


Exact Audio Copy V1.0 beta 3 from 29. August 2011

Отчёт EAC об извлечении, выполненном 1. июля 2012, 13:29

Corey Harris / Fish Ain't Bitin'

Дисковод: SONY CD-RW CRX230ED Adapter: 0 ID: 1

Режим чтения : Достоверность
Использование точного потока : Да
Отключение кэша аудио : Да
Использование указателей C2 : Нет

Коррекция смещения при чтении : 6
Способность читать области Lead-in и Lead-out : Нет
Заполнение пропущенных сэмплов тишиной : Да
Удаление блоков с тишиной в начале и конце : Нет
При вычислениях CRC использовались нулевые сэмплы : Да
Интерфейс : Встроенный Win32-интерфейс для Win NT/2000

Выходной формат : Внутренние WAV-операции
Формат сэмплов : 44.100 Гц; 16 бит; стерео


TOC извлечённого CD

Трек | Старт | Длительность | Начальный сектор | Конечный сектор
––––––––––––––––––––––––––––––––––-
1 | 0:00.00 | 3:11.65 | 0 | 14389
2 | 3:11.65 | 2:55.12 | 14390 | 27526
3 | 6:07.02 | 2:49.65 | 27527 | 40266
4 | 8:56.67 | 2:19.20 | 40267 | 50711
5 | 11:16.12 | 3:28.60 | 50712 | 66371
6 | 14:44.72 | 4:57.70 | 66372 | 88716
7 | 19:42.67 | 4:01.40 | 88717 | 106831
8 | 23:44.32 | 2:10.18 | 106832 | 116599
9 | 25:54.50 | 4:52.10 | 116600 | 138509
10 | 30:46.60 | 2:59.07 | 138510 | 151941
11 | 33:45.67 | 3:00.28 | 151942 | 165469
12 | 36:46.20 | 4:06.32 | 165470 | 183951
13 | 40:52.52 | 2:38.20 | 183952 | 195821
14 | 43:30.72 | 2:20.05 | 195822 | 206326
15 | 45:51.02 | 3:17.00 | 206327 | 221101
16 | 49:08.02 | 3:48.23 | 221102 | 238224
17 | 52:56.25 | 2:21.57 | 238225 | 248856


Характеристики диапазона извлечения и сообщения об ошибках

Выбранный диапазон

Имя файла E:\MusicCD\Torrent\Corey Harris - Fish Ain't Bitin'\Corey Harris - Fish Ain't Bitin'.wav

Пиковый уровень 100.0 %
Скорость извлечения 7.7 X
Качество диапазона 100.0 %
CRC теста A54F0DD1
CRC копии A54F0DD1
Копирование… OK

Ошибок не произошло


AccurateRip: сводка

Трек 1 точность не определена (достоверность 23) [C9DA488C], AccurateRip вернул [64C073FD] (AR v2)
Трек 2 точность не определена (достоверность 23) [9BCA4C58], AccurateRip вернул [A9F3D8DC] (AR v2)
Трек 3 точность не определена (достоверность 23) [1A1F7F72], AccurateRip вернул [FEC2A1F0] (AR v2)
Трек 4 точность не определена (достоверность 24) [1F7BD374], AccurateRip вернул [C72EA490] (AR v2)
Трек 5 точность не определена (достоверность 23) [94BE7679], AccurateRip вернул [C587A964] (AR v2)
Трек 6 точность не определена (достоверность 23) [B28E1F5A], AccurateRip вернул [DAA0B4AD] (AR v2)
Трек 7 точность не определена (достоверность 23) [72FDB569], AccurateRip вернул [176F04C1] (AR v2)
Трек 8 точность не определена (достоверность 23) [02298E76], AccurateRip вернул [AD27452D] (AR v2)
Трек 9 точность не определена (достоверность 23) [38448D80], AccurateRip вернул [4A47403D] (AR v2)
Трек 10 точность не определена (достоверность 23) [9DC98C69], AccurateRip вернул [564AC5D0] (AR v2)
Трек 11 точность не определена (достоверность 23) [822D7D45], AccurateRip вернул [D00F3D55] (AR v2)
Трек 12 точность не определена (достоверность 23) [242A0E07], AccurateRip вернул [1DDD5666] (AR v2)
Трек 13 точность не определена (достоверность 23) [BB403898], AccurateRip вернул [6349B21E] (AR v2)
Трек 14 точность не определена (достоверность 23) [96CEFF69], AccurateRip вернул [2C94F85B] (AR v2)
Трек 15 точность не определена (достоверность 23) [14A5ED4C], AccurateRip вернул [9AF1CE35] (AR v2)
Трек 16 точность не определена (достоверность 23) [163D5B64], AccurateRip вернул [AD7A77C4] (AR v2)
Трек 17 точность не определена (достоверность 23) [5547730A], AccurateRip вернул [30C94BC3] (AR v2)

Ни один трек не прошёл проверки на точность
В вашей базе может быть иной вариант штамповки диска

Конец отчёта

==== Контрольная сумма отчёта 8AC697F76450F853151EA8CD59C1CDC18667CB14EE44863EB95DEAC7BC3AD0D8 ====




Corey Harris - Albums Collection 1995-2012 (10CD) [Re-Up]

Corey Harris - Greens from the Garden (1999)
EAC | FLAC | Image (Cue&Log) ~ 377 Mb | Mp3 (CBR320) ~ 139 Mb | Scans ~ 62 Mb
Label: Alligator Records | # ALCD 4864 | Time: 01:00:24

Greens from the Garden is nothing short of a tour de force for Corey Harris. Progressing from the solo acoustic blues of Between Midnight and Day and the stripped Dixie influence of Fish Ain't Bitin', Harris' third album is a mixture of 20th century Americana that hits home runs in every genre in which it comes to bat. The diversity of styles in Greens from the Garden is reminiscent of Ry Cooder's Paradise and Lunch, in which the musician's personality is the glue holding all the styles together. Harris commits himself to the spirit of the songs here; despite his versatility, he never comes off as a dilettante, but rather a devoted auteur. Harris' New Orleans roots are deepened and widened, with affecting forays into French-sung Cajun waltz, "Pas Parlez" and several funk excursions worthy of the Neville Brothers and the Meters (in "Wild West" and "Honeysuckle"). Most startling is how well Harris' modern lyrical outlook fuses with 20th century traditional styles; by trusting in the integrity of the music, he's able to steer the listener toward the spiritual sides of topical arguments in "Basehead" and "Lynch Blues" without once resorting to preaching or heavy-handedness. Greens from the Garden's covers are just as satisfying, with a Delta reworking of "Diddy Wah Diddy" (a song that's also on Cooder's Paradise and Lunch) and a reggae restructuring of "Just a Closer Walk with Thee." Billy Bragg guests on "Teabag Blues," a Woody Guthrie lyric for which Harris wrote the music – a byproduct of Bragg's and Wilco's Mermaid Avenue sessions on which Harris guested. A tremendous journey that redefines the rules of revivalism.

Review by Paul Pearson, Allmusic.com


Tracklist:

01. Introduction to the Greens (00:45)
02. Basehead (04:41)
03. Honeysuckle (04:19)
04. Tapado (00:35)
05. Eh la Bas (05:46)
06. Interlude (00:40)
07. Wild West (04:01)
08. In the Kitchen with Momma (00:18)
09. Sweet Black Angel (04:05)
10. Pas Parlez (04:27)
11. Interlude (00:13)
12. Lynch Blues (06:14)
13. Greens Back in the Day (01:17)
14. Congo Square Rag (01:40)
15. Diddy Wah Diddy (02:27)
16. Ites (01:14)
17. Just a Closer Walk with Thee (05:54)
18. Nola Rag (04:52)
19. Epilogue (00:45)
20. Teabag Blues (bonus track) (03:59)
21. Untitled (00:11)


Exact Audio Copy V1.0 beta 3 from 29. August 2011

Отчёт EAC об извлечении, выполненном 15. августа 2012, 11:36

Corey Harris / Greens from the Garden

Дисковод: SONY CD-RW CRX230ED Adapter: 0 ID: 1

Режим чтения : Достоверность
Использование точного потока : Да
Отключение кэша аудио : Да
Использование указателей C2 : Нет

Коррекция смещения при чтении : 6
Способность читать области Lead-in и Lead-out : Нет
Заполнение пропущенных сэмплов тишиной : Да
Удаление блоков с тишиной в начале и конце : Нет
При вычислениях CRC использовались нулевые сэмплы : Да
Интерфейс : Встроенный Win32-интерфейс для Win NT/2000

Выходной формат : Внутренние WAV-операции
Формат сэмплов : 44.100 Гц; 16 бит; стерео


TOC извлечённого CD

Трек | Старт | Длительность | Начальный сектор | Конечный сектор
––––––––––––––––––––––––––––––––––-
1 | 0:00.00 | 0:48.40 | 0 | 3639
2 | 0:48.40 | 4:41.37 | 3640 | 24751
3 | 5:30.02 | 4:23.30 | 24752 | 44506
4 | 9:53.32 | 0:39.15 | 44507 | 47446
5 | 10:32.47 | 5:50.48 | 47447 | 73744
6 | 16:23.20 | 0:40.52 | 73745 | 76796
7 | 17:03.72 | 4:04.40 | 76797 | 95136
8 | 21:08.37 | 0:22.13 | 95137 | 96799
9 | 21:30.50 | 4:08.55 | 96800 | 115454
10 | 25:39.30 | 4:30.67 | 115455 | 135771
11 | 30:10.22 | 0:13.38 | 135772 | 136784
12 | 30:23.60 | 6:16.10 | 136785 | 164994
13 | 36:39.70 | 1:20.40 | 164995 | 171034
14 | 38:00.35 | 1:44.32 | 171035 | 178866
15 | 39:44.67 | 2:31.33 | 178867 | 190224
16 | 42:16.25 | 1:14.35 | 190225 | 195809
17 | 43:30.60 | 5:56.60 | 195810 | 222569
18 | 49:27.45 | 4:56.27 | 222570 | 244796
19 | 54:23.72 | 0:49.15 | 244797 | 248486
20 | 55:13.12 | 4:59.53 | 248487 | 270964
21 | 60:12.65 | 0:11.32 | 270965 | 271821


Характеристики диапазона извлечения и сообщения об ошибках

Выбранный диапазон

Имя файла E:\MusicCD\Torrent\Corey Harris - Greens from the Garden\Corey Harris - Greens from the Garden.wav

Пиковый уровень 97.7 %
Скорость извлечения 8.1 X
Качество диапазона 100.0 %
CRC теста FDFB9194
CRC копии FDFB9194
Копирование… OK

Ошибок не произошло


AccurateRip: сводка

Трек 1 : извлечено точно (доверие 3) [3999A498] (AR v2)
Трек 2 : извлечено точно (доверие 3) [181D6049] (AR v2)
Трек 3 : извлечено точно (доверие 3) [726FF866] (AR v2)
Трек 4 : извлечено точно (доверие 3) [9243418D] (AR v2)
Трек 5 : извлечено точно (доверие 3) [43C10AA6] (AR v2)
Трек 6 : извлечено точно (доверие 3) [133E1EA5] (AR v2)
Трек 7 : извлечено точно (доверие 3) [D507F3C1] (AR v2)
Трек 8 : извлечено точно (доверие 3) [676B965D] (AR v2)
Трек 9 : извлечено точно (доверие 3) [5D9BB2A7] (AR v2)
Трек 10 : извлечено точно (доверие 3) [7497B279] (AR v2)
Трек 11 : извлечено точно (доверие 3) [C06BF889] (AR v2)
Трек 12 : извлечено точно (доверие 3) [F9DCC513] (AR v2)
Трек 13 : извлечено точно (доверие 3) [7B87A83B] (AR v2)
Трек 14 : извлечено точно (доверие 3) [69509CAC] (AR v2)
Трек 15 : извлечено точно (доверие 3) [7E5076F3] (AR v2)
Трек 16 : извлечено точно (доверие 3) [408F7D21] (AR v2)
Трек 17 : извлечено точно (доверие 3) [68F16FEE] (AR v2)
Трек 18 : извлечено точно (доверие 3) [8D421FA5] (AR v2)
Трек 19 : извлечено точно (доверие 3) [53BCD54A] (AR v2)
Трек 20 : извлечено точно (доверие 3) [F557B56B] (AR v2)
Трек 21 : извлечено точно (доверие 3) [801BD3D5] (AR v2)

Все треки извлечены точно

Конец отчёта

==== Контрольная сумма отчёта 1343662118909E67E10DF52C0301AB9A3C679D673CAF7B48AF76632E3FFF0266 ====




Corey Harris - Albums Collection 1995-2012 (10CD) [Re-Up]

Corey Harris - Vü-Dü Menž (2000) with Henry Butler
EAC | FLAC | Image (Cue&Log) ~ 350 Mb | Mp3 (CBR320) ~ 125 Mb | Scans ~ 43 Mb
Label: Alligator Records | # ALCD 4872 | Time: 00:54:15

This collaboration is the first full-length release from like-minded bluesmen guitarist Corey Harris and pianist Henry Butler. Although they had previously played together on live dates, the only other time they appear on CD is on Harris' Greens From the Garden. These 15 tracks cover more ground than the mere term "blues" implies. The duo recalls not only the best of traditional piano/guitar music of the '20s and '30s, but also New Orleans soul, barrelhouse, ragtime, and Delta blues. To their credit, Harris and Butler have the ability to bring these traditions into a modern context while retaining the soul that some modern blues recordings lack. Not only are duet settings heard but a few solo spots are featured. The playing is phenomenal, which shouldn't overshadow the emotional vocal performances, including the a cappella gospel on "Why Don't You Live So God Can Use You?" that closes out this highly recommended disc.

Review by Al Campbell, Allmusic.com


Tracklist:

01. Let 'em Roll (04:17)
02. If I Was Your Man (04:39)
03. Sugar Daddy (02:39)
04. There's No Substitute For Love (04:13)
05. King Cotton (04:02)
06. Mulberry Row (03:34)
07. Down Home Livin' (03:43)
08. Voodoo Man (03:56)
09. Song of the Pipelayer (03:32)
10. If You Let A Man Kick You Once (04:14)
11. L'esprit De James (03:13)
12. Shake What Your Mama Gave You (03:22)
13. Didn't My Lord Deliver Daniel? (02:32)
14. What Man Have Done (04:00)
15. Why Don't You Live So God Can Use You? (02:13)


Exact Audio Copy V1.0 beta 3 from 29. August 2011

Отчёт EAC об извлечении, выполненном 15. августа 2012, 12:19

Corey Harris & Henry Butler / Vu-Du Menz

Дисковод: SONY CD-RW CRX230ED Adapter: 0 ID: 1

Режим чтения : Достоверность
Использование точного потока : Да
Отключение кэша аудио : Да
Использование указателей C2 : Нет

Коррекция смещения при чтении : 6
Способность читать области Lead-in и Lead-out : Нет
Заполнение пропущенных сэмплов тишиной : Да
Удаление блоков с тишиной в начале и конце : Нет
При вычислениях CRC использовались нулевые сэмплы : Да
Интерфейс : Встроенный Win32-интерфейс для Win NT/2000

Выходной формат : Внутренние WAV-операции
Формат сэмплов : 44.100 Гц; 16 бит; стерео


TOC извлечённого CD

Трек | Старт | Длительность | Начальный сектор | Конечный сектор
––––––––––––––––––––––––––––––––––-
1 | 0:00.00 | 4:17.17 | 0 | 19291
2 | 4:17.17 | 4:39.10 | 19292 | 40226
3 | 8:56.27 | 2:39.15 | 40227 | 52166
4 | 11:35.42 | 4:13.60 | 52167 | 71201
5 | 15:49.27 | 4:02.50 | 71202 | 89401
6 | 19:52.02 | 3:34.13 | 89402 | 105464
7 | 23:26.15 | 3:43.52 | 105465 | 122241
8 | 27:09.67 | 3:56.63 | 122242 | 140004
9 | 31:06.55 | 3:32.00 | 140005 | 155904
10 | 34:38.55 | 4:14.00 | 155905 | 174954
11 | 38:52.55 | 3:13.10 | 174955 | 189439
12 | 42:05.65 | 3:22.25 | 189440 | 204614
13 | 45:28.15 | 2:32.70 | 204615 | 216084
14 | 48:01.10 | 4:00.47 | 216085 | 234131
15 | 52:01.57 | 2:13.53 | 234132 | 244159


Характеристики диапазона извлечения и сообщения об ошибках

Выбранный диапазон

Имя файла E:\MusicCD\Torrent\Corey Harris & Henry Butler - Vu-Du Menz\Corey Harris & Henry Butler - Vu-Du Menz.wav

Пиковый уровень 100.0 %
Скорость извлечения 7.7 X
Качество диапазона 100.0 %
CRC теста 974C740D
CRC копии 974C740D
Копирование… OK

Ошибок не произошло


AccurateRip: сводка

Трек 1 точность не определена (достоверность 10) [61C463D6], AccurateRip вернул [05B2FB1E] (AR v2)
Трек 2 точность не определена (достоверность 10) [373DBEA4], AccurateRip вернул [C2802F51] (AR v2)
Трек 3 точность не определена (достоверность 10) [31D92CC8], AccurateRip вернул [94D723AA] (AR v2)
Трек 4 точность не определена (достоверность 10) [E46472E3], AccurateRip вернул [EB4D0529] (AR v2)
Трек 5 точность не определена (достоверность 10) [118F241E], AccurateRip вернул [1C597F4A] (AR v2)
Трек 6 точность не определена (достоверность 10) [A6F1D3F5], AccurateRip вернул [E88CDE48] (AR v2)
Трек 7 точность не определена (достоверность 10) [BB3ECD21], AccurateRip вернул [1DDB16A1] (AR v2)
Трек 8 точность не определена (достоверность 10) [EE38DC60], AccurateRip вернул [E55AE7D8] (AR v2)
Трек 9 точность не определена (достоверность 10) [DB49144C], AccurateRip вернул [0EC4E6A0] (AR v2)
Трек 10 точность не определена (достоверность 10) [9E72530A], AccurateRip вернул [C86DB1D6] (AR v2)
Трек 11 точность не определена (достоверность 10) [BDD83525], AccurateRip вернул [A8526FFD] (AR v2)
Трек 12 точность не определена (достоверность 10) [C040D7AE], AccurateRip вернул [7DBFEFCC] (AR v2)
Трек 13 точность не определена (достоверность 10) [AF2CB7DA], AccurateRip вернул [07F815FF] (AR v2)
Трек 14 точность не определена (достоверность 10) [C5FF7F05], AccurateRip вернул [4F718997] (AR v2)
Трек 15 точность не определена (достоверность 10) [03A882CE], AccurateRip вернул [50E7A079] (AR v2)

Ни один трек не прошёл проверки на точность
В вашей базе может быть иной вариант штамповки диска

Конец отчёта

==== Контрольная сумма отчёта 38CA1EC315A4771E260E7D4FFFE27D239B30545C8ACC388A4A9EDB216C8E26EB ====




Corey Harris - Albums Collection 1995-2012 (10CD) [Re-Up]

Corey Harris - Downhome Sophisticate (2002)
EAC | FLAC | Image (Cue&Log) ~ 370 Mb | Mp3 (CBR320) ~ 121 Mb | Scans ~ 58 Mb
Label: Rounder Records | # 11661-3194-2 | Time: 00:53:05

Few artists reflect the breadth of black music as vividly as Corey Harris, who performs at the peak of his strength throughout Downhome Sophisticate. The overall feel is rural, with plenty of slide guitar slithering over raw, live rhythms. The hooks have a timeless feel, as on "Keep Your Lamp Trimmed and Burning," with its rootsy gospel vocal motif and an implied handclap beat over a "My Sharona" hook. But Harris nods as well toward acoustic folk-blues, softened and broadened on the solo track "Capitaine" by an almost John Redbourne feel (which owes a lot in itself to Son House). Instrumental tracks evoke images nearly as clearly as those with words; the jump boogie bounce of "BB" paints a picture of a Southern roadhouse on a Saturday night. But when Harris adds lyrics they enhance this eloquence, as on "Fire," whose references to Babylon, bloodshed, and perditional flames project an ominous, apocalyptic power. It's an easy leap for Harris from folklore to urgent urban settings; his depiction of a police car as a fearsome, prowling Biblical beast makes "Santoro" especially disturbing. The fact that Harris also borrows from Mexican and Latino traditions, especially on "Sista Rose" and the sensuous "Black Maria," makes the point that African-American culture, the center of Western pop, abuts multiple styles and is able to draw from each with equal ease. In the end, the title says it all: This is music both primitive and elusive, easy to absorb and more difficult to play than it seems.

Review by Robert L. Doerschuk, Allmusic.com


Tracklist:

01. Giddyup (00:18)
02. Frankie Doris (02:51)
03. Money On My Mind (03:29)
04. Don.t Let The Devil Ride (02:10)
05. Keep Your Lamp Trimmed And Burning (02:52)
06. Capitaine (02:06)
07. Santoro (02:36)
08. Fire On The Radio (00:27)
09. Fire (05:09)
10. BB (02:18)
11. Downhome Prelude (00:09)
12. Downhome Sophisticate (03:17)
13. Sista Rose (06:25)
14. Black Maria (04:31)
15. Chinook (02:30)
16. Money Eye (04:04)
17. Where The Yellow Cross The Dog (01:53)
18. F'shizza (Santoro Remix) (05:42)


Exact Audio Copy V1.0 beta 3 from 29. August 2011

Отчёт EAC об извлечении, выполненном 15. августа 2012, 13:47

Corey Harris / Downhome Sophisticate

Дисковод: SONY CD-RW CRX230ED Adapter: 0 ID: 1

Режим чтения : Достоверность
Использование точного потока : Да
Отключение кэша аудио : Да
Использование указателей C2 : Нет

Коррекция смещения при чтении : 6
Способность читать области Lead-in и Lead-out : Нет
Заполнение пропущенных сэмплов тишиной : Да
Удаление блоков с тишиной в начале и конце : Нет
При вычислениях CRC использовались нулевые сэмплы : Да
Интерфейс : Встроенный Win32-интерфейс для Win NT/2000

Выходной формат : Внутренние WAV-операции
Формат сэмплов : 44.100 Гц; 16 бит; стерео


TOC извлечённого CD

Трек | Старт | Длительность | Начальный сектор | Конечный сектор
––––––––––––––––––––––––––––––––––-
1 | 0:00.00 | 0:18.27 | 0 | 1376
2 | 0:18.27 | 2:52.68 | 1377 | 14344
3 | 3:11.20 | 3:31.55 | 14345 | 30224
4 | 6:43.00 | 2:10.00 | 30225 | 39974
5 | 8:53.00 | 2:53.35 | 39975 | 52984
6 | 11:46.35 | 2:06.60 | 52985 | 62494
7 | 13:53.20 | 2:36.37 | 62495 | 74231
8 | 16:29.57 | 0:27.05 | 74232 | 76261
9 | 16:56.62 | 5:09.55 | 76262 | 99491
10 | 22:06.42 | 2:18.70 | 99492 | 109911
11 | 24:25.37 | 0:09.68 | 109912 | 110654
12 | 24:35.30 | 3:17.62 | 110655 | 125491
13 | 27:53.17 | 6:28.48 | 125492 | 154639
14 | 34:21.65 | 4:32.42 | 154640 | 175081
15 | 38:54.32 | 2:30.70 | 175082 | 186401
16 | 41:25.27 | 4:04.15 | 186402 | 204716
17 | 45:29.42 | 1:53.33 | 204717 | 213224
18 | 47:23.00 | 5:42.57 | 213225 | 238931


Характеристики диапазона извлечения и сообщения об ошибках

Выбранный диапазон

Имя файла E:\MusicCD\Torrent\Corey Harris - Downhome Sophisticate\Corey Harris - Downhome Sophisticate.wav

Пиковый уровень 99.5 %
Скорость извлечения 7.6 X
Качество диапазона 100.0 %
CRC теста 977FF00E
CRC копии 977FF00E
Копирование… OK

Ошибок не произошло


AccurateRip: сводка

Трек 1 : извлечено точно (доверие 17) [A5FFD2DA] (AR v1)
Трек 2 : извлечено точно (доверие 17) [C0CA47E9] (AR v1)
Трек 3 : извлечено точно (доверие 17) [969B7C27] (AR v1)
Трек 4 : извлечено точно (доверие 17) [3E31282E] (AR v1)
Трек 5 : извлечено точно (доверие 17) [826A72B1] (AR v1)
Трек 6 : извлечено точно (доверие 17) [2F964567] (AR v1)
Трек 7 : извлечено точно (доверие 17) [DBE368F2] (AR v1)
Трек 8 : извлечено точно (доверие 17) [25B012CB] (AR v1)
Трек 9 : извлечено точно (доверие 17) [A5428CB6] (AR v1)
Трек 10 : извлечено точно (доверие 17) [88E402E6] (AR v1)
Трек 11 : извлечено точно (доверие 17) [97FF519C] (AR v1)
Трек 12 отсутствует в базе данных
Трек 13 : извлечено точно (доверие 17) [A2CCBF32] (AR v1)
Трек 14 : извлечено точно (доверие 17) [6853563B] (AR v1)
Трек 15 : извлечено точно (доверие 17) [D09C4DD1] (AR v1)
Трек 16 : извлечено точно (доверие 17) [CD9DFEF1] (AR v1)
Трек 17 : извлечено точно (доверие 17) [16B12691] (AR v1)
Трек 18 : извлечено точно (доверие 17) [A2CC6A60] (AR v1)

17 трек(и) скопированы точно
1 трек(и) не содержатся в базе AccurateRip

Некоторые треки не прошли проверку на точность

Конец отчёта

==== Контрольная сумма отчёта 345DCE6A0B3C62253CFF8C5966E86E5B14E532CC392869D3B8D4D2E16C5ADD50 ====




Corey Harris - Albums Collection 1995-2012 (10CD) [Re-Up]

Corey Harris - Mississippi to Mali (2003)
EAC | FLAC | Image (Cue&Log) ~ 415 Mb | Mp3 (CBR320) ~ 149 Mb | Scans ~ 46 Mb
Label: Rounder Records | # 11661 3198-2 | Time: 01:05:04

Corey Harris is adept at combining contemporary sensibilities with traditional country blues forms in a manner so natural that the cracks and fissures between now and then never seem to show, an accomplishment he expands on Mississippi to Mali to include two continents. Again, the music flows so naturally that the bridges and welds that join the African and African-American traditions on this record are never obvious, creating a seamless, wonderful album. The tracks were recorded live in the field, an approach that strengthens the intimate feel here, and there are numerous high points, including Africanized versions of Skip James' "Cypress Grove Blues" and Robert Petway's "Catfish Blues" that open new dimensions in each song without altering its original intent and tone. A version of "Sitting on Top of the World" (called "Station Blues" here) with the Rising Star Fife and Drum Band, and featuring Shardé Thomas, the 12-year-old granddaughter of Othar Turner, is a particular delight in its ramshackle exuberance. Mississippi to Mali closes with a credible and moving take on Blind Willie Johnson's "Dark Was the Night, Cold Was the Ground" that spotlights Harris' considerable acoustic slide skills. This is another fine album from a player whose reverence for the blues doesn't keep him from instilling the form with both joy and innovation.

Review by Steve Leggett, Allmusic.com


Tracklist:

01. Coahoma (01:47)
02. Big Road Blues (03:03)
03. Special Rider Blues (04:52)
04. Tamalah (06:38)
05. Back Atcha (02:36)
06. Rokie (03:43)
07. La Chanson Des Bozos (04:17)
08. Mr. Turner (04:39)
09. Cypress Grove (02:59)
10. Station Blues (03:24)
11. .44 Blues (07:24)
12. Njarka (03:53)
13. Charlene (04:58)
14. Catfish Blues (06:37)
15. Dark Was The Night, Cold Was The Ground (03:28)


Exact Audio Copy V1.0 beta 3 from 29. August 2011

Отчёт EAC об извлечении, выполненном 15. августа 2012, 15:36

Corey Harris / Mississippi to Mali

Дисковод: SONY CD-RW CRX230ED Adapter: 0 ID: 1

Режим чтения : Достоверность
Использование точного потока : Да
Отключение кэша аудио : Да
Использование указателей C2 : Нет

Коррекция смещения при чтении : 6
Способность читать области Lead-in и Lead-out : Нет
Заполнение пропущенных сэмплов тишиной : Да
Удаление блоков с тишиной в начале и конце : Нет
При вычислениях CRC использовались нулевые сэмплы : Да
Интерфейс : Встроенный Win32-интерфейс для Win NT/2000

Выходной формат : Внутренние WAV-операции
Формат сэмплов : 44.100 Гц; 16 бит; стерео


TOC извлечённого CD

Трек | Старт | Длительность | Начальный сектор | Конечный сектор
––––––––––––––––––––––––––––––––––-
1 | 0:00.00 | 1:49.05 | 0 | 8179
2 | 1:49.05 | 3:06.10 | 8180 | 22139
3 | 4:55.15 | 4:53.72 | 22140 | 44186
4 | 9:49.12 | 6:40.60 | 44187 | 74246
5 | 16:29.72 | 2:40.70 | 74247 | 86316
6 | 19:10.67 | 3:45.30 | 86317 | 103221
7 | 22:56.22 | 4:20.33 | 103222 | 122754
8 | 27:16.55 | 4:43.65 | 122755 | 144044
9 | 32:00.45 | 3:01.65 | 144045 | 157684
10 | 35:02.35 | 3:29.35 | 157685 | 173394
11 | 38:31.70 | 7:28.27 | 173395 | 207021
12 | 46:00.22 | 3:55.40 | 207022 | 224686
13 | 49:55.62 | 5:01.18 | 224687 | 247279
14 | 54:57.05 | 6:39.37 | 247280 | 277241
15 | 61:36.42 | 3:28.15 | 277242 | 292856


Характеристики диапазона извлечения и сообщения об ошибках

Выбранный диапазон

Имя файла E:\MusicCD\Torrent\Corey Harris - Mississippi to Mali\Corey Harris - Mississippi to Mali.wav

Пиковый уровень 98.8 %
Скорость извлечения 8.0 X
Качество диапазона 100.0 %
CRC теста 69444955
CRC копии 69444955
Копирование… OK

Ошибок не произошло


AccurateRip: сводка

Трек 1 : извлечено точно (доверие 6) [90FF5FD0] (AR v1)
Трек 2 : извлечено точно (доверие 6) [537C929A] (AR v1)
Трек 3 : извлечено точно (доверие 6) [AC4F42EB] (AR v1)
Трек 4 : извлечено точно (доверие 6) [EA34BE12] (AR v1)
Трек 5 : извлечено точно (доверие 6) [21A43C70] (AR v1)
Трек 6 : извлечено точно (доверие 6) [1FFA002F] (AR v1)
Трек 7 : извлечено точно (доверие 6) [3D981465] (AR v1)
Трек 8 : извлечено точно (доверие 6) [4B89948E] (AR v1)
Трек 9 : извлечено точно (доверие 6) [E862F9AF] (AR v1)
Трек 10 : извлечено точно (доверие 5) [6A33F55A] (AR v1)
Трек 11 : извлечено точно (доверие 6) [D59A2A74] (AR v1)
Трек 12 : извлечено точно (доверие 6) [0BD56971] (AR v1)
Трек 13 : извлечено точно (доверие 6) [61E5C536] (AR v1)
Трек 14 : извлечено точно (доверие 4) [066986AB] (AR v1)
Трек 15 : извлечено точно (доверие 4) [F34DE0C2] (AR v1)

Все треки извлечены точно

Конец отчёта

==== Контрольная сумма отчёта ADBF361D6421166992BED636348E53384C2B2008EB3992FB3BE7F56C50E7A899 ====




Corey Harris - Albums Collection 1995-2012 (10CD) [Re-Up]

Corey Harris - Daily Bread (2005)
EAC | FLAC | Image (Cue&Log) ~ 396 Mb | Mp3 (CBR320) ~ 138 Mb | Scans ~ 67 Mb
Label: Rounder Records | # 11661-3219-2 | Time: 01:00:09

Corey Harris takes a decidedly anthropological and academic approach to the blues, deeply researching its variants and origins, even making several trips to Africa to trace out its DNA (resulting in the marvelous Mississippi to Mali), but even as Harris thinks and connects dots like a scholar, when he gets down to playing the songs, he's all musician, and that leads him to create some wonderful hybrids. One would expect Harris to build further on the Mali connection for this album, but Daily Bread surprises by sounding more Jamaican than anything else, and even includes striking covers of John Holt's "I See Your Face" and Sylford Walker's "Lamb's Bread," which merge the reggae rhythms of the originals with a sort of blues sensibility, while the political "The Bush Is Burning" is nothing less than full-blown ska. There are two tracks here ("Mami Wata" and "The Peach") featuring guitarist, trumpeter, and vocalist Olu Dara that do build on the African dimension, with "The Peach" – a ten-minute-long Griot creation rap – in particular becoming a kind of perfect blend of Africa and Delta, but the rhythmic synthesis is so complete on Daily Bread that everything meshes together like pieces from the same bright quilt. Perhaps the most amazing thing about this album is how ultimately American it sounds (no doubt thanks to the presence of New Orleans pianist Henry Butler on several cuts) in spite of its Caribbean and African lilt, a testament to how well Harris pulls all these different international strands together without losing sight of where his musical journey began. Given his penchant for researching origins and sources, one would expect Harris to have a preservationist approach to the blues, but he's really more interested in the dynamic possibilities of the genre, and he does this on Daily Bread by looking to Africa and the Caribbean, with the end result being a wonderfully varied and yet unified album that preserves the blues by gracefully expanding the genre's possibilities.

Review by Steve Leggett, Allmusic.com


Tracklist:

01. Daily Bread (05:11)
02. I See Your Face (03:24)
03. Got to Be a Better Way (03:41)
04. A Nickel and a Nail (04:18)
05. The Sweetest Fruit (03:57)
06. Mami Wata feat. Olu Dara (03:26)
07. Lamb's Bread (03:46)
08. Just in Time (03:36)
09. Khaira (03:45)
10. Big String (05:45)
11. More Precious than Gold (05:13)
12. The Bush Is Burning (03:52)
13. The Peach feat. Olau Dara - bonus track (10:00)


Exact Audio Copy V0.99 prebeta 5 from 4. May 2009

Отчёт EAC об извлечении, выполненном 22. февраля 2011, 21:16

Corey Harris / Daily Bread

Дисковод: TEAC CD-W552G Adapter: 1 ID: 1

Режим чтения : Достоверность
Использование точного потока : Да
Отключение кэша аудио : Да
Использование указателей C2 : Нет

Коррекция смещения при чтении : 6
Способность читать области Lead-in и Lead-out : Нет
Заполнение пропущенных сэмплов тишиной : Да
Удаление блоков с тишиной в начале и конце : Нет
При вычислениях CRC использовались нулевые сэмплы : Да
Интерфейс : Установленный внешний ASPI-интерфейс

Выходной формат : Внутренние WAV-операции
Формат сэмплов : 44.100 Гц; 16 бит; стерео


TOC извлечённого CD

Трек | Старт | Длительность | Начальный сектор | Конечный сектор
––––––––––––––––––––––––––––––––––-
1 | 0:00.00 | 5:12.03 | 0 | 23402
2 | 5:12.03 | 3:25.03 | 23403 | 38780
3 | 8:37.06 | 3:41.42 | 38781 | 55397
4 | 12:18.48 | 4:20.45 | 55398 | 74942
5 | 16:39.18 | 3:57.03 | 74943 | 92720
6 | 20:36.21 | 3:26.42 | 92721 | 108212
7 | 24:02.63 | 3:47.08 | 108213 | 125245
8 | 27:49.71 | 3:36.67 | 125246 | 141512
9 | 31:26.63 | 3:46.50 | 141513 | 158512
10 | 35:13.38 | 5:46.33 | 158513 | 184495
11 | 40:59.71 | 5:14.20 | 184496 | 208065
12 | 46:14.16 | 3:54.48 | 208066 | 225663
13 | 50:08.64 | 10:00.53 | 225664 | 270716


Характеристики диапазона извлечения и сообщения об ошибках

Выбранный диапазон

Имя файла D:\MusicCD\Torrent\Corey Harris - Daily Bread\Corey Harris - Daily Bread.wav

Пиковый уровень 95.7 %
Качество диапазона 99.9 %
CRC теста 299835AD
CRC копии 299835AD
Копирование… OK

Ошибок не произошло


AccurateRip: сводка

Трек 1 точное извлечение (доверие 6) [846D3F73]
Трек 2 точное извлечение (доверие 6) [D2A5FC6B]
Трек 3 точное извлечение (доверие 6) [F45AD7BF]
Трек 4 точное извлечение (доверие 6) [C26972C1]
Трек 5 точное извлечение (доверие 6) [CB715BEE]
Трек 6 точное извлечение (доверие 6) [3347C96A]
Трек 7 точное извлечение (доверие 6) [B46CB3D5]
Трек 8 точное извлечение (доверие 6) [3830E54B]
Трек 9 точное извлечение (доверие 6) [EBDB0DDB]
Трек 10 точное извлечение (доверие 6) [2E0262F1]
Трек 11 точное извлечение (доверие 6) [FDC7BBDF]
Трек 12 точное извлечение (доверие 6) [505E2C1C]
Трек 13 точное извлечение (доверие 6) [3884B612]

Все треки извлечены точно

Конец отчёта




Corey Harris - Albums Collection 1995-2012 (10CD) [Re-Up]

Corey Harris - Zion Crossroads (2007)
EAC | FLAC | Image (Cue&Log) ~ 359 Mb | Mp3 (CBR320) ~ 117 Mb | Scans ~ 97 Mb
Label: Telarc | # CD-83656 | Time: 00:50:42

Corey Harris has spent his career digging for roots, looking for the links that bind his beloved blues with African music and other tributaries of black music, including old-time jazz and R&B. On the brilliant 2003 Mississippi to Mali, Harris took his recording equipment to the field in those two seemingly far-apart locales, and discovered they were closer than you might think. Before that, on 1999's Greens from the Garden, he found common threads between the blues of the Delta and the many variations of Americana that Louisiana has to offer. For Zion Crossroads, Harris turns his attention to reggae – real roots reggae, not the often unrecognizable spinoffs that pass for it today. At times, Zion Crossroads is virtually indistinguishable from the righteous, spiritually motivated, Rasta-centered reggae that first emerged from Jamaica in the early '70s. Harris' songs here deal with the issues that concerned the pioneers like Bob Marley, Burning Spear, and Black Uhuru, when reggae was vital to the Rastafarian existence, not just another exotic rhythm on the dancefloor. In "Sweatshop," Harris laments the deplorable conditions under which so many still labor today: "All day on your feet just to make ends meet/So hot it burn your skin, tell you it's a grievous sin." "No Peace for the Wicked," which features Ranking Joe guesting on DJ vocals, is a song of encouragement in light of oppression, and the uptempo "Keep Your Culture" is self-explanatory, asking blacks, simply, "If not you, then who?" Harris uses standard roots reggae instrumentation for most of the album – guitars, keyboards, horns, drums – but one of the more interesting diversions takes place on the two-part "Walter Rodney." A tribute to the Guyanese political activist killed by a bomb while running for office in 1980, the song adds the African ngoni, played by Cheick Hamala Diabaté, tying it to Harris' African-themed recordings. And "Plantation Town" has nothing at all to do with reggae – it's a nearly traditional country tune, complete with fiddle. It may not sound like anything else on the record, but its condemnation of slavery is very much in keeping with Harris' wakeup call for unity and harmony in a world that needs it more than ever.

Review by Jeff Tamarkin, Allmusic.com


Tracklist:

01. Ark of the Covenant (03:39)
02. No Peace for the Wicked (04:12)
03. Heathen Rage (04:30)
04. Sweatshop (03:56)
05. In the Morning (05:22)
06. Fire Go Come (03:48)
07. Walter Rodney Intro (00:47)
08. Walter Rodney (04:04)
09. Afrique (Chez Moi) (03:15)
10. Cleanliness (04:38)
11. Plantation Town (03:59)
12. You Never Know (04:18)
13. Keep Your Culture (03:56)


Exact Audio Copy V1.0 beta 3 from 29. August 2011

Отчёт EAC об извлечении, выполненном 15. августа 2012, 16:16

Corey Harris / Zion Crossroads

Дисковод: SONY CD-RW CRX230ED Adapter: 0 ID: 1

Режим чтения : Достоверность
Использование точного потока : Да
Отключение кэша аудио : Да
Использование указателей C2 : Нет

Коррекция смещения при чтении : 6
Способность читать области Lead-in и Lead-out : Нет
Заполнение пропущенных сэмплов тишиной : Да
Удаление блоков с тишиной в начале и конце : Нет
При вычислениях CRC использовались нулевые сэмплы : Да
Интерфейс : Встроенный Win32-интерфейс для Win NT/2000

Выходной формат : Внутренние WAV-операции
Формат сэмплов : 44.100 Гц; 16 бит; стерео


TOC извлечённого CD

Трек | Старт | Длительность | Начальный сектор | Конечный сектор
––––––––––––––––––––––––––––––––––-
1 | 0:00.00 | 3:40.70 | 0 | 16569
2 | 3:40.70 | 4:13.48 | 16570 | 35592
3 | 7:54.43 | 4:32.33 | 35593 | 56025
4 | 12:27.01 | 3:56.73 | 56026 | 73798
5 | 16:23.74 | 5:23.54 | 73799 | 98077
6 | 21:47.53 | 3:48.50 | 98078 | 115227
7 | 25:36.28 | 0:47.68 | 115228 | 118820
8 | 26:24.21 | 4:05.48 | 118821 | 137243
9 | 30:29.69 | 3:16.17 | 137244 | 151960
10 | 33:46.11 | 4:39.17 | 151961 | 172902
11 | 38:25.28 | 4:00.33 | 172903 | 190935
12 | 42:25.61 | 4:20.24 | 190936 | 210459
13 | 46:46.10 | 3:56.38 | 210460 | 228197


Характеристики диапазона извлечения и сообщения об ошибках

Выбранный диапазон

Имя файла E:\MusicCD\Torrent\Corey Harris - Zion Crossroads\Corey Harris - Zion Crossroads.wav

Пиковый уровень 100.0 %
Скорость извлечения 8.3 X
Качество диапазона 100.0 %
CRC теста E1650B2B
CRC копии E1650B2B
Копирование… OK

Ошибок не произошло


AccurateRip: сводка

Трек 1 точность не определена (достоверность 3) [98EF82D1], AccurateRip вернул [D92A13A1] (AR v2)
Трек 2 точность не определена (достоверность 3) [B9566138], AccurateRip вернул [7FF23024] (AR v2)
Трек 3 точность не определена (достоверность 3) [3D6FAE1C], AccurateRip вернул [65BC3A33] (AR v2)
Трек 4 точность не определена (достоверность 3) [1248B035], AccurateRip вернул [3C695717] (AR v2)
Трек 5 точность не определена (достоверность 3) [D294F8FF], AccurateRip вернул [2BA971A4] (AR v2)
Трек 6 точность не определена (достоверность 3) [30974B62], AccurateRip вернул [CCFCCA7D] (AR v2)
Трек 7 точность не определена (достоверность 3) [765C6704], AccurateRip вернул [D38376A7] (AR v2)
Трек 8 точность не определена (достоверность 3) [D4A1C8A9], AccurateRip вернул [AFC82D1F] (AR v2)
Трек 9 точность не определена (достоверность 3) [A7F8E6C7], AccurateRip вернул [4B50663B] (AR v2)
Трек 10 точность не определена (достоверность 3) [9FEAD372], AccurateRip вернул [A798BA8F] (AR v2)
Трек 11 точность не определена (достоверность 3) [70D9E926], AccurateRip вернул [C734A320] (AR v2)
Трек 12 точность не определена (достоверность 3) [C6C665D1], AccurateRip вернул [7A741A40] (AR v2)
Трек 13 точность не определена (достоверность 3) [9433F492], AccurateRip вернул [EC25717E] (AR v2)

Ни один трек не прошёл проверки на точность
В вашей базе может быть иной вариант штамповки диска

Конец отчёта

==== Контрольная сумма отчёта B6F763858C38D5CFA840C54E63E92D3E0449BA2C78415D2997B8A08848204773 ====




Corey Harris - Albums Collection 1995-2012 (10CD) [Re-Up]

Corey Harris - blu.black (2009)
EAC | FLAC | Image (Cue&Log) ~ 370 Mb | Mp3 (CBR320) ~ 122 Mb | Scans ~ 36 Mb
Label: Telarc | # TEL-31795-02 | Time: 00:52:54

Corey Harris takes a decidedly anthropological and academic approach to the blues, deeply researching its variants and origins, even making several trips to Africa to trace out its DNA (resulting in the marvelous Mississippi to Mali), but even as Harris thinks and connects dots like a scholar, when he gets down to playing the songs, he's all musician, and that leads him to create some wonderful hybrids, and he seems to have settled down lately with a sound that seems more Jamaican than anything else. Blu. Black starts with the lovely "Blue" and ends with a juke joint blues called "Black," so it's obvious what terrain Harris is mapping out here, but in between he gently works in some Americanized roots reggae, some quiet storm-type ballads, and odds and ends of other Afro-matrixed musical ephemera, and amazingly, he does it with a calm, assured, and extremely positive voice that is as welcome as it is vital. One hesitates to call this stuff blues, although it certainly is blues-informed (but then so is 99 percent of what you hear on the radio, really). A winning singer with an easy charm, Harris shines here on songs (most of them were co-written with keyboardist and producer Chris "Peanut" Whitley) like "King and Queen" (a duet with Davina Jackson), the straight-out-of-Kingston-sounding "Conquering Lion," the sunny skanking "Run Around Girl," and a moving, stark solo version of Burning Spear's "Columbus." It all goes down easy, and Harris' naturally positive tone makes this album yet another treat from this gifted musician.

Review by Steve Leggett, Allmusic.com


Tracklist:

01. Black (03:50)
02. My Song (04:14)
03. Find A Way (03:52)
04. Conquering Lion (03:41)
05. Babylon Walls (02:46)
06. King And Queen (04:05)
07. So Good To Me (03:17)
08. Columbus (03:59)
09. Pimps And Thieves (03:38)
10. Blessed Seed (03:35)
11. Run Around Girl (04:10)
12. Backlash (03:48)
13. Everytime I Look At You (03:10)
14. Blues (04:28)


Exact Audio Copy V1.0 beta 3 from 29. August 2011

Отчёт EAC об извлечении, выполненном 15. августа 2012, 16:47

Corey Harris / Blu.Black

Дисковод: SONY CD-RW CRX230ED Adapter: 0 ID: 1

Режим чтения : Достоверность
Использование точного потока : Да
Отключение кэша аудио : Да
Использование указателей C2 : Нет

Коррекция смещения при чтении : 6
Способность читать области Lead-in и Lead-out : Нет
Заполнение пропущенных сэмплов тишиной : Да
Удаление блоков с тишиной в начале и конце : Нет
При вычислениях CRC использовались нулевые сэмплы : Да
Интерфейс : Встроенный Win32-интерфейс для Win NT/2000

Выходной формат : Внутренние WAV-операции
Формат сэмплов : 44.100 Гц; 16 бит; стерео


TOC извлечённого CD

Трек | Старт | Длительность | Начальный сектор | Конечный сектор
––––––––––––––––––––––––––––––––––-
1 | 0:00.00 | 3:51.33 | 0 | 17357
2 | 3:51.33 | 4:15.54 | 17358 | 36536
3 | 8:07.12 | 3:53.10 | 36537 | 54021
4 | 12:00.22 | 3:42.51 | 54022 | 70722
5 | 15:42.73 | 2:47.11 | 70723 | 83258
6 | 18:30.09 | 4:06.48 | 83259 | 101756
7 | 22:36.57 | 3:18.59 | 101757 | 116665
8 | 25:55.41 | 4:00.38 | 116666 | 134703
9 | 29:56.04 | 3:39.63 | 134704 | 151191
10 | 33:35.67 | 3:37.12 | 151192 | 167478
11 | 37:13.04 | 4:11.61 | 167479 | 186364
12 | 41:24.65 | 3:49.44 | 186365 | 203583
13 | 45:14.34 | 3:12.01 | 203584 | 217984
14 | 48:26.35 | 4:28.18 | 217985 | 238102


Характеристики диапазона извлечения и сообщения об ошибках

Выбранный диапазон

Имя файла E:\MusicCD\Torrent\Corey Harris - Blu.Black\Corey Harris - Blu.Black.wav

Пиковый уровень 99.5 %
Скорость извлечения 8.3 X
Качество диапазона 100.0 %
CRC теста 13CF6483
CRC копии 13CF6483
Копирование… OK

Ошибок не произошло


AccurateRip: сводка

Трек 1 : извлечено точно (доверие 6) [5CAAA279] (AR v1)
Трек 2 : извлечено точно (доверие 6) [355E22AF] (AR v1)
Трек 3 : извлечено точно (доверие 6) [84FF3D0D] (AR v1)
Трек 4 : извлечено точно (доверие 6) [2A39CC0B] (AR v1)
Трек 5 : извлечено точно (доверие 6) [8432D2DD] (AR v1)
Трек 6 : извлечено точно (доверие 6) [1D072345] (AR v1)
Трек 7 : извлечено точно (доверие 6) [C8625FE3] (AR v1)
Трек 8 : извлечено точно (доверие 6) [1AAC1E61] (AR v1)
Трек 9 : извлечено точно (доверие 6) [2243C13C] (AR v1)
Трек 10 : извлечено точно (доверие 6) [0A78E63C] (AR v1)
Трек 11 : извлечено точно (доверие 6) [B640490B] (AR v1)
Трек 12 : извлечено точно (доверие 6) [CB79BD29] (AR v1)
Трек 13 : извлечено точно (доверие 6) [31DECC9A] (AR v1)
Трек 14 : извлечено точно (доверие 6) [0F7D96F3] (AR v1)

Все треки извлечены точно

Конец отчёта

==== Контрольная сумма отчёта 90C11AC9D8D57C2FF6FEC54840EE48A885AB8B6DC03EEF6AFA138F76BE1BB9D0 ====




Corey Harris - Albums Collection 1995-2012 (10CD) [Re-Up]

Corey Harris - Fulton Blues (2012)
EAC | FLAC | Image (Cue&Log) ~ 321 Mb | Mp3 (CBR320) ~ 103 Mb | Scans ~ 79 Mb
Label: Njumba | # MWL3623 | Time: 00:44:46

Corey Harris takes a decidedly anthropological and academic approach to the blues, deeply researching its variants and origins, and he's become adept at combining West African, Jamaican, and Creole rhythms with traditional country blues forms in a manner so natural that the cracks and fissures between now and then and between here and there never seem to show. This set finds him revisiting the many different approaches he's taken to the blues over the years, from solo acoustic guitar tracks to full-blown band-with-horn-section tracks, and he does it all with the same sort of slightly ragged, live feel, which is perhaps why Harris' performances always seem fresh and energized, even if the song he's singing dwells on weariness, pain, or injustice. There are many fine highlights of that here, including the timeless horn-driven jump blues opener "Crying Blues," the organ and horn-led deep soul-blues of "Tallahatchie," and the swampy, North Mississippi drone blues of "Catfish Blues," but overall, Fulton Blues has a sort of random feel, as if Harris just kept changing blues hats at whim, track after track, until he'd worn them all. That would be a bad thing if Harris wasn't engaging as a performer no matter what hat he wears, but here he does seem to be surveying where's he's been more than deciding where he may go next.

Review by Steve Leggett, Allmusic


Tracklist:

01. Crying Blues (03:04)
02. Underground (02:32)
03. J. Gilly Blues (02:16)
04. Black Woman Gates (02:39)
05. Tallahatchie (03:52)
06. Fulton Blues (02:44)
07. Devil Got My Woman (03:59)
08. House Negro Blues (04:32)
09. Black Rag (01:58)
10. Catfish Blues (03:57)
11. That Will Never Happen No More (02:51)
12. Lynch Blues (03:26)
13. Maggie Walker Blues (03:10)
14. Fat Duck's Groove (03:39)


Exact Audio Copy V1.0 beta 3 from 29. August 2011

Отчёт EAC об извлечении, выполненном 4. июля 2013, 20:30

Corey Harris / Fulton Blues

Дисковод: SONY CD-RW CRX230ED Adapter: 0 ID: 1

Режим чтения : Достоверность
Использование точного потока : Да
Отключение кэша аудио : Да
Использование указателей C2 : Нет

Коррекция смещения при чтении : 6
Способность читать области Lead-in и Lead-out : Нет
Заполнение пропущенных сэмплов тишиной : Да
Удаление блоков с тишиной в начале и конце : Нет
При вычислениях CRC использовались нулевые сэмплы : Да
Интерфейс : Установленный внешний ASPI-интерфейс

Выходной формат : Внутренние WAV-операции
Формат сэмплов : 44.100 Гц; 16 бит; стерео


TOC извлечённого CD

Трек | Старт | Длительность | Начальный сектор | Конечный сектор
––––––––––––––––––––––––––––––––––-
1 | 0:00.00 | 3:04.27 | 0 | 13826
2 | 3:04.27 | 2:32.59 | 13827 | 25285
3 | 5:37.11 | 2:16.57 | 25286 | 35542
4 | 7:53.68 | 2:39.22 | 35543 | 47489
5 | 10:33.15 | 3:52.34 | 47490 | 64923
6 | 14:25.49 | 2:44.57 | 64924 | 77280
7 | 17:10.31 | 3:59.61 | 77281 | 95266
8 | 21:10.17 | 4:32.17 | 95267 | 115683
9 | 25:42.34 | 1:58.47 | 115684 | 124580
10 | 27:41.06 | 3:57.23 | 124581 | 142378
11 | 31:38.29 | 2:51.27 | 142379 | 155230
12 | 34:29.56 | 3:26.08 | 155231 | 170688
13 | 37:55.64 | 3:10.39 | 170689 | 184977
14 | 41:06.28 | 3:39.34 | 184978 | 201436


Характеристики диапазона извлечения и сообщения об ошибках

Выбранный диапазон

Имя файла E:\MusicCD\Torrent\Corey Harris - Studio Discography\Corey Harris - Fulton Blues\Corey Harris - Fulton Blues.wav

Пиковый уровень 100.0 %
Скорость извлечения 7.7 X
Качество диапазона 100.0 %
CRC теста 79C17679
CRC копии 79C17679
Копирование… OK

Ошибок не произошло


AccurateRip: сводка

Трек 1 отсутствует в базе данных
Трек 2 отсутствует в базе данных
Трек 3 отсутствует в базе данных
Трек 4 отсутствует в базе данных
Трек 5 отсутствует в базе данных
Трек 6 отсутствует в базе данных
Трек 7 отсутствует в базе данных
Трек 8 отсутствует в базе данных
Трек 9 отсутствует в базе данных
Трек 10 отсутствует в базе данных
Трек 11 отсутствует в базе данных
Трек 12 отсутствует в базе данных
Трек 13 отсутствует в базе данных
Трек 14 отсутствует в базе данных

Ни одного трека нет в базе AccurateRip

Конец отчёта

==== Контрольная сумма отчёта C20C124CB80B9B60AB7D48ED5E720967FB4C55EC58C3F58CFA47042BF55CD18E ====




All thanks to original releaser - squirr

More interesting music in My Blog