Subcategories
Tags
Language
Tags

Tan Dun, Yo-Yo Ma - Crouching Tiger, Hidden Dragon: Original Motion Picture Soundtrack (2000) [Re-Up]

Posted By: Efgrapha
Tan Dun, Yo-Yo Ma - Crouching Tiger, Hidden Dragon: Original Motion Picture Soundtrack (2000) [Re-Up]

Tan Dun, Yo-Yo Ma - Crouching Tiger, Hidden Dragon: Original Motion Picture Soundtrack (2000)
EAC | FLAC (Tracks) + cue.+log ~ 229 Mb | Mp3, CBR320 kbps ~ 127 Mb | Scans included
Soundtrack, Score, Chinese Classical | Label: Sony Classical | # SK 89347 | 00:50:13

The classical works of Tan Dun typically fuse compositional elements from the East and the West, but for his soundtrack to Ang Lee's Crouching Tiger, Hidden Dragon, musical cultures aren't so much blurred as coexistent side-by-side. While the magical martial arts film doesn't boast music as stunning as its visuals, this soundtrack is still beautiful and elegant, a perfect complement to the movie's mysticism. Just don't expect epic, John Williams-inspired bombast here. On "A Wedding Interrupted," the riveting brass and string section introduction segues into soft-hued meditations; "Night Fight" boasts spiky percussion but sounds more reminiscent of Stomp than a kung-fu scene. That said, Dun's understated score–filled with Asian instrumentation, Romantic cello solos from Yo-Yo Ma, and a token theme song with vocals by Asian pop star CoCo Lee–is still a fascinating listen. Fans of Ma and Dun shouldn't pass this up.

Jason Verlinde

First released in East Asia in the spring of 2000, acclaimed director Ang Lee's Crouching Tiger Hidden Dragon, a high-class film tribute to the wu sha, or magical sword fighter, genre of martial arts film, became an international hit, even where shown in Mandarin with subtitles.

The film was scored by Tan Dun, a Chinese-born composer who lived in the United States and is learned in Western and Chinese music. A significant part of the film takes place in the Western Chinese desert regions, where Tan was sent to work as a boy during the Cultural Revolution and learned the local music, which also finds its way into the score.

Tan Dun used highly diverse and complex forces in making this recording, including the Shanghai Symphony Orchestra (Western instruments), the Shanghai National Orchestra (ethnic Chinese instruments), and the Shanghai Percussion Ensemble. The prominent cello part is played by international star Yo-Yo Ma, who convincingly realizes the Chinese flavor written into this solo line, particularly in an enchanting duet with the ethnic Chinese violin, the erhu, played by Ma Xiao Hui. Tang Jun Qiao plays two instruments, called the bowu and dizi, Alimjan plays an ethnic instrument of West Chinese origin called the rawap, and the hand drum (another instrument from the region) is played by Kasim. Tan Dun and Jorge Calandrelli's A Love Before Time, the end titles tune, is sung by Hong Kong pop star CoCo Lee and presented, in full, in both English and Mandarin versions.

The performances are first rate and excellently recorded. The album makes good listening, though one can complain that cues are not played in their dramatic order, and that some of the most interesting ethnic-style cues from the film are cut out, whereas at fifty minutes the release could certainly have included them.

Joseph Stevenson, All Music Guide

Tan Dun, Yo-Yo Ma - Crouching Tiger, Hidden Dragon: Original Motion Picture Soundtrack (2000) [Re-Up]

Ang Lee, Yo-Yo Ma, Tan Dun


~ Tan Dun at Allmusic
~ Tan Dun at Wiki

~ Yo-Yo Ma at Allmusic
~ Yo-Yo Ma at Wiki

~ Film at IMDB
~ Film at Wiki

Tracklist:

01. Crouching Tiger, Hidden Dragon (03:24)
02. The Eternal Vow (03:01)
03. A Wedding Interrupted (02:16)
04. Night Fight (03:10)
05. Silk Road (03:08)
06. To The South (02:21)
07. Through The Bamboo Forest (04:23)
08. The Encounter (02:40)
09. Desert Capriccio (04:33)
10. In The Old Temple (03:46)
11. Yearning Of The Sword (03:34)
12. Sorrow (04:02)
13. Farewell (02:25)
14. A Love Before Time (English) (03:45)
15. A Love Before Time (Mandarin) (03:38)


Exact Audio Copy V0.99 prebeta 4 from 23. January 2008

EAC extraction logfile from 15. December 2008, 20:37

Tan Dun / Crouching Tiger Hidden Dragon (Original Motion Picture Soundtrack)

Used drive : Optiarc DVD RW AD-7543A Adapter: 1 ID: 0

Read mode : Secure
Utilize accurate stream : Yes
Defeat audio cache : Yes
Make use of C2 pointers : No

Read offset correction : 48
Overread into Lead-In and Lead-Out : No
Fill up missing offset samples with silence : Yes
Delete leading and trailing silent blocks : No
Null samples used in CRC calculations : Yes
Used interface : Native Win32 interface for Win NT & 2000
Gap handling : Appended to previous track

Used output format : User Defined Encoder
Selected bitrate : 320 kBit/s
Quality : High
Add ID3 tag : No
Command line compressor : C:\Programas\FLAC\flac.exe
Additional command line options : -V -8 -T "artist=%a" -T "title=%t" -T "album=%g" -T "date=%y" -T "tracknumber=%n" -T "genre=%m" %s


TOC of the extracted CD

Track | Start | Length | Start sector | End sector
––––––––––––––––––––––––––––-
1 | 0:00.00 | 3:24.27 | 0 | 15326
2 | 3:24.27 | 3:01.68 | 15327 | 28969
3 | 6:26.20 | 2:16.00 | 28970 | 39169
4 | 8:42.20 | 3:10.70 | 39170 | 53489
5 | 11:53.15 | 3:08.70 | 53490 | 67659
6 | 15:02.10 | 2:21.20 | 67660 | 78254
7 | 17:23.30 | 4:23.17 | 78255 | 97996
8 | 21:46.47 | 2:40.43 | 97997 | 110039
9 | 24:27.15 | 4:33.20 | 110040 | 130534
10 | 29:00.35 | 3:46.47 | 130535 | 147531
11 | 32:47.07 | 3:34.35 | 147532 | 163616
12 | 36:21.42 | 4:02.63 | 163617 | 181829
13 | 40:24.30 | 2:25.15 | 181830 | 192719
14 | 42:49.45 | 3:45.42 | 192720 | 209636
15 | 46:35.12 | 3:38.03 | 209637 | 225989


Track 1

Filename C:\EACrips\01. Tan Dun - Crouching Tiger, Hidden Dragon.wav

Pre-gap length 0:00:02.00

Peak level 94.6 %
Track quality 100.0 %
Test CRC 922876C7
Copy CRC 922876C7
Accurately ripped (confidence 37) [9AC50D5A]
Copy OK

Track 2

Filename C:\EACrips\02. Tan Dun - The Eternal Vow.wav

Peak level 60.7 %
Track quality 100.0 %
Test CRC E71BACFD
Copy CRC E71BACFD
Accurately ripped (confidence 37) [0DF5379F]
Copy OK

Track 3

Filename C:\EACrips\03. Tan Dun - A Wedding Interrupted.wav

Pre-gap length 0:00:03.73

Peak level 88.1 %
Track quality 100.0 %
Test CRC C4E90356
Copy CRC C4E90356
Accurately ripped (confidence 36) [4003FC29]
Copy OK

Track 4

Filename C:\EACrips\04. Tan Dun - Night Fight.wav

Pre-gap length 0:00:02.50

Peak level 91.7 %
Track quality 99.9 %
Test CRC 7DCBCCE2
Copy CRC 7DCBCCE2
Accurately ripped (confidence 36) [777B2E30]
Copy OK

Track 5

Filename C:\EACrips\05. Tan Dun - Silk Road.wav

Pre-gap length 0:00:04.46

Peak level 24.3 %
Track quality 99.9 %
Test CRC A0098FD7
Copy CRC A0098FD7
Accurately ripped (confidence 36) [6E0F68A3]
Copy OK

Track 6

Filename C:\EACrips\06. Tan Dun - To the South.wav

Pre-gap length 0:00:02.64

Peak level 91.4 %
Track quality 100.0 %
Test CRC C05F0687
Copy CRC C05F0687
Accurately ripped (confidence 37) [0C3C8A8C]
Copy OK

Track 7

Filename C:\EACrips\07. Tan Dun - Through the Bamboo Forest.wav

Pre-gap length 0:00:01.50

Peak level 84.2 %
Track quality 100.0 %
Test CRC 2B55541A
Copy CRC 2B55541A
Accurately ripped (confidence 36) [BA8A08A2]
Copy OK

Track 8

Filename C:\EACrips\08. Tan Dun - The Encounter.wav

Pre-gap length 0:00:02.93

Peak level 84.7 %
Track quality 100.0 %
Test CRC B8C6EDF7
Copy CRC B8C6EDF7
Accurately ripped (confidence 37) [1026FBB9]
Copy OK

Track 9

Filename C:\EACrips\09. Tan Dun - Desert Capriccio.wav

Pre-gap length 0:00:04.37

Peak level 69.0 %
Track quality 99.9 %
Test CRC A7DE99D2
Copy CRC A7DE99D2
Accurately ripped (confidence 35) [A8D53FA5]
Copy OK

Track 10

Filename C:\EACrips\10. Tan Dun - In the Old Temple.wav

Pre-gap length 0:00:02.97

Peak level 45.0 %
Track quality 100.0 %
Test CRC 85A9003F
Copy CRC 85A9003F
Accurately ripped (confidence 37) [31B11479]
Copy OK

Track 11

Filename C:\EACrips\11. Tan Dun - Yearning of the Sword.wav

Pre-gap length 0:00:04.86

Peak level 34.9 %
Track quality 100.0 %
Test CRC 91AE6614
Copy CRC 91AE6614
Accurately ripped (confidence 35) [61C8B4CB]
Copy OK

Track 12

Filename C:\EACrips\12. Tan Dun - Sorrow.wav

Pre-gap length 0:00:05.16

Peak level 91.0 %
Track quality 100.0 %
Test CRC 0DA532AC
Copy CRC 0DA532AC
Accurately ripped (confidence 36) [D812527E]
Copy OK

Track 13

Filename C:\EACrips\13. Tan Dun - Farewell.wav

Pre-gap length 0:00:03.24

Peak level 94.9 %
Track quality 100.0 %
Test CRC 2AB72D7D
Copy CRC 2AB72D7D
Accurately ripped (confidence 36) [36421C2C]
Copy OK

Track 14

Filename C:\EACrips\14. Tan Dun - A Love Before Time (English).wav

Peak level 55.0 %
Track quality 100.0 %
Test CRC CAFEFB94
Copy CRC CAFEFB94
Accurately ripped (confidence 36) [03693A3E]
Copy OK

Track 15

Filename C:\EACrips\15. Tan Dun - A Love Before Time (Mandarin).wav

Pre-gap length 0:00:06.76

Peak level 58.2 %
Track quality 100.0 %
Test CRC 5C41A008
Copy CRC 5C41A008
Accurately ripped (confidence 34) [8144908F]
Copy OK


All tracks accurately ripped

No errors occurred

End of status report

[CUETools log; Date: 23.03.2016 0:00:10; Version: 2.1.4]
[CTDB TOCID: yY_Q6Tc26UPTzBbGoEoWcllqPnk-] found.
Track | CTDB Status
1 | (211/221) Accurately ripped
2 | (211/221) Accurately ripped
3 | (211/221) Accurately ripped
4 | (211/221) Accurately ripped
5 | (211/221) Accurately ripped
6 | (210/221) Accurately ripped
7 | (211/221) Accurately ripped
8 | (211/221) Accurately ripped
9 | (211/221) Accurately ripped
10 | (211/221) Accurately ripped
11 | (211/221) Accurately ripped
12 | (211/221) Accurately ripped
13 | (211/221) Accurately ripped
14 | (211/221) Accurately ripped
15 | (209/221) Accurately ripped, or (2/221) differs in 5890 samples @03:37:58-03:37:67
[AccurateRip ID: 001a97b2-0130ed1f-d70bc50f] found.
Track [ CRC | V2 ] Status
01 [9ac50d5a|d273321b] (099+077/402) Accurately ripped
02 [0df5379f|d66fb236] (099+077/401) Accurately ripped
03 [4003fc29|f53101c0] (098+077/400) Accurately ripped
04 [777b2e30|71200c56] (098+076/399) Accurately ripped
05 [6e0f68a3|0fdd8bd4] (098+077/400) Accurately ripped
06 [0c3c8a8c|b9e311ca] (099+077/399) Accurately ripped
07 [ba8a08a2|3d8f87e9] (098+077/401) Accurately ripped
08 [1026fbb9|e8e224e8] (099+076/400) Accurately ripped
09 [a8d53fa5|190a28f6] (097+076/397) Accurately ripped
10 [31b11479|2231330d] (098+076/400) Accurately ripped
11 [61c8b4cb|2f9a7f5d] (097+076/398) Accurately ripped
12 [d812527e|3293d829] (097+076/396) Accurately ripped
13 [36421c2c|68a16127] (097+075/395) Accurately ripped
14 [03693a3e|0e9c56f9] (097+075/393) Accurately ripped
15 [8144908f|bf900178] (094+075/391) Accurately ripped
Offsetted by -676:
01 [6101ff8a] (008/402) Accurately ripped
02 [aea59b8a] (008/401) Accurately ripped
03 [91700b9d] (008/400) Accurately ripped
04 [04e569e2] (008/399) Accurately ripped
05 [925a0ec6] (008/400) Accurately ripped
06 [706ff7d9] (008/399) Accurately ripped
07 [c0bc5caf] (008/401) Accurately ripped
08 [b75a8d7e] (008/400) Accurately ripped
09 [70d0f021] (008/397) Accurately ripped
10 [74c0d678] (008/400) Accurately ripped
11 [52bc54b8] (008/398) Accurately ripped
12 [8b7c890e] (008/396) Accurately ripped
13 [1684f4d3] (008/395) Accurately ripped
14 [07ddf629] (008/393) Accurately ripped
15 [122deb3e] (008/391) Accurately ripped
Offsetted by -635:
01 [5923e99e] (101/402) Accurately ripped
02 [3af6a4b6] (101/401) Accurately ripped
03 [1af408d7] (101/400) Accurately ripped
04 [46eaddf8] (101/399) Accurately ripped
05 [da3a8de1] (101/400) Accurately ripped
06 [a3d308d6] (100/399) Accurately ripped
07 [2efae309] (102/401) Accurately ripped
08 [f5113f35] (101/400) Accurately ripped
09 [7fdd25aa] (101/397) Accurately ripped
10 [41b9a8a2] (102/400) Accurately ripped
11 [1e9e30a3] (101/398) Accurately ripped
12 [6f624919] (100/396) Accurately ripped
13 [7112e083] (100/395) Accurately ripped
14 [5a942efe] (098/393) Accurately ripped
15 [7951fd01] (099/391) Accurately ripped
Offsetted by -630:
01 [0f758295] (004/402) Accurately ripped
02 [75ec6069] (004/401) Accurately ripped
03 [502c5235] (004/400) Accurately ripped
04 [c1b0275b] (004/399) Accurately ripped
05 [c0e54113] (004/400) Accurately ripped
06 [780dd94b] (004/399) Accurately ripped
07 [5fd299df] (004/401) Accurately ripped
08 [6231d45e] (004/400) Accurately ripped
09 [9b0ce1c2] (004/397) Accurately ripped
10 [1f7a7d93] (004/400) Accurately ripped
11 [8ceb88f6] (004/398) Accurately ripped
12 [52a7702f] (004/396) Accurately ripped
13 [8cb50628] (004/395) Accurately ripped
14 [d97342e6] (004/393) Accurately ripped
15 [38a3f984] (004/391) Accurately ripped
Offsetted by -39:
01 [815f9ad5] (003/402) Accurately ripped
02 [40707035] (003/401) Accurately ripped
03 [41023c10] (003/400) Accurately ripped
04 [22019f80] (003/399) Accurately ripped
05 [632a40f9] (003/400) Accurately ripped
06 [8f34f1a2] (003/399) Accurately ripped
07 [c1a84f24] (003/401) Accurately ripped
08 [6772cde8] (003/400) Accurately ripped
09 [0396d177] (003/397) Accurately ripped
10 [a56f1ed0] (003/400) Accurately ripped
11 [c4dbd844] (003/398) Accurately ripped
12 [85501513] (003/396) Accurately ripped
13 [0ac7fad4] (003/395) Accurately ripped
14 [cccc56fb] (003/393) Accurately ripped
15 [10223dbf] (003/391) Accurately ripped
Offsetted by -629:
01 [00668076] (000/402) No match
02 [b51b4942] (000/401) No match
03 [12252dad] (000/400) No match
04 [753b212e] (000/399) No match
05 [5f116bdc] (000/400) No match
06 [1b3a966f] (000/399) No match
07 [479289c9] (000/401) No match
08 [b3da076e] (000/400) No match
09 [89660f43] (000/397) No match
10 [7fbaa826] (000/400) No match
11 [2d0195b5] (000/398) No match
12 [d375a89d] (000/396) No match
13 [1edbb8f0] (000/395) No match (V2 was not tested)
14 [ca2fe50b] (000/393) No match
15 [092781e2] (000/391) No match

Track Peak [ CRC32 ] [W/O NULL] [ LOG ]
– 94,9 [D475A21F] [78EC6C00]
01 94,6 [922876C7] [78FD6CA4] CRC32
02 60,7 [E71BACFD] [EB55E73E] CRC32
03 88,1 [C4E90356] [2984A99D] CRC32
04 91,7 [7DCBCCE2] [69003602] CRC32
05 24,3 [A0098FD7] [2D1DD01A] CRC32
06 91,4 [C05F0687] [461AEF39] CRC32
07 84,2 [2B55541A] [BC6DD96A] CRC32
08 84,7 [B8C6EDF7] [342F4E20] CRC32
09 69,0 [A7DE99D2] [3C6A455C] CRC32
10 45,0 [85A9003F] [BEE28BA0] CRC32
11 34,9 [91AE6614] [18921E0D] CRC32
12 91,0 [0DA532AC] [F98EA36F] CRC32
13 94,9 [2AB72D7D] [93D45964] CRC32
14 55,0 [CAFEFB94] [0104CB92] CRC32
15 58,2 [5C41A008] [E3C6145F] CRC32

foobar2000 1.2 / Dynamic Range Meter 1.1.1
log date: 2016-03-23 12:40:48

––––––––––––––––––––––––––––––––––––––––
Analyzed: Tan Dun / Crouching Tiger Hidden Dragon (Original Motion Picture Soundtrack)
––––––––––––––––––––––––––––––––––––––––

DR Peak RMS Duration Track
––––––––––––––––––––––––––––––––––––––––
DR15 -0.48 dB -20.86 dB 3:24 01-Crouching Tiger, Hidden Dragon
DR13 -4.33 dB -23.78 dB 3:02 02-The Eternal Vow
DR15 -1.10 dB -21.02 dB 2:16 03-A Wedding Interrupted
DR12 -0.75 dB -16.91 dB 3:11 04-Night Fight
DR12 -12.26 dB -28.29 dB 3:09 05-Silk Road
DR14 -0.78 dB -20.75 dB 2:21 06-To The South
DR14 -1.49 dB -22.98 dB 4:23 07-Through The Bamboo Forest
DR14 -1.44 dB -21.54 dB 2:41 08-The Encounter
DR14 -3.22 dB -23.19 dB 4:33 09-Desert Capriccio
DR12 -6.93 dB -25.38 dB 3:47 10-In The Old Temple
DR11 -9.12 dB -26.72 dB 3:34 11-Yearning Of The Sword
DR13 -0.81 dB -21.18 dB 4:03 12-Sorrow
DR12 -0.45 dB -18.65 dB 2:25 13-Farewell
DR7 -5.18 dB -15.17 dB 3:46 14-A Love Before Time (English)
DR9 -4.70 dB -16.64 dB 3:38 15-A Love Before Time (Mandarin)
––––––––––––––––––––––––––––––––––––––––

Number of tracks: 15
Official DR value: DR13

Samplerate: 44100 Hz
Channels: 2
Bits per sample: 16
Bitrate: 824 kbps
Codec: FLAC
================================================================================

Tan Dun, Yo-Yo Ma - Crouching Tiger, Hidden Dragon: Original Motion Picture Soundtrack (2000) [Re-Up]

Tan Dun, Yo-Yo Ma - Crouching Tiger, Hidden Dragon: Original Motion Picture Soundtrack (2000) [Re-Up]

All thanks to original uploader - BugHunter

More Movies & Soundtracks in Efgrapha Blog