Subcategories
Tags
Language
Tags

Daryl Hall & John Oates - The Best Of Daryl Hall & John Oates: Looking Back (1991)

Posted By: v3122
Daryl Hall & John Oates - The Best Of Daryl Hall & John Oates: Looking Back (1991)

Daryl Hall & John Oates - The Best Of Daryl Hall & John Oates: Looking Back (1991)
EAC | Flac(Image) + Cue + Log & MP3 CBR 320Kbps
BMG/RCA, PD 90388 | ~ 475 or 176 Mb | Artwork(jpg) -> 1.58 Mb
Electronic, Rock, Funk / Soul

Looking Back – The Best of Daryl Hall + John Oates is a compilation album by American pop rock duo Daryl Hall and John Oates. It was released in 1991. It contains tracks from ten Hall & Oates albums spanning 1973's Abandoned Luncheonette to 1990's Change of Season…

~ wiki
Daryl Hall & John Oates ‎- The Best Of Daryl Hall & John Oates: Looking Back (1991):

Daryl Hall & John Oates - The Best Of Daryl Hall & John Oates: Looking Back (1991)

Tracklist:

01. She's Gone (05:13)
02. Sara Smile (03:06)
03. Rich Girl (02:22)
04. Back Together Again (03:25)
05. You've Lost That Lovin' Feeling (04:09)
06. Kiss On My List (03:51)
07. Everytime You Go Away (05:22)
08. Private Eyes (03:36)
09. I Can't Go For That (No Can Do) (03:39)
10. Maneater (04:29)
11. One On One (03:56)
12. Family Man (03:25)
13. Adult Education (03:40)
14. Out Of Touch (04:20)
15. Method Of Modern Love (05:32)
16. Everything Your Heart Desires (04:59)
17. So Close (04:39)
18. Starting All Over Again (04:06)

EAC extraction logfile from 13. January 2007, 22:43 for CD
Daryl Hall & John Oates / Looking Back (The Best Of)

Used drive : LITE-ON COMBO SOHC-5232K Adapter: 0 ID: 1
Read mode : Secure with NO C2, accurate stream, disable cache
Read offset correction : 6
Overread into Lead-In and Lead-Out : No

Used output format : C:\Program Files\FLAC\flac.exe (User Defined Encoder)
320 kBit/s
Additional command line options : -6 -V -T "artist=%a" -T "title=%t" -T "album=%g" -T "date=%y" -T "tracknumber=%n" -T "genre=%m" -T comment="%e" -T "comment=EAC (Secure Mode)" %s

Other options :
Fill up missing offset samples with silence : Yes
Delete leading and trailing silent blocks : No
Installed external ASPI interface


Track 1
Filename I:\ARTIST COMPILATIONS\01 - She's Gone.wav

Pre-gap length 0:00:02.32

Peak level 95.7 %
Track quality 100.0 %
Test CRC 3E05EFAF
Copy CRC 3E05EFAF
Copy OK

Track 2
Filename I:\ARTIST COMPILATIONS\02 - Sara Smile.wav

Pre-gap length 0:00:00.54

Peak level 92.3 %
Track quality 99.8 %
Test CRC 7EE13B9B
Copy CRC 7EE13B9B
Copy OK

Track 3
Filename I:\ARTIST COMPILATIONS\03 - Rich Girl.wav

Pre-gap length 0:00:00.61

Peak level 99.6 %
Track quality 100.0 %
Test CRC 237C0522
Copy CRC 237C0522
Copy OK

Track 4
Filename I:\ARTIST COMPILATIONS\04 - Back Together Again.wav

Pre-gap length 0:00:00.65

Peak level 97.3 %
Track quality 100.0 %
Test CRC A2AFDC18
Copy CRC A2AFDC18
Copy OK

Track 5
Filename I:\ARTIST COMPILATIONS\05 - You've Lost That Lovin' Feeling.wav

Pre-gap length 0:00:01.30

Peak level 88.2 %
Track quality 100.0 %
Test CRC 7F634E19
Copy CRC 7F634E19
Copy OK

Track 6
Filename I:\ARTIST COMPILATIONS\06 - Kiss On My List.wav

Pre-gap length 0:00:00.30

Peak level 97.3 %
Track quality 99.9 %
Test CRC A64A3BC3
Copy CRC A64A3BC3
Copy OK

Track 7
Filename I:\ARTIST COMPILATIONS\07 - Everytime You Go Away.wav

Pre-gap length 0:00:00.43

Peak level 97.2 %
Track quality 100.0 %
Test CRC 5AB115C8
Copy CRC 5AB115C8
Copy OK

Track 8
Filename I:\ARTIST COMPILATIONS\08 - Private Eyes.wav

Pre-gap length 0:00:00.27

Peak level 86.2 %
Track quality 100.0 %
Test CRC 29B14E92
Copy CRC 29B14E92
Copy OK

Track 9
Filename I:\ARTIST COMPILATIONS\09 - I Can't Go For That (No Can Do).wav

Pre-gap length 0:00:00.70

Peak level 97.3 %
Track quality 100.0 %
Test CRC 7476A01E
Copy CRC 7476A01E
Copy OK

Track 10
Filename I:\ARTIST COMPILATIONS\10 - Maneater.wav

Pre-gap length 0:00:01.07

Peak level 92.1 %
Track quality 100.0 %
Test CRC 8B8F528C
Copy CRC 8B8F528C
Copy OK

Track 11
Filename I:\ARTIST COMPILATIONS\11 - One On One.wav

Pre-gap length 0:00:01.26

Peak level 85.8 %
Track quality 100.0 %
Test CRC 9D3F6491
Copy CRC 9D3F6491
Copy OK

Track 12
Filename I:\ARTIST COMPILATIONS\12 - Family Man.wav

Pre-gap length 0:00:00.13

Peak level 99.6 %
Track quality 99.8 %
Test CRC 8A816368
Copy CRC 8A816368
Copy OK

Track 13
Filename I:\ARTIST COMPILATIONS\13 - Adult Education.wav

Pre-gap length 0:00:00.36

Peak level 91.4 %
Track quality 100.0 %
Test CRC 95912C32
Copy CRC 95912C32
Copy OK

Track 14
Filename I:\ARTIST COMPILATIONS\14 - Out Of Touch.wav

Pre-gap length 0:00:00.26

Peak level 84.2 %
Track quality 100.0 %
Test CRC 3D69EFB3
Copy CRC 3D69EFB3
Copy OK

Track 15
Filename I:\ARTIST COMPILATIONS\15 - Method Of Modern Love.wav

Pre-gap length 0:00:02.28

Peak level 75.7 %
Track quality 100.0 %
Test CRC 910A70ED
Copy CRC 910A70ED
Copy OK

Track 16
Filename I:\ARTIST COMPILATIONS\16 - Everything Your Heart Desires.wav

Pre-gap length 0:00:00.49

Peak level 88.8 %
Track quality 99.9 %
Test CRC B65CA624
Copy CRC B65CA624
Copy OK

Track 17
Filename I:\ARTIST COMPILATIONS\17 - So Close.wav

Pre-gap length 0:00:00.49

Peak level 96.5 %
Track quality 99.9 %
Test CRC 84FDB355
Copy CRC 84FDB355
Copy OK

Track 18
Filename I:\ARTIST COMPILATIONS\18 - Starting All Over Again.wav

Peak level 97.2 %
Track quality 99.9 %
Test CRC D8334E15
Copy CRC D8334E15
Copy OK

No errors occured


End of status report


[CUETools log; Date: 10.06.2021 9:28:14; Version: 2.1.4]
Pregap length 00:00:24.
[AccurateRip ID: 002ecd57-02753335-01117f12] disk not present in database.

Track Peak [ CRC32 ] [W/O NULL] [ LOG ]
– 99,6 [2657F39A] [2148367B]
01 95,7 [3E05EFAF] [1E518420] CRC32
02 92,3 [7EE13B9B] [E5788D96] CRC32
03 99,6 [237C0522] [8D57BACB] CRC32
04 97,3 [A2AFDC18] [6ED7264F] CRC32
05 88,2 [7F634E19] [D83C25F2] CRC32
06 97,3 [A64A3BC3] [F395C7EA] CRC32
07 97,2 [5AB115C8] [15084C13] CRC32
08 86,2 [29B14E92] [AFADD3A4] CRC32
09 97,3 [7476A01E] [7BB3EACB] CRC32
10 92,1 [8B8F528C] [7666560D] CRC32
11 85,8 [9D3F6491] [386DE7C0] CRC32
12 99,6 [8A816368] [532C5717] CRC32
13 91,4 [95912C32] [754CBC50] CRC32
14 84,2 [3D69EFB3] [CBB85D45] CRC32
15 75,7 [910A70ED] [B5474FB5] CRC32
16 88,8 [B65CA624] [0292BEBF] CRC32
17 96,5 [84FDB355] [6AAA6B7B] CRC32
18 97,2 [D8334E15] [7CBB9E5E] CRC32


Daryl Hall & John Oates - The Best Of Daryl Hall & John Oates: Looking Back (1991)

All thanks go to the original releaser

Daryl Hall & John Oates in my Blog

Download Daryl Hall & John Oates ‎- The Best Of Daryl Hall & John Oates: Looking Back (1991):