Subcategories

David Amram - The Young Savages: Original Motion Picture Soundtrack (1961) Intrada Limited Edition 2014

Posted By: Efgrapha
David Amram - The Young Savages: Original Motion Picture Soundtrack (1961) Intrada Limited Edition 2014

David Amram - The Young Savages: Original Motion Picture Soundtrack (1961) Limited Edition 2014
EAC | FLAC (Image) + cue.+log ~ 274 Mb | Mp3, CBR320 kbps ~ 109 Mb | Scans included
Soundtrack, Score, Jazz | Label: Intrada | # Special Collection Volume ISC 261 | 00:42:17

Premiere CD release of stunning David Amram score for 1961 John Frankenheimer social drama starring idealistic Burt Lancaster colliding with violent gang of teenage street toughs. Shelley Winters, Dina Merrill also star. Superb Edward Anhalt script brings still-topical vibe to tense story. David Amram, composer of both orchestral, jazz works for symphony (and accomplished French hornist) creates powerful meld of both idioms, adds harmonica, guitar for moody main theme with Latin color, then balances with knockout action music for full orchestra. Amram goes on to score John Frankenheimer masterpiece The Manchurian Candidate as well as initial but never used score for same director's Seven Days In May. Intrada CD presents entire original LP in vivid stereo from mint condition album masters courtesy Sony Music. First side of original 1961 Columbia album showcases lengthy, vibrant jazz cues, second side spotlights exciting orchestral action music. Take note also of beautiful solo trumpet work against strings. Album also offers then-generous running time of 45 minutes. Sensational, dramatic soundtrack! Intrada Special Collection release available while quantities and interest remain!

The 1961 film The Young Savages was David Amram's first film score and offered him an opportunity to use fully his varied talents. Amram is a gifted classical composer, also a talented jazz musician, and the score reflects his outstanding ability in both areas. Intrada's premiere release of this score is a reissue of the original Columbia LP program. As originally conceived, "side one" contains the film's jazz compositions, and "side two" contains the sensitive "Theme" and compositions for full orchestra. The director and producer allowed Amram to use jazz as an integral part of the picture, rather than employing it to underscore violence, sadism or narcotics–which is usually the case in pictures of the time. Jazz is heard not in the fight scenes but during sequences that showed the neighborhoods where the boys lived.

The significance of David Amram's powerful score for The Young Savages is hard to overstate. Besides introducing the musical world to his motion-picture composing skills in 1961, it showcased the melding of two sizable idioms of then modern music: jazz and contemporary symphonic. With skills developed from theater composition, jazz performance (including the decidedly non-jazz sound of the French horn) and a close association with the New York Philharmonic, first under Dimitri Mitropoulos and later Leonard Bernstein, Amram became a unique voice in American music that still resonates today.

The Young Savages was a powerful picture about juvenile delinquency and crime in the streets of New York, and one man's attempts to bring about justice and peace amidst the turmoil. David Amram mirrors the conflicts and optimism perfectly with his score–both highly charged and highly melodic. Worthy of note here is the playing time of nearly 42 minutes, a generous length for soundtrack albums of the day. The album is newly mastered by Sony from the original Columbia stereo album master tapes assembled in 1961.

David Amram - The Young Savages: Original Motion Picture Soundtrack (1961) Intrada Limited Edition 2014



Tracklist:

01. Harold's Way (02:15)
02. Las Muchachas Delicadas (05:37)
03. True Blue (05:34)
04. Harold's Way Out (06:54)
05. Theme From ''The Young Savages'' (02:26)
06. Switchblades On Parade (01:44)
07. The Last Taco (01:32)
08. Theme From ''The Young Savages'' (03:12)
09. Funeral March And Requiem (02:43)
10. Help! (01:48)
11. Subway Sounds (02:05)
12. Later With The Elevator (02:03)
13. Rooftops (04:17)


Exact Audio Copy V1.0 beta 3 from 29. August 2011

EAC extraction logfile from 21. May 2014, 18:52

David Amram / The Young Savages

Used drive : TSSTcorpCDDVDW SH-S202H Adapter: 0 ID: 0

Read mode : Secure
Utilize accurate stream : Yes
Defeat audio cache : Yes
Make use of C2 pointers : No

Read offset correction : 6
Overread into Lead-In and Lead-Out : No
Fill up missing offset samples with silence : Yes
Delete leading and trailing silent blocks : No
Null samples used in CRC calculations : Yes
Used interface : Native Win32 interface for Win NT & 2000

Used output format : Internal WAV Routines
Sample format : 44.100 Hz; 16 Bit; Stereo


TOC of the extracted CD

Track | Start | Length | Start sector | End sector
––––––––––––––––––––––––––––-
1 | 0:00.00 | 2:15.71 | 0 | 10195
2 | 2:15.71 | 5:37.55 | 10196 | 35525
3 | 7:53.51 | 5:34.63 | 35526 | 60638
4 | 13:28.39 | 6:54.27 | 60639 | 91715
5 | 20:22.66 | 2:26.21 | 91716 | 102686
6 | 22:49.12 | 1:44.65 | 102687 | 110551
7 | 24:34.02 | 1:32.73 | 110552 | 117524
8 | 26:07.00 | 3:12.24 | 117525 | 131948
9 | 29:19.24 | 2:43.03 | 131949 | 144176
10 | 32:02.27 | 1:48.28 | 144177 | 152304
11 | 33:50.55 | 2:05.41 | 152305 | 161720
12 | 35:56.21 | 2:03.50 | 161721 | 170995
13 | 37:59.71 | 4:17.26 | 170996 | 190296


Range status and errors

Selected range

Filename D:\David Amram - The Young Savages\David Amram - The Young Savages.wav

Peak level 100.0 %
Extraction speed 7.4 X
Range quality 100.0 %
Test CRC 83CFA1EE
Copy CRC 83CFA1EE
Copy OK

No errors occurred


AccurateRip summary

Track 1 accurately ripped (confidence 1) [4C7C465D] (AR v2)
Track 2 accurately ripped (confidence 1) [81B41747] (AR v2)
Track 3 accurately ripped (confidence 1) [A22389F4] (AR v2)
Track 4 accurately ripped (confidence 1) [6F505D7E] (AR v2)
Track 5 accurately ripped (confidence 1) [40B1A0F8] (AR v2)
Track 6 accurately ripped (confidence 1) [36B2FA9F] (AR v2)
Track 7 accurately ripped (confidence 1) [70AF9019] (AR v2)
Track 8 accurately ripped (confidence 1) [9F2CDDCA] (AR v2)
Track 9 accurately ripped (confidence 1) [6C9B9AB5] (AR v2)
Track 10 accurately ripped (confidence 1) [F52CA9CC] (AR v2)
Track 11 accurately ripped (confidence 1) [466EFC19] (AR v2)
Track 12 accurately ripped (confidence 1) [35C8E7D6] (AR v2)
Track 13 accurately ripped (confidence 1) [E95A9A58] (AR v2)

All tracks accurately ripped

End of status report

==== Log checksum AB638BDC7AD0F4AB6F25F87D25620B710F8417C1699DD2F8EBDE98FF2DA4F291 ====

foobar2000 1.2 / Dynamic Range Meter 1.1.1
log date: 2015-06-16 16:20:13

––––––––––––––––––––––––––––––––––––––––
Analyzed: David Amram / The Young Savages
––––––––––––––––––––––––––––––––––––––––

DR Peak RMS Duration Track
––––––––––––––––––––––––––––––––––––––––
DR10 -0.05 dB -12.60 dB 2:16 01-Harold's Way
DR12 -0.21 dB -14.61 dB 5:38 02-Las Muchachas Delicadas
DR13 -0.21 dB -15.81 dB 5:35 03-True Blue
DR12 -0.25 dB -15.69 dB 6:54 04-Harold's Way Out
DR11 0.00 dB -14.04 dB 2:26 05-Theme From ''The Young Savages''
DR11 -0.22 dB -13.07 dB 1:45 06-Switchblades On Parade
DR11 -0.17 dB -12.61 dB 1:33 07-The Last Taco
DR9 -3.12 dB -15.87 dB 3:12 08-Theme From ''The Young Savages''
DR15 -0.34 dB -20.12 dB 2:43 09-Funeral March And Requiem
DR10 -0.21 dB -12.76 dB 1:48 10-Help!
DR11 -0.12 dB -13.73 dB 2:06 11-Subway Sounds
DR11 -0.07 dB -14.81 dB 2:04 12-Later With The Elevator
DR9 -2.23 dB -15.88 dB 4:17 13-Rooftops
––––––––––––––––––––––––––––––––––––––––

Number of tracks: 13
Official DR value: DR11

Samplerate: 44100 Hz
Channels: 2
Bits per sample: 16
Bitrate: 868 kbps
Codec: FLAC
================================================================================

David Amram - The Young Savages: Original Motion Picture Soundtrack (1961) Intrada Limited Edition 2014

David Amram - The Young Savages: Original Motion Picture Soundtrack (1961) Intrada Limited Edition 2014

All thanks to original releaser - Composer's fan

More Movies & Soundtracks in Efgrapha Blog