Tags
Language
Tags

David Sanborn - Albums Collection 1976-1982 (6CD) [Japanese Remastered 2013-2014]

Posted By: Designol
David Sanborn - Albums Collection 1976-1982 (6CD) [Japanese Remastered 2013-2014]

David Sanborn - Albums Collection 1976-1982 (6CD) [Japanese Remastered 2013-2014]
EAC | FLAC | Image (Cue&Log) ~ 1.55 Gb | Mp3 (CBR320) ~ 694 Mb | Scans included
Genre: Crossover Jazz, Fusion, Jazz Funk, Smooth Jazz | Time: 03:44:46

David William Sanborn (born July 30, 1945) is an American alto saxophonist. Though Sanborn has worked in many genres, his solo recordings typically blend jazz with instrumental pop and R&B. He released his first solo album Taking Off in 1975, but has been playing the saxophone since before he was in high school.

One of the most commercially successful American saxophonists to earn prominence since the 1980s, Sanborn is described by critic Scott Yannow as "the most influential saxophonist on pop, R&B, and crossover players of the past 20 years." He is often identified with radio-friendly smooth jazz, but he has expressed a disinclination for the genre and his association with it.

David Sanborn - Albums Collection 1976-1982 (6CD) [Japanese Remastered 2013-2014]





David Sanborn - Albums Collection 1976-1982 (6CD) [Japanese Remastered 2013-2014]

David Sanborn - Sanborn (1976) Japanese Remastered 2013
EAC | FLAC | Image (Cue&Log) ~ 259 Mb | Mp3 (CBR320) ~ 116 Mb | Scans included
Label: Warner Music Japan | # WPCR-27412 | 00:40:17

This album is one of David Sanborn's better early recordings. Although the record is perhaps best known for the altoist's version of Paul Simon's "I Do It For Your Love," Sanborn's playing on some of the other cuts (most notably "Mamacita" and "7th Avenue") finds him really stretching within the R&B/crossover genre. Only "Smile" (which has some mundane vocalizing) is a minus, and it is more than compensated for by Sanborn's passionate improvising elsewhere.

Review by Scott Yanow, Allmusic.com

David Sanborn - alto saxophone, soprano saxophone, flute
Herb Bushler - electric bass
Hiram Bullock - guitar, vocals
Rosalinda de Leon - keyboards
Victor Lewis - drums, vocals
Jumma Santos - percussion
Patti Austin, Lani Groves, Paul Simon (#2), Phoebe Snow (#2) - vocals

Recorded at A&R Studios, New York.


Tracklist:

01. Indio (05:39)
02. Smile (05:27)
03. Mamacita (04:45)
04. Herbs (04:30)
05. Concrete Boogie (06:36)
06. I Do It for Your Love (02:51)
07. Sophisticated Squaw (04:51)
08. 7th Ave. (05:34)


Exact Audio Copy V1.0 beta 3 from 29. August 2011

Отчёт EAC об извлечении, выполненном 20. февраля 2016, 18:06

David Sanborn / Sanborn

Дисковод: Optiarc DVD RW AD-7203S Adapter: 1 ID: 0

Режим чтения : Достоверность
Использование точного потока : Да
Отключение кэша аудио : Да
Использование указателей C2 : Нет

Коррекция смещения при чтении : 48
Способность читать области Lead-in и Lead-out : Нет
Заполнение пропущенных сэмплов тишиной : Да
Удаление блоков с тишиной в начале и конце : Нет
При вычислениях CRC использовались нулевые сэмплы : Да
Интерфейс : Встроенный Win32-интерфейс для Win NT/2000

Выходной формат : Пользовательский кодировщик
Выбранный битрейт : 128 kBit/s
Качество : Высокий
Добавление ID3-тега : Нет
Утилита сжатия : C:\Program Files (x86)\Exact Audio Copy\Flac\flac.exe
Дополнительные параметры : -V -8 -T "Date=%year%" -T "Genre=%genre%" %source%


TOC извлечённого CD

Трек | Старт | Длительность | Начальный сектор | Конечный сектор
––––––––––––––––––––––––––––––––––-
1 | 0:00.00 | 5:39.07 | 0 | 25431
2 | 5:39.07 | 5:27.08 | 25432 | 49964
3 | 11:06.15 | 4:45.48 | 49965 | 71387
4 | 15:51.63 | 4:30.64 | 71388 | 91701
5 | 20:22.52 | 6:36.48 | 91702 | 121449
6 | 26:59.25 | 2:51.69 | 121450 | 134343
7 | 29:51.19 | 4:51.18 | 134344 | 156186
8 | 34:42.37 | 5:34.43 | 156187 | 181279


Характеристики диапазона извлечения и сообщения об ошибках

Выбранный диапазон

Имя файла D:\Music\_Egor from PTZ_04_1\David Sanborn\David Sanborn - Sanborn (1976)\David Sanborn - Sanborn (1976).wav

Пиковый уровень 100.0 %
Скорость извлечения 3.6 X
Качество диапазона 100.0 %
CRC теста 02A959D5
CRC копии 02A959D5
Копирование… OK

Ошибок не произошло


AccurateRip: сводка

Трек 1 : извлечено точно (доверие 3) [DBA36C6A] (AR v2)
Трек 2 : извлечено точно (доверие 3) [31B8D1B4] (AR v2)
Трек 3 : извлечено точно (доверие 3) [C87CB009] (AR v2)
Трек 4 : извлечено точно (доверие 3) [53983053] (AR v2)
Трек 5 : извлечено точно (доверие 3) [8CE15745] (AR v2)
Трек 6 : извлечено точно (доверие 3) [4623C9F4] (AR v2)
Трек 7 : извлечено точно (доверие 3) [86840E09] (AR v2)
Трек 8 : извлечено точно (доверие 3) [51EC314E] (AR v2)

Все треки извлечены точно

Конец отчёта

==== Контрольная сумма отчёта 327A913D941BDA3ABEDD031BF644B515D0F8DDD9CD6156F263A344F6016D57A4 ====

foobar2000 1.2 / Dynamic Range Meter 1.1.1
log date: 2016-02-28 14:15:47

––––––––––––––––––––––––––––––––––––––––
Analyzed: David Sanborn / Sanborn
––––––––––––––––––––––––––––––––––––––––

DR Peak RMS Duration Track
––––––––––––––––––––––––––––––––––––––––
DR10 0.00 dB -11.67 dB 5:39 01-Indio
DR10 0.00 dB -13.71 dB 5:27 02-Smile
DR10 0.00 dB -11.61 dB 4:46 03-Mamacita
DR10 0.00 dB -12.57 dB 4:31 04-Herbs
DR9 0.00 dB -11.54 dB 6:37 05-Concrete Boogie
DR13 -0.91 dB -18.51 dB 2:52 06-I Do It for Your Love
DR12 0.00 dB -13.81 dB 4:51 07-Sophisticated Squaw
DR10 0.00 dB -11.42 dB 5:35 08-7th Ave.
––––––––––––––––––––––––––––––––––––––––

Number of tracks: 8
Official DR value: DR10

Samplerate: 44100 Hz
Channels: 2
Bits per sample: 16
Bitrate: 817 kbps
Codec: FLAC
================================================================================

David Sanborn - Albums Collection 1976-1982 (6CD) [Japanese Remastered 2013-2014]

David Sanborn - Albums Collection 1976-1982 (6CD) [Japanese Remastered 2013-2014]




David Sanborn - Albums Collection 1976-1982 (6CD) [Japanese Remastered 2013-2014]

David Sanborn - Promise Me The Moon (1977) Japanese Remastered 2014
EAC | FLAC | Image (Cue&Log) ~ 283 Mb | Mp3 (CBR320) ~ 118 Mb | Scans included
Label: Warner Music Japan | # WPCR-28020 | Time: 00:37:06

David Sanborn's third album as a leader has him steering away from the N.Y.C. neo-bop, skunk funk, Seventh Avenue style he helped co-found with the Brecker Brothers band. That it is recorded in Miami speaks volumes about the sunny attitude and less jazz-oriented music he is fomenting. Guitarist/vocalist Hiram Bullock and emerging electric bass guitar star Mark Egan have something to do with this, but the extraordinary drummer Victor Lewis is the one who gives this music an R&B heft while also adding Latin flavors, like boogaloo on growth hormones. Keyboardist Rosalinda DeLeon, percussionist Jumma Santos, and four female vocalists help with the sexy Afro-Caribbean underpinning, while Sanborn plays his trusty St. Louis soul vibrato-drenched alto sax, and also experiments with sopranino sax and the lyricon. The album yields mixed results – including some spectacular, fervent music, with the tamer sounds more likely to appeal to crossover or pop audiences. Clearly James Taylor is an influence on this music, as his guitarist Danny Kortchmar contributes tunes like the forgettable pop-funk of the title track with Bullock's vocals; "Stranger's Arms," where Sanborn painfully takes a shot at singing; and the band's not bad, slow, loping, Latin-tinged instrumental version of Taylor's "Benjamin." Bullock's two compositions are "We Fool Ourselves," reverting to the chunky, funky street-smart samba beat with Sanborn's rambling alto, though the singing is not helpful, and "The Rev," a slowed soul song more suited to the R&B aspect of the combo's demeanor. Then to the good stuff, as Egan's "Heart Lake" is a road song with Sanborn's sopranino paving the way via Egan's ostinato line after a spacy free intro. DeLeon's "Morning Salsa" is early tropicalia at its best, a fun tune that moves along briskly, but makes you wonder why the keyboardist was never heard from after this date – maybe just a fling? Then there's "The Legend of Cheops," a stunning piece penned by Lewis that also showed up in the repertoire of Woody Shaw during the drummer's tenure with the trumpeter. Here it's charged with electricity from the wafting keyboardist and punchy, hip bassist, as Sanborn's swirling sopranino provides all the dynamism and depth he is capable of, while also negotiating some tricky key and time changes – a memorable track for sure. While not as much a breakthrough as the two previous albums, Taking Off and Sanborn, Promise Me the Moon laid the groundwork for Sanborn to become a successful commercial money-maker and reliable production musician or soloist instead of the creative – and at times innovative – player hinted at in many instances here during the turning point of his career.

Review by Michael G. Nastos, Allmusic.com

David Sanborn - alto saxophone, sopranino, lyricon, vocals (#3)
Hiram Bullock - guitar, vocals (#1,6)
Rosalinda De Leon - keyboards
Mark Egan - bass
Victor Lewis - drums
Jumma Santos - percussion
Dale Oehler - electric piano (#2)
Lani Groves, Kat McCord, Christine Faith, Hamish Stuart - vocals

Recorded at Criteria Studios, Miami, FL.


Tracklist:

01. Promise Me the Moon (04:00)
02. Benjamin (01:33)
03. Stranger's Arms (04:20)
04. Heart Lake (05:20)
05. The Rev. (03:56)
06. We Fool Ourselves (05:13)
07. Morning Salsa (06:04)
08. The Legend of Cheops (06:36)


Exact Audio Copy V1.0 beta 3 from 29. August 2011

Отчёт EAC об извлечении, выполненном 21. февраля 2016, 18:16

David Sanborn / Promise Me The Moon

Дисковод: Optiarc DVD RW AD-7203S Adapter: 1 ID: 0

Режим чтения : Достоверность
Использование точного потока : Да
Отключение кэша аудио : Да
Использование указателей C2 : Нет

Коррекция смещения при чтении : 48
Способность читать области Lead-in и Lead-out : Нет
Заполнение пропущенных сэмплов тишиной : Да
Удаление блоков с тишиной в начале и конце : Нет
При вычислениях CRC использовались нулевые сэмплы : Да
Интерфейс : Встроенный Win32-интерфейс для Win NT/2000

Выходной формат : Пользовательский кодировщик
Выбранный битрейт : 128 kBit/s
Качество : Высокий
Добавление ID3-тега : Нет
Утилита сжатия : C:\Program Files (x86)\Exact Audio Copy\Flac\flac.exe
Дополнительные параметры : -V -8 -T "Date=%year%" -T "Genre=%genre%" %source%


TOC извлечённого CD

Трек | Старт | Длительность | Начальный сектор | Конечный сектор
––––––––––––––––––––––––––––––––––-
1 | 0:00.00 | 4:00.60 | 0 | 18059
2 | 4:00.60 | 1:33.57 | 18060 | 25091
3 | 5:34.42 | 4:20.17 | 25092 | 44608
4 | 9:54.59 | 5:20.48 | 44609 | 68656
5 | 15:15.32 | 3:56.03 | 68657 | 86359
6 | 19:11.35 | 5:13.67 | 86360 | 109901
7 | 24:25.27 | 6:04.73 | 109902 | 137274
8 | 30:30.25 | 6:36.41 | 137275 | 167015


Характеристики диапазона извлечения и сообщения об ошибках

Выбранный диапазон

Имя файла D:\Music\_Egor from PTZ_04_2\David Sunborn\David Sanborn - Promise Me The Moon (1977)\David Sanborn - Promise Me The Moon (1977).wav

Пиковый уровень 100.0 %
Скорость извлечения 3.5 X
Качество диапазона 100.0 %
CRC теста 922F4A4C
CRC копии 922F4A4C
Копирование… OK

Ошибок не произошло


AccurateRip: сводка

Трек 1 : извлечено точно (доверие 3) [DE46FD0D] (AR v2)
Трек 2 : извлечено точно (доверие 3) [FEFB23B6] (AR v2)
Трек 3 : извлечено точно (доверие 3) [67AE8FC6] (AR v2)
Трек 4 : извлечено точно (доверие 3) [FC631184] (AR v2)
Трек 5 : извлечено точно (доверие 3) [4AA87471] (AR v2)
Трек 6 : извлечено точно (доверие 3) [99FB9CA6] (AR v2)
Трек 7 : извлечено точно (доверие 3) [884BD704] (AR v2)
Трек 8 : извлечено точно (доверие 3) [2E6F8585] (AR v2)

Все треки извлечены точно

Конец отчёта

==== Контрольная сумма отчёта D9481BD038E58A9673CFDCD26AE53FD0B9D851EB02D537D5C5EE06E383D41FC8 ====

foobar2000 1.2 / Dynamic Range Meter 1.1.1
log date: 2016-02-29 14:45:19

––––––––––––––––––––––––––––––––––––––––
Analyzed: David Sanborn / Promise Me the Moon
––––––––––––––––––––––––––––––––––––––––

DR Peak RMS Duration Track
––––––––––––––––––––––––––––––––––––––––
DR9 0.00 dB -10.21 dB 4:01 01-Promise Me the Moon
DR12 0.00 dB -13.76 dB 1:34 02-Benjamin
DR9 0.00 dB -10.98 dB 4:20 03-Stranger's Arms
DR10 0.00 dB -12.67 dB 5:21 04-Heart Lake
DR9 0.00 dB -11.62 dB 3:56 05-The Rev.
DR9 0.00 dB -10.41 dB 5:14 06-We Fool Ourselves
DR9 0.00 dB -10.70 dB 6:05 07-Morning Salsa
DR9 0.00 dB -10.72 dB 6:37 08-The Legend of Cheops
––––––––––––––––––––––––––––––––––––––––

Number of tracks: 8
Official DR value: DR9

Samplerate: 44100 Hz
Channels: 2
Bits per sample: 16
Bitrate: 941 kbps
Codec: FLAC
================================================================================

David Sanborn - Albums Collection 1976-1982 (6CD) [Japanese Remastered 2013-2014]

David Sanborn - Albums Collection 1976-1982 (6CD) [Japanese Remastered 2013-2014]




David Sanborn - Albums Collection 1976-1982 (6CD) [Japanese Remastered 2013-2014]

David Sanborn - Heart To Heart (1978) Japanese Remastered 2013
EAC | FLAC | Image (Cue&Log) ~ 265 Mb | Mp3 (CBR320) ~ 115 Mb
Label: Warner | # WPCR-27467 | Time: 00:39:55 | Scans included

By the time of his third album, altoist David Sanborn's popularity and influence was growing month by month. Most of these numbers feature Sanborn with an enlarged rhythm section (with such studio vets as guitarists Hugh McCracken and David Spinozza, Don Grolnick or Richard Tee on keyboards, vibraphonist Mike Mainieri, bassist Herb Bushler and drummer Steve Gadd). However, "Short Visit" is something special, for Sanborn was joined by what was mostly the Gil Evans Orchestra; Evans even wrote the chart. Otherwise, this is a typical Sanborn release with plenty of danceable rhythms and the focus on his passionate alto.

Review by Scott Yanow, Allmusic.com

David Sanborn - alto saxophone
David Spinozza - acoustic guitar, electric guitar
Hugh McCracken - electric guitar, slide guitar
Don Grolnick - piano
Richard Tee - electric piano, piano, organ
Mike Mainieri - vibes
Herb Bushler, Anthony Jackson (#5) - bass
Steve Gadd - drums
Arthur Blythe (#2) - soprano saxophone, alto saxophone
George Adams (#2) - tenor saxophone, G flute
Lou Soloff, Jon Faddis - trumpets (#2)
Jon Clark - French horn (#2)
Tom Malone - trombone (#2)
Howard Johnson - tuba (#2)
Hiram Bullock - guitar (#2)
Pete Levin (#2) - clavinet, synthesizer, French horn
Warren Smith - percussion (#2), tambourine (#6)

Recorded at Rosebud Recording and A&R Recording Studios, New York.


Tracklist:

01. Solo (03:24)
02. Short Visit (07:52)
03. Theme from 'Love Is Not Enough' (06:54)
04. Lotus Blossom (06:23)
05. Heba (04:35)
06. Sunrise Gospel (06:31)
07. Anywhere I Wander (04:12)


Exact Audio Copy V1.0 beta 3 from 29. August 2011

Отчёт EAC об извлечении, выполненном 20. февраля 2016, 15:37

David Sanborn / Heart To Heart

Дисковод: Optiarc DVD RW AD-7203S Adapter: 1 ID: 0

Режим чтения : Достоверность
Использование точного потока : Да
Отключение кэша аудио : Да
Использование указателей C2 : Нет

Коррекция смещения при чтении : 48
Способность читать области Lead-in и Lead-out : Нет
Заполнение пропущенных сэмплов тишиной : Да
Удаление блоков с тишиной в начале и конце : Нет
При вычислениях CRC использовались нулевые сэмплы : Да
Интерфейс : Встроенный Win32-интерфейс для Win NT/2000

Выходной формат : Пользовательский кодировщик
Выбранный битрейт : 128 kBit/s
Качество : Высокий
Добавление ID3-тега : Нет
Утилита сжатия : C:\Program Files (x86)\Exact Audio Copy\Flac\flac.exe
Дополнительные параметры : -V -8 -T "Date=%year%" -T "Genre=%genre%" %source%


TOC извлечённого CD

Трек | Старт | Длительность | Начальный сектор | Конечный сектор
––––––––––––––––––––––––––––––––––-
1 | 0:00.00 | 3:24.37 | 0 | 15336
2 | 3:24.37 | 7:52.03 | 15337 | 50739
3 | 11:16.40 | 6:54.45 | 50740 | 81834
4 | 18:11.10 | 6:23.66 | 81835 | 110625
5 | 24:35.01 | 4:35.69 | 110626 | 131319
6 | 29:10.70 | 6:31.15 | 131320 | 160659
7 | 35:42.10 | 4:12.66 | 160660 | 179625


Характеристики диапазона извлечения и сообщения об ошибках

Выбранный диапазон

Имя файла D:\Music\_Egor from PTZ_04_1\David Sanborn\David Sanborn - Heart To Heart (1978)\David Sanborn - Heart To Heart (1978).wav

Пиковый уровень 100.0 %
Скорость извлечения 3.6 X
Качество диапазона 100.0 %
CRC теста 91CC82F3
CRC копии 91CC82F3
Копирование… OK

Ошибок не произошло


AccurateRip: сводка

Трек 1 : извлечено точно (доверие 1) [B29D5D23] (AR v2)
Трек 2 : извлечено точно (доверие 1) [2C32AF15] (AR v2)
Трек 3 : извлечено точно (доверие 1) [C55BBC72] (AR v2)
Трек 4 : извлечено точно (доверие 1) [0B86FCCF] (AR v2)
Трек 5 : извлечено точно (доверие 1) [47760086] (AR v2)
Трек 6 : извлечено точно (доверие 1) [2FB6C9E5] (AR v2)
Трек 7 : извлечено точно (доверие 1) [ECA20415] (AR v2)

Все треки извлечены точно

Конец отчёта

==== Контрольная сумма отчёта 808952DBAC698467DE7C0B908255404E68A87E757BFBC078CC0D20C9412529B9 ====

foobar2000 1.2 / Dynamic Range Meter 1.1.1
log date: 2016-03-04 15:21:46

––––––––––––––––––––––––––––––––––––––––
Analyzed: David Sanborn / Heart to Heart
––––––––––––––––––––––––––––––––––––––––

DR Peak RMS Duration Track
––––––––––––––––––––––––––––––––––––––––
DR11 0.00 dB -13.99 dB 3:24 01-Solo
DR12 0.00 dB -15.11 dB 7:52 02-Short Visit
DR11 0.00 dB -13.41 dB 6:55 03-Theme from 'Love Is Not Enough'
DR16 -0.10 dB -20.40 dB 6:24 04-Lotus Blossom
DR11 0.00 dB -12.72 dB 4:36 05-Heba
DR11 0.00 dB -13.34 dB 6:31 06-Sunrise Gospel
DR11 0.00 dB -13.87 dB 4:13 07-Anywhere I Wander
––––––––––––––––––––––––––––––––––––––––

Number of tracks: 7
Official DR value: DR12

Samplerate: 44100 Hz
Channels: 2
Bits per sample: 16
Bitrate: 842 kbps
Codec: FLAC
================================================================================

David Sanborn - Albums Collection 1976-1982 (6CD) [Japanese Remastered 2013-2014]

David Sanborn - Albums Collection 1976-1982 (6CD) [Japanese Remastered 2013-2014]




David Sanborn - Albums Collection 1976-1982 (6CD) [Japanese Remastered 2013-2014]

David Sanborn - Hideaway (1980) Japanese Remastered 2014
EAC | FLAC | Image (Cue&Log) ~ 274 Mb | Mp3 (CBR320) ~ 120 Mb | Scans included
Crossover Jazz, Smooth Jazz | Label: Warner Bros. | # WPCR-28021 | Time: 00:37:58

Released in 1980, Hideaway earned David Sanborn fame beyond that of the average studio musician, and rightfully so. Many releases by studio musicians suffer from weak compositions and overproduction, including some albums by Sanborn himself. However, Hideaway features a stripped-down, funky sound that showcases the artist's passionate and distinctive saxophone sound. This includes two tunes co-written with Michael McDonald and the "love theme" from the motion picture American Gigolo, appropriately entitled "The Seduction." All eight tunes on Hideaway are winners.

Review by Tim Griggs, Allmusic.com

David Sanborn - alto saxophone, soprano saxophone, Fender Rhodes, Hammond B-3 organ
Steve Gadd, Rick Marotta, Buddy Williams - drums
Neil Jason - bass, fretless bass
Marcus Miller, John Evans - bass
Hiram Bullock, Waddy Wachtel, Danny Kortchmar - electric guitar
David Spinozza, Jeff Mironov - electric guitar, acoustic guitar
Don Grolnick - clavinet, Fender Rhodes, piano
Paul Shaffer - Fender Rhodes
Rob Mounsey - Yamaha electric piano
Ralph MacDonald - congas, percussion, finger cymbal, triangle
Jody Linscott - congas, cowbell, devil stick, cabassa
Ray Bardani - percussion, cowbell, rhythm tech tambourine, high-hat, cabassa
Michael Manieri - electric vibes, marimba, bass marimba
Michael Colina - synthesizers, Polymoog, Crumar, piano, OBX synthesizer, cat bass, Fender Rhodes, string arrangements
James Taylor, Arnold McCuller, David Lasley, Bette Sussman, Naimy Hackett - background vocals
Ronnie Bauch, How Liang-Ping, Ruth Waterman, Benjamin Hudson, Carol Zeavin, Joanna Jenner, Guillermo Figueroa, William Henry - violins
Julian Fifer, Richard Sher - cellos

Recorded at Celebration Recording Studio, Inc., New York and Minot Sound, White Plains, NY.


Tracklist:

01. Hideaway (05:57)
02. Carly's Song (05:15)
03. Anything You Want (03:46)
04. The Seduction (Love Theme from 'American Gigolo') (03:56)
05. Lisa (04:31)
06. If You Would Be Mine (04:39)
07. Creeper (04:37)
08. Again An Again (05:16)


Exact Audio Copy V1.0 beta 3 from 29. August 2011

Отчёт EAC об извлечении, выполненном 21. февраля 2016, 18:41

David Sanborn / Hideaway

Дисковод: Optiarc DVD RW AD-7203S Adapter: 1 ID: 0

Режим чтения : Достоверность
Использование точного потока : Да
Отключение кэша аудио : Да
Использование указателей C2 : Нет

Коррекция смещения при чтении : 48
Способность читать области Lead-in и Lead-out : Нет
Заполнение пропущенных сэмплов тишиной : Да
Удаление блоков с тишиной в начале и конце : Нет
При вычислениях CRC использовались нулевые сэмплы : Да
Интерфейс : Встроенный Win32-интерфейс для Win NT/2000

Выходной формат : Пользовательский кодировщик
Выбранный битрейт : 128 kBit/s
Качество : Высокий
Добавление ID3-тега : Нет
Утилита сжатия : C:\Program Files (x86)\Exact Audio Copy\Flac\flac.exe
Дополнительные параметры : -V -8 -T "Date=%year%" -T "Genre=%genre%" %source%


TOC извлечённого CD

Трек | Старт | Длительность | Начальный сектор | Конечный сектор
––––––––––––––––––––––––––––––––––-
1 | 0:00.00 | 5:57.46 | 0 | 26820
2 | 5:57.46 | 5:15.06 | 26821 | 50451
3 | 11:12.52 | 3:46.32 | 50452 | 67433
4 | 14:59.09 | 3:56.30 | 67434 | 85163
5 | 18:55.39 | 4:31.03 | 85164 | 105491
6 | 23:26.42 | 4:39.00 | 105492 | 126416
7 | 28:05.42 | 4:37.00 | 126417 | 147191
8 | 32:42.42 | 5:16.12 | 147192 | 170903


Характеристики диапазона извлечения и сообщения об ошибках

Выбранный диапазон

Имя файла D:\Music\_Egor from PTZ_04_2\David Sunborn\David Sanborn - Hideaway (1980)\David Sanborn - Hideaway (1980).wav

Пиковый уровень 100.0 %
Скорость извлечения 3.5 X
Качество диапазона 100.0 %
CRC теста 1150ECEF
CRC копии 1150ECEF
Копирование… OK

Ошибок не произошло


AccurateRip: сводка

Трек 1 : извлечено точно (доверие 2) [CC2E81C1] (AR v2)
Трек 2 : извлечено точно (доверие 2) [AC790FCB] (AR v2)
Трек 3 : извлечено точно (доверие 2) [670FF04B] (AR v2)
Трек 4 : извлечено точно (доверие 2) [650578BE] (AR v2)
Трек 5 : извлечено точно (доверие 2) [34FDD8F7] (AR v2)
Трек 6 : извлечено точно (доверие 2) [4021487E] (AR v2)
Трек 7 : извлечено точно (доверие 2) [E34FF07C] (AR v2)
Трек 8 : извлечено точно (доверие 2) [72CC6050] (AR v2)

Все треки извлечены точно

Конец отчёта

==== Контрольная сумма отчёта AD24D02FF6358CBF0D97C783B6867834E8FC780A62C9CAE1E2FE758B4B72FE79 ====

foobar2000 1.2 / Dynamic Range Meter 1.1.1
log date: 2016-03-07 18:07:20

––––––––––––––––––––––––––––––––––––––––
Analyzed: David Sanborn / Hideaway
––––––––––––––––––––––––––––––––––––––––

DR Peak RMS Duration Track
––––––––––––––––––––––––––––––––––––––––
DR13 0.00 dB -14.63 dB 5:58 01-Hideaway
DR14 0.00 dB -17.15 dB 5:15 02-Carly's Song
DR13 0.00 dB -14.16 dB 3:46 03-Anything You Want
DR11 0.00 dB -14.07 dB 3:56 04-The Seduction (Love Theme from 'American Gigolo')
DR13 0.00 dB -16.18 dB 4:31 05-Lisa
DR12 0.00 dB -14.31 dB 4:39 06-If You Would Be Mine
DR13 0.00 dB -15.57 dB 4:37 07-Creeper
DR12 0.00 dB -13.67 dB 5:16 08-Again An Again
––––––––––––––––––––––––––––––––––––––––

Number of tracks: 8
Official DR value: DR13

Samplerate: 44100 Hz
Channels: 2
Bits per sample: 16
Bitrate: 886 kbps
Codec: FLAC
================================================================================

David Sanborn - Albums Collection 1976-1982 (6CD) [Japanese Remastered 2013-2014]

David Sanborn - Albums Collection 1976-1982 (6CD) [Japanese Remastered 2013-2014]




David Sanborn - Albums Collection 1976-1982 (6CD) [Japanese Remastered 2013-2014]

David Sanborn - Voyeur (1981) Japanese Remastered 2014
EAC | FLAC | Image (Cue&Log) ~ 219 Mb | Mp3 (CBR320) ~ 97 Mb
Label: Warner Bros. | # WPCR-28022 | Time: 00:29:47 | Scans included

This 1981 recording is an excellent example of David Sanborn's music. The highly influential altoist is joined by familiar studio veterans (including guitarist Hiram Bullock and drummer Steve Gadd) with bassist/composer Marcus Miller being a key figure in creating the funky rhythms and colorful backgrounds. Miller, who shared the writing chores with Sanborn, not only contributed his powerful bass, but backed the altoist during a duet version of "Just for You" on piano. Easily recommended to fans of R&B-ish jazz.

Review by Scott Yanow, Allmusic.com

David Sanborn - alto saxophone, Fender Rhodes, Wurlitzer electric piano, saxello, percussion
Steve Gadd - drums
Buddy Williams - drums, percussion
Marcus Miller - bass, Moog bass, drums, Fender Rhodes, electric guitar, Prophet synthesizer, bells
Buzzy Feiten - electric guitar, acoustic guitar
Hiram Bullock - electric guitar, percussion
Tom Scott - flute, tenor saxophone
Lenny Castro - percussion, congas, timbales
Ralph MacDonald - percussion
Michael Colina - OBX synthesiser, Prophet synthesizer
Ray Bardani - gong
Valerie Simpson, Patti Austin, Kacey Cisyk, Lani Groves, Diva Gray, Gordon Grody, Hamish Stuart - background vocals

Recorded at Minot Sound Studio, White Plains, NY; Warner Bros. Recording Studios, North Hollywood, CA;
Westlake Recording Studios, Los Angeles, CA; Jennifudy Recording Studios, Los Angeles, CA.


Tracklist:

01. Let's Just Say Goodbye (04:37)
02. It's You (05:11)
03. Wake Me When It's Over (05:41)
04. One in a Million (03:41)
05. Run for Cover (03:14)
06. All I Need Is You (05:47)
07. Just for You (01:33)


Exact Audio Copy V1.0 beta 3 from 29. August 2011

Отчёт EAC об извлечении, выполненном 21. февраля 2016, 19:04

David Sanborn / Voyeur

Дисковод: Optiarc DVD RW AD-7203S Adapter: 1 ID: 0

Режим чтения : Достоверность
Использование точного потока : Да
Отключение кэша аудио : Да
Использование указателей C2 : Нет

Коррекция смещения при чтении : 48
Способность читать области Lead-in и Lead-out : Нет
Заполнение пропущенных сэмплов тишиной : Да
Удаление блоков с тишиной в начале и конце : Нет
При вычислениях CRC использовались нулевые сэмплы : Да
Интерфейс : Встроенный Win32-интерфейс для Win NT/2000

Выходной формат : Пользовательский кодировщик
Выбранный битрейт : 128 kBit/s
Качество : Высокий
Добавление ID3-тега : Нет
Утилита сжатия : C:\Program Files (x86)\Exact Audio Copy\Flac\flac.exe
Дополнительные параметры : -V -8 -T "Date=%year%" -T "Genre=%genre%" %source%


TOC извлечённого CD

Трек | Старт | Длительность | Начальный сектор | Конечный сектор
––––––––––––––––––––––––––––––––––-
1 | 0:00.00 | 4:37.34 | 0 | 20808
2 | 4:37.34 | 5:11.51 | 20809 | 44184
3 | 9:49.10 | 5:41.59 | 44185 | 69818
4 | 15:30.69 | 3:41.01 | 69819 | 86394
5 | 19:11.70 | 3:14.36 | 86395 | 100980
6 | 22:26.31 | 5:47.09 | 100981 | 127014
7 | 28:13.40 | 1:33.71 | 127015 | 134060


Характеристики диапазона извлечения и сообщения об ошибках

Выбранный диапазон

Имя файла D:\Music\_Egor from PTZ_04_2\David Sunborn\David Sanborn - Voyeur (1981)\David Sanborn - Voyeur (1981).wav

Пиковый уровень 100.0 %
Скорость извлечения 3.3 X
Качество диапазона 99.9 %
CRC теста 12B96663
CRC копии 12B96663
Копирование… OK

Ошибок не произошло


AccurateRip: сводка

Трек 1 : извлечено точно (доверие 7) [E95E0EA5] (AR v2)
Трек 2 : извлечено точно (доверие 7) [35507304] (AR v2)
Трек 3 : извлечено точно (доверие 7) [A7BBD536] (AR v2)
Трек 4 : извлечено точно (доверие 7) [0DD943C5] (AR v2)
Трек 5 : извлечено точно (доверие 7) [85A3F5C1] (AR v2)
Трек 6 : извлечено точно (доверие 7) [75DDB407] (AR v2)
Трек 7 : извлечено точно (доверие 7) [23AE2DD3] (AR v2)

Все треки извлечены точно

Конец отчёта

==== Контрольная сумма отчёта 0B310ED6086D0B021F2BC2634173A62BC0E85942625EAA758A6F3013786EAD30 ====

foobar2000 1.2 / Dynamic Range Meter 1.1.1
log date: 2016-03-16 15:17:57

––––––––––––––––––––––––––––––––––––––––
Analyzed: David Sanborn / Voyeur
––––––––––––––––––––––––––––––––––––––––

DR Peak RMS Duration Track
––––––––––––––––––––––––––––––––––––––––
DR11 0.00 dB -13.10 dB 4:37 01-Let's Just Say Goodbye
DR12 0.00 dB -15.17 dB 5:12 02-It's You
DR13 0.00 dB -14.35 dB 5:42 03-Wake Me When It's Over
DR11 0.00 dB -13.23 dB 3:41 04-One in a Million
DR11 0.00 dB -12.73 dB 3:14 05-Run for Cover
DR12 0.00 dB -14.12 dB 5:47 06-All I Need Is You
DR13 -2.30 dB -19.93 dB 1:34 07-Just for You
––––––––––––––––––––––––––––––––––––––––

Number of tracks: 7
Official DR value: DR12

Samplerate: 44100 Hz
Channels: 2
Bits per sample: 16
Bitrate: 894 kbps
Codec: FLAC
================================================================================

David Sanborn - Albums Collection 1976-1982 (6CD) [Japanese Remastered 2013-2014]

David Sanborn - Albums Collection 1976-1982 (6CD) [Japanese Remastered 2013-2014]




David Sanborn - Albums Collection 1976-1982 (6CD) [Japanese Remastered 2013-2014]

David Sanborn - As We Speak (1982) Japanese Remastered 2014
EAC | FLAC | Image (Cue&Log) ~ 288 Mb | Mp3 (CBR320) ~ 128 Mb | Scans included
Crossover Jazz, Smooth Jazz, Fusion | Label: Warner Bros. | # WPCR-28070 | 00:39:40

It was about this time in his career that one sensed David Sanborn was getting a bit tired of the formula he was using on his records. However, his great popularity kept him from changing direction much. As usual, the highly influential altoist blows his heart out over a lot of funky rhythms on As We Speak, but surprisingly, he switches to his less notable soprano on four of the nine tunes. Bassist Marcus Miller is a key force in the background, leading the expanded rhythm sections through some pop-oriented material that is appealing but not too substantial.

Review by Scott Yanow, Allmusic.com

David Sanborn – alto saxophone, soprano saxophone
Omar Hakim – drums, tambourine
Marcus Miller – bass guitar, bass, synthesizer
Michael Sembello – guitar, lead vocals (#5), background vocals (#5)
Don Freeman – keyboards, synthesizer
Lance Ong – synthesizer (#2,8)
James "Sugar Bear" Skelton – Hammond B-3 organ (#4)
Spike (#5,6,8,9) – synthesizer, IRT strings
Robert A. Martin – French horn (#9)
Paulinho da Costa, Malando Gassama (#5) – percussion
Buzz Feiten – rhythm guitar (#1)
George Duke – clavinet (#1)
Bob Mintzer – bass clarinet (#1)
Cruz Baca Sembello – background vocals (#5,9)
Saxophone section: David Sanborn, Bill Evans

Recorded at Warner Bros. Recording Studios, North Hollywood, CA; Massenburg Studios, Santa Monica, CA; Mediasound, New York; Soundworks, New York.

Tracklist:

01. Port of Call (04:29)
02. Better Believe It (03:31)
03. Rush Hour (04:43)
04. Over and Over (04:12)
05. Back Again (03:52)
06. As We Speak (04:18)
07. Straight to the Heart (03:26)
08. Rain on Christmas (04:47)
09. Love Will Come Someday (06:18)


Exact Audio Copy V1.0 beta 3 from 29. August 2011

Отчёт EAC об извлечении, выполненном 21. февраля 2016, 20:00

David Sanborn / As We Speak

Дисковод: Optiarc DVD RW AD-7203S Adapter: 1 ID: 0

Режим чтения : Достоверность
Использование точного потока : Да
Отключение кэша аудио : Да
Использование указателей C2 : Нет

Коррекция смещения при чтении : 48
Способность читать области Lead-in и Lead-out : Нет
Заполнение пропущенных сэмплов тишиной : Да
Удаление блоков с тишиной в начале и конце : Нет
При вычислениях CRC использовались нулевые сэмплы : Да
Интерфейс : Встроенный Win32-интерфейс для Win NT/2000

Выходной формат : Пользовательский кодировщик
Выбранный битрейт : 128 kBit/s
Качество : Высокий
Добавление ID3-тега : Нет
Утилита сжатия : C:\Program Files (x86)\Exact Audio Copy\Flac\flac.exe
Дополнительные параметры : -V -8 -T "Date=%year%" -T "Genre=%genre%" %source%


TOC извлечённого CD

Трек | Старт | Длительность | Начальный сектор | Конечный сектор
––––––––––––––––––––––––––––––––––-
1 | 0:00.00 | 4:29.33 | 0 | 20207
2 | 4:29.33 | 3:31.26 | 20208 | 36058
3 | 8:00.59 | 4:43.62 | 36059 | 57345
4 | 12:44.46 | 4:12.68 | 57346 | 76313
5 | 16:57.39 | 3:52.52 | 76314 | 93765
6 | 20:50.16 | 4:18.00 | 93766 | 113115
7 | 25:08.16 | 3:26.58 | 113116 | 128623
8 | 28:34.74 | 4:47.42 | 128624 | 150190
9 | 33:22.41 | 6:18.15 | 150191 | 178555


Характеристики диапазона извлечения и сообщения об ошибках

Выбранный диапазон

Имя файла D:\Music\_Egor from PTZ_04_2\David Sunborn\David Sanborn - As We Speak (1982)\David Sanborn - As We Speak (1982).wav

Пиковый уровень 100.0 %
Скорость извлечения 3.5 X
Качество диапазона 99.9 %
CRC теста 63AE779F
CRC копии 63AE779F
Копирование… OK

Ошибок не произошло


AccurateRip: сводка

Трек 1 : извлечено точно (доверие 4) [1911A22C] (AR v2)
Трек 2 : извлечено точно (доверие 4) [169D72C8] (AR v2)
Трек 3 : извлечено точно (доверие 4) [396BE5E0] (AR v2)
Трек 4 : извлечено точно (доверие 4) [9039B708] (AR v2)
Трек 5 : извлечено точно (доверие 4) [4EE63420] (AR v2)
Трек 6 : извлечено точно (доверие 4) [E847D971] (AR v2)
Трек 7 : извлечено точно (доверие 4) [9418B40B] (AR v2)
Трек 8 : извлечено точно (доверие 4) [BA3E3272] (AR v2)
Трек 9 : извлечено точно (доверие 4) [32159EEC] (AR v2)

Все треки извлечены точно

Конец отчёта

==== Контрольная сумма отчёта D0656D8D8CDCF3966467F08C0731D9D6D528BCB8FB8EC3476737E0E00EBE00C8 ====

foobar2000 1.2 / Dynamic Range Meter 1.1.1
log date: 2016-03-20 15:38:37

––––––––––––––––––––––––––––––––––––––––
Analyzed: David Sanborn / As We Speak
––––––––––––––––––––––––––––––––––––––––

DR Peak RMS Duration Track
––––––––––––––––––––––––––––––––––––––––
DR10 0.00 dB -11.99 dB 4:29 01-Port of Call
DR13 0.00 dB -14.59 dB 3:31 02-Better Believe It
DR11 0.00 dB -13.06 dB 4:44 03-Rush Hour
DR10 0.00 dB -11.91 dB 4:13 04-Over and Over
DR10 0.00 dB -11.58 dB 3:53 05-Back Again
DR12 0.00 dB -14.32 dB 4:18 06-As We Speak
DR11 0.00 dB -13.66 dB 3:27 07-Straight to the Heart
DR12 0.00 dB -14.76 dB 4:48 08-Rain on Christmas
DR11 0.00 dB -13.68 dB 6:18 09-Love Will Come Someday
––––––––––––––––––––––––––––––––––––––––

Number of tracks: 9
Official DR value: DR11

Samplerate: 44100 Hz
Channels: 2
Bits per sample: 16
Bitrate: 883 kbps
Codec: FLAC
================================================================================

David Sanborn - Albums Collection 1976-1982 (6CD) [Japanese Remastered 2013-2014]

David Sanborn - Albums Collection 1976-1982 (6CD) [Japanese Remastered 2013-2014]




All thanks to original releaser - Egor from PTZ

More interesting music in My Blog