Tags
Language
Tags

David Van Tieghem - Safety In Numbers (1987) {Japan for USA}

Posted By: BlondStyle
David Van Tieghem - Safety In Numbers (1987) {Japan for USA}

David Van Tieghem - Safety In Numbers (1987) {Japan for USA}
Electronic, New Age, Techno-Tribal | XLD Rip | FLAC, Tracks+CUE+LOG+Scans (JPEG) | 46:23 | 257,99 Mb
Label: Private Music (USA) | Cat.# 2015-2-P | Released: 1987
David Van Tieghem - Safety In Numbers (1987) {Japan for USA}

"Safety in Numbers" is the second studio album by American electronica musician & percussionist David Van Tieghem, released in 1987. Tony Levin, the longtime bassist for King Crimson, plays Chapman Stick on track 4. Safety in Numbers' music has been described as a "downtown" mix of pop, new-age, percussion music and electronic music.
~Wikipedia
Not comfortably labeled New Age, or percussion music, or pop, or electronic music, Van Tieghem's music has that "downtown" mix of all these and yet is distinctly his own...from the lush "Crystals" to the droll and rhythm steady "Night of the Cold Noses." This is twisted "easy listening."
~Review by "Blue" Gene Tyranny

David Van Tieghem - Safety In Numbers (1987) {Japan for USA}

David Van Tieghem - Safety In Numbers (1987) {Japan for USA}




Release of this album: 1987 [LP Private Music, Cat.# 2015-1-P, USA]
Release of this CD: 1987 [CD The Universal/Motown Records Group (USA), Cat.# 2015-2-P / UPC: 010058201526]
℗© 1987 Private, Inc.
Manufactured and Distributed in the United States by RCA Records (Artwork)
Manufactured in Japan (CD)


Credits:

Artwork [Front Cover Color Image Processing] – Howard Sochurek
Chapman Stick – Tony Levin (tracks: 4)
Co-producer – Roma Baran
Co-producer, Written-By – David Van Tieghem
Design, Design Concept – Jo Bonney, Laura Demme
Drums [African Water Drums], Gamelan [Parabolic Gamelan], Drum [Wooden Tongue Drum] – Bill Buchen (tracks: 5, 9, 10)
Drums, Sampler [Fairlight CMI IIx And Series III, Akai S900], Marimba, Percussion [Metal Ashtray, Plastic Milk Bottle, Suzuki Musical Spring, Scrap Metal, Japanese Stones, Plastic Mailing Tube, Aluminum Soda Cans, Corrugated Plastic Hose, Lamp Parts, Plastic Sticks], Cymbal [Chinese, Bowed], Gong [Chinese], Synthesizer [Yamaha DX7 and DX100, Korg Poly-800, Roland Juno-60, Voyetra Eight], Percussion [Octapad], Piano, Clavinet, Drum [Wooden Tongue Drum], Computer, Sequenced By, Drums [Ceramic], Bells, Toy [Jingle Ball Toy, Ray Gun], Effects [Processed Radio And Television Signals], Drum Machine [E-Mu SP-12], Voice – David Van Tieghem
Effects [Shortwave Radio] – Richard J. Van Tieghem (tracks: 1, 4)
Engineer, Programmed By – Eric Liljestrand
Flute – Richard Landry (tracks: 4)
Guitar – Larry Saltzman (tracks: 1, 2, 5, 8)
Guitar, E-Bow – Eric Liljestrand (tracks: 3, 5)
Harp – Sara Cutler (tracks: 3, 7, 8)
Mastered By – Bob Ludwig
Mixed By – Leanne Ungar
Pedal Steel Guitar – Ned Sublette (tracks: 4)
Photography By [Graphics Photography] – Paula Court
Piano – "Blue" Gene Tyranny (tracks: 3)
Synthesizer [DX7 & TX7, Voyetra Eight, Memory Moog], Sampler [Emulator II] – David Lebolt (tracks: 2, 6, 8)
Synthesizer [DX7], Sampler [Emulator II, Fairlight CMI IIx] – Ryuichi Sakamoto (tracks: 2, 8)
Voice – Laura Demme (tracks: 3, 9), Rebecca Armstrong (tracks: 6)


Tracklist:

01. Galaxy (05:11)
02. Thunder Lizard (05:05)
03. Crystals (05:06)
04. Night Of The Cold Noses (05:17)
05. Future (04:30)
06. All Safe (05:56)
07. Skeleton Key (04:25)
08. Clear (04:36)
09. Deep Sky (02:46)
10. A Wing And A Prayer (03:31)

X Lossless Decoder version 20131102 (145.0)

XLD extraction logfile from 2014-01-25 12:10:53 +0900

David Van Tieghem / Safety in Numbers

Used drive : _NEC DVD_RW ND-3540A (revision 1.01)
Media type : Pressed CD

Ripper mode : XLD Secure Ripper
Disable audio cache : OK for the drive with a cache less than 1375KiB
Make use of C2 pointers : NO
Read offset correction : 48
Max retry count : 100
Gap status : Analyzed, Appended (except HTOA)

TOC of the extracted CD
Track | Start | Length | Start sector | End sector
––––––––––––––––––––––––––––-
1 | 00:00:00 | 05:10:45 | 0 | 23294
2 | 05:10:45 | 05:04:68 | 23295 | 46162
3 | 10:15:38 | 05:05:62 | 46163 | 69099
4 | 15:21:25 | 05:17:15 | 69100 | 92889
5 | 20:38:40 | 04:30:35 | 92890 | 113174
6 | 25:09:00 | 05:55:53 | 113175 | 139852
7 | 31:04:53 | 04:24:45 | 139853 | 159697
8 | 35:29:23 | 04:36:15 | 159698 | 180412
9 | 40:05:38 | 02:45:62 | 180413 | 192849
10 | 42:51:25 | 03:31:25 | 192850 | 208699

AccurateRip Summary (DiscID: 0012b599-0094278c-6d0ade0a)
Track 01 : OK (v1+v2, confidence 23/23)
Track 02 : OK (v1+v2, confidence 21/21)
Track 03 : OK (v1+v2, confidence 22/22)
Track 04 : OK (v1+v2, confidence 23/23)
Track 05 : OK (v1+v2, confidence 23/23)
Track 06 : OK (v1+v2, confidence 23/23)
Track 07 : OK (v1+v2, confidence 22/22)
Track 08 : OK (v1+v2, confidence 23/23)
Track 09 : OK (v1+v2, confidence 22/22)
Track 10 : OK (v1+v2, confidence 23/23)
->All tracks accurately ripped.

All Tracks
Album gain : 0.89 dB
Peak : 1.000000
Statistics
Read error : 0
Jitter error (maybe fixed) : 0
Retry sector count : 0
Damaged sector count : 0

Track 01
Filename : /David Van Tieghem - Safety in Numbers (1987) [FLAC]/01 - Galaxy.flac
Pre-gap length : 00:02:00

Track gain : 2.10 dB
Peak : 0.716156
CRC32 hash (test run) : C7FBCB2D
CRC32 hash : C7FBCB2D
CRC32 hash (skip zero) : E42D91C7
AccurateRip v1 signature : 74448058
AccurateRip v2 signature : C536AE49
->Accurately ripped (v1+v2, confidence 13+10/23)
Statistics
Read error : 0
Jitter error (maybe fixed) : 0
Retry sector count : 0
Damaged sector count : 0

Track 02
Filename : /David Van Tieghem - Safety in Numbers (1987) [FLAC]/02 - Thunder Lizard.flac
Pre-gap length : 00:02:42

Track gain : 0.27 dB
Peak : 0.885193
CRC32 hash (test run) : 86F5D27C
CRC32 hash : 86F5D27C
CRC32 hash (skip zero) : 39044F45
AccurateRip v1 signature : 42308F5C
AccurateRip v2 signature : DB57EE74
->Accurately ripped (v1+v2, confidence 12+9/21)
Statistics
Read error : 0
Jitter error (maybe fixed) : 0
Retry sector count : 0
Damaged sector count : 0

Track 03
Filename : /David Van Tieghem - Safety in Numbers (1987) [FLAC]/03 - Crystals.flac
Pre-gap length : 00:03:58

Track gain : 3.04 dB
Peak : 0.472992
CRC32 hash (test run) : AC8B2687
CRC32 hash : AC8B2687
CRC32 hash (skip zero) : B9C9CF14
AccurateRip v1 signature : 135E13C4
AccurateRip v2 signature : D9A2F755
->Accurately ripped (v1+v2, confidence 13+9/22)
Statistics
Read error : 0
Jitter error (maybe fixed) : 0
Retry sector count : 0
Damaged sector count : 0

Track 04
Filename : /David Van Tieghem - Safety in Numbers (1987) [FLAC]/04 - Night of the Cold Noses.flac
Pre-gap length : 00:03:32

Track gain : 1.32 dB
Peak : 0.888428
CRC32 hash (test run) : EFE50699
CRC32 hash : EFE50699
CRC32 hash (skip zero) : A779F51D
AccurateRip v1 signature : 7E2AD21B
AccurateRip v2 signature : 27BDBA2D
->Accurately ripped (v1+v2, confidence 13+10/23)
Statistics
Read error : 0
Jitter error (maybe fixed) : 0
Retry sector count : 0
Damaged sector count : 0

Track 05
Filename : /David Van Tieghem - Safety in Numbers (1987) [FLAC]/05 - Future.flac
Pre-gap length : 00:05:10

Track gain : -0.46 dB
Peak : 0.693726
CRC32 hash (test run) : 7BD03A94
CRC32 hash : 7BD03A94
CRC32 hash (skip zero) : A847CF69
AccurateRip v1 signature : 514CF8BB
AccurateRip v2 signature : 4330610D
->Accurately ripped (v1+v2, confidence 13+10/23)
Statistics
Read error : 0
Jitter error (maybe fixed) : 0
Retry sector count : 0
Damaged sector count : 0

Track 06
Filename : /David Van Tieghem - Safety in Numbers (1987) [FLAC]/06 - All Safe.flac
Pre-gap length : 00:03:57

Track gain : 2.33 dB
Peak : 0.794342
CRC32 hash (test run) : 370CA921
CRC32 hash : 370CA921
CRC32 hash (skip zero) : C6272BA4
AccurateRip v1 signature : 68A34B43
AccurateRip v2 signature : 7EAF81B8
->Accurately ripped (v1+v2, confidence 13+10/23)
Statistics
Read error : 0
Jitter error (maybe fixed) : 0
Retry sector count : 0
Damaged sector count : 0

Track 07
Filename : /David Van Tieghem - Safety in Numbers (1987) [FLAC]/07 - Skeleton Key.flac
Pre-gap length : 00:04:40

Track gain : 4.29 dB
Peak : 0.545410
CRC32 hash (test run) : C6B0CC8B
CRC32 hash : C6B0CC8B
CRC32 hash (skip zero) : B99C0754
AccurateRip v1 signature : 0FFD137B
AccurateRip v2 signature : 24395C4D
->Accurately ripped (v1+v2, confidence 13+9/22)
Statistics
Read error : 0
Jitter error (maybe fixed) : 0
Retry sector count : 0
Damaged sector count : 0

Track 08
Filename : /David Van Tieghem - Safety in Numbers (1987) [FLAC]/08 - Clear.flac
Pre-gap length : 00:02:38

Track gain : 0.43 dB
Peak : 0.692780
CRC32 hash (test run) : 6F623DA8
CRC32 hash : 6F623DA8
CRC32 hash (skip zero) : 19172A17
AccurateRip v1 signature : C18168EE
AccurateRip v2 signature : F0B33ABB
->Accurately ripped (v1+v2, confidence 13+10/23)
Statistics
Read error : 0
Jitter error (maybe fixed) : 0
Retry sector count : 0
Damaged sector count : 0

Track 09
Filename : /David Van Tieghem - Safety in Numbers (1987) [FLAC]/09 - Deep Sky.flac
Pre-gap length : 00:02:65

Track gain : 2.36 dB
Peak : 0.679077
CRC32 hash (test run) : 87930900
CRC32 hash : 87930900
CRC32 hash (skip zero) : 68F83042
AccurateRip v1 signature : E5B1A7DB
AccurateRip v2 signature : 07ACEE43
->Accurately ripped (v1+v2, confidence 13+9/22)
Statistics
Read error : 0
Jitter error (maybe fixed) : 0
Retry sector count : 0
Damaged sector count : 0

Track 10
Filename : /David Van Tieghem - Safety in Numbers (1987) [FLAC]/10 - A Wing and a Prayer.flac

Track gain : -0.44 dB
Peak : 1.000000
CRC32 hash (test run) : 05A767F7
CRC32 hash : 05A767F7
CRC32 hash (skip zero) : E1FECFCC
AccurateRip v1 signature : AD6E94F7
AccurateRip v2 signature : 6091512F
->Accurately ripped (v1+v2, confidence 13+10/23)
Statistics
Read error : 0
Jitter error (maybe fixed) : 0
Retry sector count : 0
Damaged sector count : 0

No errors occurred

End of status report

––-BEGIN XLD SIGNATURE––-
VWotD14KEDwsmbv_MTKC7m1AM6DUX6uox.uPXUq1gYt.UxxKhNaX_1ooZFNtwhafs7FQ6iJFd9dF5owilXsHQMHpuaNbdn53oQOtllu
––-END XLD SIGNATURE––-

––––––––––––––––––––––––––––––––––––––––
Analyzed: David Van Tieghem / Safety in Numbers
––––––––––––––––––––––––––––––––––––––––

DR Peak RMS Duration Track
––––––––––––––––––––––––––––––––––––––––
DR13 -2.90 dB -18.91 dB 5:11 01-Galaxy
DR13 -1.06 dB -17.82 dB 5:05 02-Thunder Lizard
DR12 -6.50 dB -21.58 dB 5:06 03-Crystals
DR14 -1.03 dB -18.69 dB 5:17 04-Night of the Cold Noses
DR11 -3.18 dB -18.06 dB 4:30 05-Future
DR13 -2.00 dB -19.47 dB 5:56 06-All Safe
DR12 -5.27 dB -20.05 dB 4:25 07-Skeleton Key
DR11 -3.19 dB -17.23 dB 4:36 08-Clear
DR11 -3.36 dB -18.97 dB 2:46 09-Deep Sky
DR14 0.00 dB -18.25 dB 3:31 10-A Wing and a Prayer
––––––––––––––––––––––––––––––––––––––––

Number of tracks: 10
Official DR value: DR12

Samplerate: 44100 Hz
Channels: 2
Bits per sample: 16
Bitrate: 780 kbps
Codec: FLAC
================================================================================

Thanks to the original releaser

♫~Welcome To My Blog~♫

password: BlondStyle