Tags
Language
Tags

Davy Graham - Albums Collection 1963-1970 (6CD)

Posted By: Designol
Davy Graham - Albums Collection 1963-1970 (6CD)

Davy Graham - Albums Collection 1963-1970 (6CD)
EAC | FLAC | Image/Tracks (Cue&Log) ~ 1.54 Gb | Mp3 (CBR320) ~ 654 Mb | Scans ~ 1.1 Gb
Guitar Virtuoso, Guitar Jazz, Folk Jazz, British Folk, Folk-Rock, Folk-Blues | Time: 04:44:58

Davy Graham was one of the most eclectic guitarists of the 1960s, and his mixture of folk, blues, jazz, Middle Eastern sounds, and Indian ragas was an important catalyst of the British folk scene. Like Sandy Bull and John Fahey – two folk-based guitarists with a similar taste for genre-bending experimentation – Graham could not be said to be a rock musician. But like Bull and Fahey, he shared the eagerness of the '60s psychedelic rockers to stretch out and incorporate unpredictable influences into his music. While he wasn't much of a singer, Graham's taste in material was broad and shrewd, encompassing blues, ragas, Joni Mitchell, Charles Mingus, and the famous instrumental "Anji," which Graham recorded in 1962, way before the more famous versions by Bert Jansch and Simon & Garfunkel. Besides cutting several albums of his own work in the 1960s with sympathetic, low-key rhythm sections, he also recorded with traditional folksinger Shirley Collins and British blues father Alexis Korner. Graham recorded only sporadically after the 1960s, although he performed with the renowned acoustic guitar wizards Stefan Grossman and Duck Baker.

Richie Unterberger, Allmusic.com

Davy Graham - Albums Collection 1963-1970 (6CD)






Davy Graham - Albums Collection 1963-1970 (6CD)

Davy Graham - The Guitar Player (1963) Expanded Reissue 2003
EAC | FLAC | Tracks (Cue&Log) ~ 275 Mb | Mp3 (CBR320) ~ 134 Mb | Scans ~ 186 Mb
Label: Castle/Sanctuary | # CMRCD 622 | 00:58:22

2003 reissue of the UK folk/blues legend's classic 1963 debut album features 20 tracks including eight bonus tracks, 'She Moved Thru' The Bizarre/Blue Raga' (Live), 'Misirlou' (Live), 'Hey Bud Blues' (Live), 'Anji', 'Fingerbuster', 'La Morena', 'Happy Meeting In Glory', & 'Suite In D Minor'. Always held in awe by his peers, this album still sounds as breathtakingly fresh today, as it did fifty years ago!

While few on the North American side of the Atlantic are aware of the sheer poetic and instrumental genius of guitarist Davy Graham – such listeners usually get all misty over one of the persons he influenced, such as Richard Thompson, Martin Carthy, Bert Jansch, John Renbourn, and Ellen McIlwaine, all of whom he is superior to in both technique and compositional style – his place in the world of guitar icons is well-established. Graham literally started the modern folk revival for guitarists in England. The Guitar Player is his first full-length album, recorded in 1962 and issued on the venerable Pye Records Golden Guinea label two years after Graham's recording debut, the 3/4 A.D. EP on Topic. This Castle/Sanctuary reissue of The Guitar Player is lovingly and painstakingly remastered from the original tapes. It contains the 12 dazzling tracks in sequence from its predecessor that showcase Graham's truly astonishing range – even by today's standards. Jazz classics such as Sonny Rollins' "Don't Stop the Carnival" accompanied by timpanis, Brubeck's "Take Five," Cannonball Adderley's "Sermonette," Horace Silver's "Buffalo," the torch song "Cry Me a River" (which was a hit by Julie London just before Graham reinvented it), and Ray Charles' R&B classic "Hallelujah, I Love Her So" were re-imagined by Graham as folk instrumentals. They retain their swing and their radical harmonic inventions – even more so because of Graham's wild contrapuntal blues method of playing. His version of a classic blues song like "How Long, How Long Blues" recalls Gary Davis and Big Bill Broonzy (just forget Hot Tuna's version please; it is sickly pale in comparison), and his originals, such as "Blues for Betty," contain an exoticism not heard before or since while remaining true to the idiom. The Guitar Player is one of the greatest, if not the greatest, instrumental acoustic guitar record of the 1960s and 1970s British folk scene. In addition to the album, Sanctuary has seen fit to include no less than eight bonus tracks taken from the Rollercoaster CDs After Hours and All That Moody, and two short cuts – including a redone "Anji" (covered by Simon & Garfunkel as the lone instrumental on Sounds of Silence) from 1976. The liner notes by British critic Colin Harper are exemplary and exhaustive. Now, if only Topic would see clear to re-release Folk, Blues & Beyond… and Folk Roots, New Routes (with Shirley Collins) on remastered CDs, then Graham's legacy would be available to be reevaluated by ignorant and pigheaded Americanski critics (Byron Coley and Richie Unterberger excepted). Nonetheless, the release of the classic The Guitar Player in America, some 40 years after its initial issue, is still an occasion for great celebration and is a candidate for reissue of the year.

Review by Thom Jurek, Allmusic.com

Tracklist:

01. Don't Stop The Carnival (01:54)
02. Sermonette (02:45)
03. Take Five (01:55)
04. How Long, How Long Blues (02:25)
05. Sunset Eyes (01:53)
06. Cry Me A River (02:19)
07. The Ruby & The Pearl (02:27)
08. Buffalo (02:17)
09. Exodus (01:57)
10. Yellow Bird (02:19)
11. Blues For Betty (03:27)
12. Hallelujah, I Love Her So (02:00)
13. She Moved Thru' The Bizarre/Blue Raga (Live) (07:43)
14. Misirlou (Live) (03:27)
15. Hey Bud Blues (Live) (06:15)
16. Anji (01:27)
17. Fingerbuster (01:54)
18. La Morena (03:45)
19. Happy Meeting In Glory (02:08)
20. Suite In D Minor (03:56)


Exact Audio Copy V1.0 beta 3 from 29. August 2011

EAC extraction logfile from 4. April 2013, 16:59

Davy Graham / The Guitar Player

Used drive : PLEXTOR DVDR PX-891SA Adapter: 0 ID: 2

Read mode : Secure
Utilize accurate stream : Yes
Defeat audio cache : Yes
Make use of C2 pointers : No

Read offset correction : 6
Overread into Lead-In and Lead-Out : No
Fill up missing offset samples with silence : Yes
Delete leading and trailing silent blocks : No
Null samples used in CRC calculations : Yes
Used interface : Installed external ASPI interface
Gap handling : Appended to previous track

Used output format : User Defined Encoder
Selected bitrate : 320 kBit/s
Quality : High
Add ID3 tag : No
Command line compressor : C:\Program Files\Exact Audio Copy 1.0\Flac\flac.exe
Additional command line options : -V -8 -T "Genre=%genre%" -T "Artist=%artist%" -T "Title=%title%" -T "Album=%albumtitle%" -T "Date=%year%" -T "Tracknumber=%tracknr%" -T "Comment=%comment%" %source%


TOC of the extracted CD

Track | Start | Length | Start sector | End sector
––––––––––––––––––––––––––––-
1 | 0:00.00 | 1:54.07 | 0 | 8556
2 | 1:54.07 | 2:45.60 | 8557 | 20991
3 | 4:39.67 | 1:55.42 | 20992 | 29658
4 | 6:35.34 | 2:25.12 | 29659 | 40545
5 | 9:00.46 | 1:53.15 | 40546 | 49035
6 | 10:53.61 | 2:19.41 | 49036 | 59501
7 | 13:13.27 | 2:27.35 | 59502 | 70561
8 | 15:40.62 | 2:17.06 | 70562 | 80842
9 | 17:57.68 | 1:57.26 | 80843 | 89643
10 | 19:55.19 | 2:19.33 | 89644 | 100101
11 | 22:14.52 | 3:27.57 | 100102 | 115683
12 | 25:42.34 | 2:00.68 | 115684 | 124751
13 | 27:43.27 | 7:43.53 | 124752 | 159529
14 | 35:27.05 | 3:27.74 | 159530 | 175128
15 | 38:55.04 | 6:15.42 | 175129 | 203295
16 | 45:10.46 | 1:27.32 | 203296 | 209852
17 | 46:38.03 | 1:54.07 | 209853 | 218409
18 | 48:32.10 | 3:45.57 | 218410 | 235341
19 | 52:17.67 | 2:08.24 | 235342 | 244965
20 | 54:26.16 | 3:56.08 | 244966 | 262673


Track 1

Filename K:\Lossless Temp\Davy Graham\Davy Graham - The Guitar Player - 1963 (2003 Sanctuary Records, CMRCD 622)\01 - Davy Graham - Don't Stop The Carnival.wav

Pre-gap length 0:00:02.00

Peak level 95.8 %
Extraction speed 4.5 X
Track quality 100.0 %
Test CRC 781E772A
Copy CRC 781E772A
Accurately ripped (confidence 7) [0852A43E] (AR v1)
Copy OK

Track 2

Filename K:\Lossless Temp\Davy Graham\Davy Graham - The Guitar Player - 1963 (2003 Sanctuary Records, CMRCD 622)\02 - Davy Graham - Sermonette.wav

Pre-gap length 0:00:02.35

Peak level 96.4 %
Extraction speed 5.3 X
Track quality 100.0 %
Test CRC C9DD622D
Copy CRC C9DD622D
Accurately ripped (confidence 8) [20689ED3] (AR v1)
Copy OK

Track 3

Filename K:\Lossless Temp\Davy Graham\Davy Graham - The Guitar Player - 1963 (2003 Sanctuary Records, CMRCD 622)\03 - Davy Graham - Take Five.wav

Pre-gap length 0:00:01.36

Peak level 74.5 %
Extraction speed 5.0 X
Track quality 100.0 %
Test CRC CD9B99E6
Copy CRC CD9B99E6
Accurately ripped (confidence 8) [CFACA06B] (AR v1)
Copy OK

Track 4

Filename K:\Lossless Temp\Davy Graham\Davy Graham - The Guitar Player - 1963 (2003 Sanctuary Records, CMRCD 622)\04 - Davy Graham - How Long, How Long Blues.wav

Pre-gap length 0:00:01.28

Peak level 85.2 %
Extraction speed 5.7 X
Track quality 100.0 %
Test CRC C9294BD3
Copy CRC C9294BD3
Accurately ripped (confidence 8) [CCB012AF] (AR v1)
Copy OK

Track 5

Filename K:\Lossless Temp\Davy Graham\Davy Graham - The Guitar Player - 1963 (2003 Sanctuary Records, CMRCD 622)\05 - Davy Graham - Sunset Eyes.wav

Pre-gap length 0:00:02.21

Peak level 96.4 %
Extraction speed 4.2 X
Track quality 99.9 %
Test CRC CD375302
Copy CRC CD375302
Accurately ripped (confidence 8) [0544FC93] (AR v1)
Copy OK

Track 6

Filename K:\Lossless Temp\Davy Graham\Davy Graham - The Guitar Player - 1963 (2003 Sanctuary Records, CMRCD 622)\06 - Davy Graham - Cry Me A River.wav

Pre-gap length 0:00:02.27

Peak level 57.2 %
Extraction speed 6.0 X
Track quality 100.0 %
Test CRC D7A319A0
Copy CRC D7A319A0
Accurately ripped (confidence 8) [2CB76A38] (AR v1)
Copy OK

Track 7

Filename K:\Lossless Temp\Davy Graham\Davy Graham - The Guitar Player - 1963 (2003 Sanctuary Records, CMRCD 622)\07 - Davy Graham - The Ruby & The Pearl.wav

Pre-gap length 0:00:02.57

Peak level 85.1 %
Extraction speed 6.4 X
Track quality 100.0 %
Test CRC D067B701
Copy CRC D067B701
Accurately ripped (confidence 8) [FFFEBDF3] (AR v1)
Copy OK

Track 8

Filename K:\Lossless Temp\Davy Graham\Davy Graham - The Guitar Player - 1963 (2003 Sanctuary Records, CMRCD 622)\08 - Davy Graham - Buffalo.wav

Pre-gap length 0:00:02.21

Peak level 88.2 %
Extraction speed 5.0 X
Track quality 99.9 %
Test CRC CE3408E4
Copy CRC CE3408E4
Accurately ripped (confidence 8) [1E346005] (AR v1)
Copy OK

Track 9

Filename K:\Lossless Temp\Davy Graham\Davy Graham - The Guitar Player - 1963 (2003 Sanctuary Records, CMRCD 622)\09 - Davy Graham - Exodus.wav

Pre-gap length 0:00:01.14

Peak level 95.9 %
Extraction speed 6.5 X
Track quality 100.0 %
Test CRC 36CAF3E5
Copy CRC 36CAF3E5
Accurately ripped (confidence 8) [92C8A55A] (AR v1)
Copy OK

Track 10

Filename K:\Lossless Temp\Davy Graham\Davy Graham - The Guitar Player - 1963 (2003 Sanctuary Records, CMRCD 622)\10 - Davy Graham - Yellow Bird.wav

Pre-gap length 0:00:01.64

Peak level 79.4 %
Extraction speed 5.5 X
Track quality 99.9 %
Test CRC 1EE40924
Copy CRC 1EE40924
Accurately ripped (confidence 8) [F83E7A61] (AR v1)
Copy OK

Track 11

Filename K:\Lossless Temp\Davy Graham\Davy Graham - The Guitar Player - 1963 (2003 Sanctuary Records, CMRCD 622)\11 - Davy Graham - Blues For Betty.wav

Pre-gap length 0:00:01.37

Peak level 95.7 %
Extraction speed 7.7 X
Track quality 100.0 %
Test CRC 2A953F58
Copy CRC 2A953F58
Accurately ripped (confidence 8) [F1E2A91E] (AR v1)
Copy OK

Track 12

Filename K:\Lossless Temp\Davy Graham\Davy Graham - The Guitar Player - 1963 (2003 Sanctuary Records, CMRCD 622)\12 - Davy Graham - Hallelujah, I Love Her So.wav

Pre-gap length 0:00:01.28

Peak level 96.1 %
Extraction speed 7.3 X
Track quality 100.0 %
Test CRC 5B9F66CC
Copy CRC 5B9F66CC
Accurately ripped (confidence 8) [E9BFFED6] (AR v1)
Copy OK

Track 13

Filename K:\Lossless Temp\Davy Graham\Davy Graham - The Guitar Player - 1963 (2003 Sanctuary Records, CMRCD 622)\13 - Davy Graham - She Moved Thru' The Bizarre,Blue Raga (Live).wav

Pre-gap length 0:00:03.57

Peak level 86.1 %
Extraction speed 9.2 X
Track quality 100.0 %
Test CRC 9FDDB3DF
Copy CRC 9FDDB3DF
Accurately ripped (confidence 8) [A63CB60D] (AR v1)
Copy OK

Track 14

Filename K:\Lossless Temp\Davy Graham\Davy Graham - The Guitar Player - 1963 (2003 Sanctuary Records, CMRCD 622)\14 - Davy Graham - Misirlou (Live).wav

Pre-gap length 0:00:01.57

Peak level 83.4 %
Extraction speed 9.0 X
Track quality 100.0 %
Test CRC C0F6BCC0
Copy CRC C0F6BCC0
Accurately ripped (confidence 8) [D9FB0BF5] (AR v1)
Copy OK

Track 15

Filename K:\Lossless Temp\Davy Graham\Davy Graham - The Guitar Player - 1963 (2003 Sanctuary Records, CMRCD 622)\15 - Davy Graham - Hey Bud Blues (Live).wav

Pre-gap length 0:00:01.57

Peak level 86.1 %
Extraction speed 10.0 X
Track quality 100.0 %
Test CRC EB743D27
Copy CRC EB743D27
Accurately ripped (confidence 8) [5B822C80] (AR v1)
Copy OK

Track 16

Filename K:\Lossless Temp\Davy Graham\Davy Graham - The Guitar Player - 1963 (2003 Sanctuary Records, CMRCD 622)\16 - Davy Graham - Anji.wav

Pre-gap length 0:00:05.62

Peak level 87.8 %
Extraction speed 7.9 X
Track quality 100.0 %
Test CRC 9E541E81
Copy CRC 9E541E81
Accurately ripped (confidence 8) [51B213CC] (AR v1)
Copy OK

Track 17

Filename K:\Lossless Temp\Davy Graham\Davy Graham - The Guitar Player - 1963 (2003 Sanctuary Records, CMRCD 622)\17 - Davy Graham - Fingerbuster.wav

Pre-gap length 0:00:03.56

Peak level 85.7 %
Extraction speed 8.6 X
Track quality 100.0 %
Test CRC F5CB9F45
Copy CRC F5CB9F45
Accurately ripped (confidence 7) [31E969AE] (AR v1)
Copy OK

Track 18

Filename K:\Lossless Temp\Davy Graham\Davy Graham - The Guitar Player - 1963 (2003 Sanctuary Records, CMRCD 622)\18 - Davy Graham - La Morena.wav

Pre-gap length 0:00:03.57

Peak level 96.6 %
Extraction speed 8.3 X
Track quality 99.9 %
Test CRC FB00EF63
Copy CRC FB00EF63
Accurately ripped (confidence 8) [D52D9B21] (AR v1)
Copy OK

Track 19

Filename K:\Lossless Temp\Davy Graham\Davy Graham - The Guitar Player - 1963 (2003 Sanctuary Records, CMRCD 622)\19 - Davy Graham - Happy Meeting In Glory.wav

Pre-gap length 0:00:03.57

Peak level 96.6 %
Extraction speed 9.1 X
Track quality 100.0 %
Test CRC 2BF03518
Copy CRC 2BF03518
Accurately ripped (confidence 8) [FC11E689] (AR v1)
Copy OK

Track 20

Filename K:\Lossless Temp\Davy Graham\Davy Graham - The Guitar Player - 1963 (2003 Sanctuary Records, CMRCD 622)\20 - Davy Graham - Suite In D Minor.wav

Pre-gap length 0:00:03.57

Peak level 96.6 %
Extraction speed 10.4 X
Track quality 100.0 %
Test CRC 84706B2F
Copy CRC 84706B2F
Accurately ripped (confidence 7) [3A5FBCF8] (AR v1)
Copy OK


All tracks accurately ripped

No errors occurred

End of status report

==== Log checksum 424669FAD761F55B01C031AD392ED6EBEF760DE677CBC78DE8B8F8C8C76F44FF ====

foobar2000 1.2 / Dynamic Range Meter 1.1.1
log date: 2015-03-23 14:35:04

––––––––––––––––––––––––––––––––––––––––
Analyzed: Davy Graham / The Guitar Player
––––––––––––––––––––––––––––––––––––––––

DR Peak RMS Duration Track
––––––––––––––––––––––––––––––––––––––––
DR11 -0.37 dB -13.36 dB 1:54 01-Don't Stop The Carnival
DR16 -0.32 dB -16.38 dB 2:46 02-Sermonette
DR17 -2.55 dB -18.76 dB 1:56 03-Take Five
DR17 -1.39 dB -19.34 dB 2:25 04-How Long, How Long Blues
DR12 -0.32 dB -14.21 dB 1:53 05-Sunset Eyes
DR15 -4.84 dB -22.57 dB 2:20 06-Cry Me A River
DR17 -1.40 dB -16.89 dB 2:27 07-The Ruby & The Pearl
DR15 -1.09 dB -18.22 dB 2:17 08-Buffalo
DR13 -0.36 dB -16.30 dB 1:57 09-Exodus
DR13 -2.00 dB -17.92 dB 2:19 10-Yellow Bird
DR17 -0.38 dB -19.47 dB 3:28 11-Blues For Betty
DR14 -0.34 dB -16.31 dB 2:01 12-Hallelujah, I Love Her So
DR12 -1.30 dB -15.10 dB 7:44 13-She Moved Thru' The Bizarre/Blue Raga (Live)
DR10 -1.57 dB -15.43 dB 3:28 14-Misirlou (Live)
DR12 -1.30 dB -15.49 dB 6:16 15-Hey Bud Blues (Live)
DR14 -1.12 dB -16.56 dB 1:27 16-Anji
DR12 -1.34 dB -15.53 dB 1:54 17-Fingerbuster
DR11 -0.30 dB -16.63 dB 3:46 18-La Morena
DR11 -0.30 dB -13.29 dB 2:08 19-Happy Meeting In Glory
DR11 -0.30 dB -14.04 dB 3:56 20-Suite In D Minor
––––––––––––––––––––––––––––––––––––––––

Number of tracks: 20
Official DR value: DR13

Samplerate: 44100 Hz
Channels: 2
Bits per sample: 16
Bitrate: 474 kbps
Codec: FLAC
================================================================================

Davy Graham - Albums Collection 1963-1970 (6CD)

Davy Graham - Albums Collection 1963-1970 (6CD)




Davy Graham - Albums Collection 1963-1970 (6CD)

Davy Graham - Folk, Blues & Beyond… (1965) Expanded Reissue 2005
EAC | FLAC | Image (Cue&Log) ~ 337 Mb | Mp3 (CBR320) ~ 140 Mb | Scans ~ 195 Mb
Label: Fledg'ling Records | # FLED 3050 | Time: 01:00:40

Folk, Blues and Beyond is the second studio album by British musician Davey Graham, originally released in 1965. It has been considered Graham's most groundbreaking and consistent work and a defining record of the 20th century. It has also been a primary influence on some of the most popular musicians in Britain ranging from Bert Jansch to Jimmy Page and Eric Clapton.

Folk, Blues & Beyond… was Davy Graham's most groundbreaking and consistent album. More than his solo debut The Guitar Player (which was pretty jazzy) or his previous collaboration with folksinger Shirley Collins, Folk Roots, New Routes, this established his mixture of folk, jazz, blues, and Middle Eastern music, while the use of a bassist and drummer are also hinting at (though not quite reaching) folk-rock. "Leavin' Blues," "Skillet (Good 'N' Greasy)," and "Moanin'" are all among his very best folk-blues-rock performances, while on "Maajun" he goes full-bore into Middle Eastern music on one of his most haunting and memorable pieces. Covers of traditional folk standards like "Black Is the Colour of My True Love's Hair" and "Seven Gypsies" combine with interpretations of compositions by Bob Dylan ("Don't Think Twice, It's Alright"), Willie Dixon ("My Babe"), Charles Mingus ("Better Git in Your Soul"), and Reverend Gary Davis ("Cocaine") for an eclecticism of repertoire that wasn't matched by many musicians of any sort in the mid-'60s.

If there is one aspect of the recording to criticize, it is, as was usually the case with Graham, the thin, colorless vocals. The guitar playing is the main attraction, though; it's so stellar that it makes the less impressive singing easy to overlook. Ten of the 16 songs were included on the compilation Folk, Blues & All Points in Between, but Graham fans should get this anyway, as the level of material and musicianship is pretty high throughout most of the disc. In 2005, A Wing And A Prayer Ltd. reissued Folk, Blues & Beyond on its Fledg'ling label and took it beyond the album's original boundaries: the 16-track LP became a 21-track CD with the addition of a live rendition of "She Moved Through the Fair" (Graham's re-composition of a 17th century folksong, which was ripped off by the Yardbirds as "White Summer" and "adapted" [in tandem with a Bert Jansch piece called "Blackwaterside"] by Led Zeppelin into "Black Mountain Side") and "Mustapha," from a Decca release called From a London Hootenanny; and a trio of songs from a Topic Records' EP entitled 3/4 A.D. The latter includes Graham's own version of "Anji," an instrumental that subsequently entered millions of homes by way of a cover by Paul Simon on the Sounds of Silence album, as well as a pair of much bluesier (and totally spellbinding) pieces. The sound is excellent, and beyond what this brings out in the nuances of the playing, even Graham's vocals (ostensibly the album's slightly weak link) on some of the blues numbers like St. Louis Jimmy Oden's "Goin' Down Slow," come off pretty well here, or at any rate as well as any white guy competing with the likes of Champion Jack Dupree and Howlin' Wolf is ever going to come off. And the annotation tells the outlines of Graham's story about as well as any release yet devoted to the work of this enigmatic and immensely important musician.

Review by Richie Unterberger, Allmusic.com

Tracklist:

01. Leavin' Blues (2:53)
02. Cocaine (2:24)
03. Sally Free And Easy (3:50)
04. Black Is The Colour Of My Trye Love's Hair (2:22)
05. Rock Me Baby (2:46)
06. Seven Gypsies (2:39)
07. Ballad Of The Sad Young Men (3:10)
08. Play-out piece: Moanin' (2:29)
09. Skillet (Good 'n Greasy) (2:26)
10. Ain't Nobody's Business What I Do (2:19)
11. Guitar solo: Maajan (A Taste Of Tangier) (2:41)
12. I Can't Keep From Crying Sometimes (3:35)
13. Don't Think Twice It's All Right (2:53)
14. My Babe (2:44)
15. Goin' Down Slow (2:29)
16. Play-out piece: Better Git In Your Soul (2:32)

Reissue bonus tracks:
17. She Moved Through The Fair (3:13)
18. Mustapha (3:07)
19. Angi (2:27)
20. Davy's Train Blues (3:01)
21. 3/4 A.D. (4:40)


Exact Audio Copy V1.0 beta 6 from 9. April 2015

EAC extraction logfile from 1. May 2018, 14:41

Davy Graham / Folk, Blues & Beyond…

Used drive : PLEXTOR DVDR PX-891SA Adapter: 0 ID: 2

Read mode : Secure
Utilize accurate stream : Yes
Defeat audio cache : Yes
Make use of C2 pointers : No

Read offset correction : 6
Overread into Lead-In and Lead-Out : No
Fill up missing offset samples with silence : Yes
Delete leading and trailing silent blocks : No
Null samples used in CRC calculations : Yes
Used interface : Installed external ASPI interface

Used output format : User Defined Encoder
Selected bitrate : 320 kBit/s
Quality : High
Add ID3 tag : No
Command line compressor : C:\Program Files\Exact Audio Copy 1.b6\Exact Audio Copy\Flac\flac.exe
Additional command line options : -V -8 -T "Genre=%genre%" -T "Artist=%artist%" -T "Title=%title%" -T "Album=%albumtitle%" -T "Date=%year%" -T "Tracknumber=%tracknr%" -T "Comment=%comment%" %source%


TOC of the extracted CD

Track | Start | Length | Start sector | End sector
––––––––––––––––––––––––––––-
1 | 0:00.00 | 2:52.57 | 0 | 12956
2 | 2:52.57 | 2:24.34 | 12957 | 23790
3 | 5:17.16 | 3:50.00 | 23791 | 41040
4 | 9:07.16 | 2:22.20 | 41041 | 51710
5 | 11:29.36 | 2:46.25 | 51711 | 64185
6 | 14:15.61 | 2:38.55 | 64186 | 76090
7 | 16:54.41 | 3:09.60 | 76091 | 90325
8 | 20:04.26 | 2:28.55 | 90326 | 101480
9 | 22:33.06 | 2:25.74 | 101481 | 112429
10 | 24:59.05 | 2:18.70 | 112430 | 122849
11 | 27:18.00 | 2:40.54 | 122850 | 134903
12 | 29:58.54 | 3:35.11 | 134904 | 151039
13 | 33:33.65 | 2:53.04 | 151040 | 164018
14 | 36:26.69 | 2:44.29 | 164019 | 176347
15 | 39:11.23 | 2:29.05 | 176348 | 187527
16 | 41:40.28 | 2:32.05 | 187528 | 198932
17 | 44:12.33 | 3:13.27 | 198933 | 213434
18 | 47:25.60 | 3:06.63 | 213435 | 227447
19 | 50:32.48 | 2:26.67 | 227448 | 238464
20 | 52:59.40 | 3:00.63 | 238465 | 252027
21 | 56:00.28 | 4:39.47 | 252028 | 272999


Range status and errors

Selected range

Filename L:\Audio\SWF\CD\Davy Graham\1965. Davy Graham - Folk, Blues & Beyond (2005 Fledg'ling Records FLED 3050, UK)\Davy Graham - Folk, Blues & Beyond….wav

Peak level 98.9 %
Extraction speed 8.1 X
Range quality 100.0 %
Test CRC 72392E40
Copy CRC 72392E40
Copy OK

No errors occurred


AccurateRip summary

Track 1 accurately ripped (confidence 3) [2AF25F3F] (AR v2)
Track 2 accurately ripped (confidence 3) [7E3A5FF0] (AR v2)
Track 3 accurately ripped (confidence 3) [8C7963DB] (AR v2)
Track 4 accurately ripped (confidence 3) [08A70067] (AR v2)
Track 5 accurately ripped (confidence 3) [9DC9E0BA] (AR v2)
Track 6 accurately ripped (confidence 3) [2D11661D] (AR v2)
Track 7 accurately ripped (confidence 3) [F254B091] (AR v2)
Track 8 accurately ripped (confidence 3) [535CF2A2] (AR v2)
Track 9 accurately ripped (confidence 3) [FC1775C6] (AR v2)
Track 10 accurately ripped (confidence 3) [1D59DCF9] (AR v2)
Track 11 accurately ripped (confidence 3) [7BDBF5B0] (AR v2)
Track 12 accurately ripped (confidence 3) [9F0F78CE] (AR v2)
Track 13 accurately ripped (confidence 3) [FE015D4D] (AR v2)
Track 14 accurately ripped (confidence 3) [8C6A0A49] (AR v2)
Track 15 accurately ripped (confidence 3) [D1930685] (AR v2)
Track 16 accurately ripped (confidence 3) [4C1A3FCA] (AR v2)
Track 17 accurately ripped (confidence 3) [8006113A] (AR v2)
Track 18 accurately ripped (confidence 3) [C32DFEE1] (AR v2)
Track 19 accurately ripped (confidence 3) [27F866B2] (AR v2)
Track 20 accurately ripped (confidence 3) [C5523726] (AR v2)
Track 21 accurately ripped (confidence 3) [FB16BA3E] (AR v2)

All tracks accurately ripped

End of status report

–– CUETools DB Plugin V2.1.6

[CTDB TOCID: oTKf8Wt6npf1550IZmIIWrw6Aok-] found
Submit result: oTKf8Wt6npf1550IZmIIWrw6Aok- has been confirmed
Track | CTDB Status
1 | (26/26) Accurately ripped
2 | (26/26) Accurately ripped
3 | (26/26) Accurately ripped
4 | (26/26) Accurately ripped
5 | (26/26) Accurately ripped
6 | (26/26) Accurately ripped
7 | (26/26) Accurately ripped
8 | (26/26) Accurately ripped
9 | (26/26) Accurately ripped
10 | (26/26) Accurately ripped
11 | (26/26) Accurately ripped
12 | (26/26) Accurately ripped
13 | (26/26) Accurately ripped
14 | (26/26) Accurately ripped
15 | (26/26) Accurately ripped
16 | (26/26) Accurately ripped
17 | (26/26) Accurately ripped
18 | (26/26) Accurately ripped
19 | (26/26) Accurately ripped
20 | (26/26) Accurately ripped
21 | (24/26) Accurately ripped


==== Log checksum 2B99B9033319D10280CAAC343176C1D6D902FC8A9F271E80314D3DF1F3CFB90C ====

foobar2000 1.2 / Dynamic Range Meter 1.1.1
log date: 2019-03-26 15:09:03

––––––––––––––––––––––––––––––––––––––––
Analyzed: Davy Graham / Folk, Blues & Beyond…
––––––––––––––––––––––––––––––––––––––––

DR Peak RMS Duration Track
––––––––––––––––––––––––––––––––––––––––
DR8 -0.10 dB -11.10 dB 2:53 01-Leavin' Blues
DR8 -0.10 dB -9.61 dB 2:24 02-Cocaine
DR8 -0.10 dB -10.21 dB 3:50 03-Sally Free And Easy
DR9 -0.10 dB -13.04 dB 2:22 04-Black Is The Colour Of My Trye Love's Hair
DR8 -0.10 dB -10.15 dB 2:46 05-Rock Me Baby
DR9 -0.10 dB -10.84 dB 2:39 06-Seven Gypsies
DR10 -0.10 dB -12.04 dB 3:10 07-Ballad Of The Sad Young Men
DR9 -0.10 dB -9.91 dB 2:29 08-Play-out piece: Moanin'
DR10 -0.10 dB -11.87 dB 2:26 09-Skillet (Good 'n Greasy)
DR9 -0.10 dB -10.57 dB 2:19 10-Ain't Nobody's Business What I Do
DR9 -0.10 dB -10.46 dB 2:41 11-Guitar solo: Maajan (A Taste Of Tangier)
DR10 -0.10 dB -10.94 dB 3:35 12-I Can't Keep From Crying Sometimes
DR10 -0.10 dB -10.35 dB 2:53 13-Don't Think Twice It's All Right
DR9 -0.10 dB -9.75 dB 2:44 14-My Babe
DR8 -0.10 dB -9.51 dB 2:29 15-Goin' Down Slow
DR8 -0.10 dB -9.70 dB 2:32 16-Play-out piece: Better Git In Your Soul
DR9 -0.10 dB -11.39 dB 3:13 17-She Moved Through The Fair
DR7 -0.10 dB -9.12 dB 3:07 18-Mustapha
DR9 -0.10 dB -10.95 dB 2:27 19-Angi
DR8 -0.10 dB -10.79 dB 3:01 20-Davy's Train Blues
DR8 -0.10 dB -9.83 dB 4:40 21-3/4 A.D.
––––––––––––––––––––––––––––––––––––––––

Number of tracks: 21
Official DR value: DR9

Samplerate: 44100 Hz
Channels: 2
Bits per sample: 16
Bitrate: 865 kbps
Codec: FLAC
================================================================================

Davy Graham - Albums Collection 1963-1970 (6CD)

Davy Graham - Albums Collection 1963-1970 (6CD)




Davy Graham - Albums Collection 1963-1970 (6CD)

Davy Graham - Midnight Man (1966) Remastered Reissue 2005
EAC | FLAC | Image (Cue&Log) ~ 170 Mb | Mp3 (CBR320) ~ 86 Mb | Scans ~ 212 Mb
Label: Fledg'ling Records | # FLED 3053 | Time: 00:37:32

First released in 1966, Midnight Man has a slightly more rhythm'n'blues focus than his other Decca albums - as Mr. Graham plays homage to some of his musical heroes. Beautiful playing as always, and a repertoire drawn from the songs of Lalo Schifrin, Herbie Hancock, Lonnie John, Oscar Brown Jr., Blind Willie Johnson and Lennon / McCartney. For this carefully remastered edition Fledg'ling have restored all the elements of the original artwork and added several previously unpublished photographs.

Graham went into a somewhat harder-rocking bluesy groove on this record, though a strong jazz feel was always present in the rhythm especially. More than any other Graham LP, this offers proof that the guitarist would have established himself as a major star on the folk circuit in the '60s – if only his singing was better. As a guitarist, he's simply wonderful, combining folk, jazz, and blues styles into an invigorating, idiosyncratic style that can both swing and attain a delicate sadness. As an interpreter, he's relentlessly imaginative, breathing new vigor into overdone R&B standards, or devising fresh folk arrangements for Beatles and Paul Simon tunes. But as a vocalist, he's adequate at best; if he had even possessed the modest expressiveness of a Bert Jansch, the material would be that much more striking. Almost none of these tracks are available on Graham compilations, and this rare LP is definitely worth seeking by those who are familiar with some of his other '60s work. Especially excellent are the jazzy "Hummingbird" and the instrumental cover of Lalo Schifrin's "The Fakir," which blends the rhythmic drive of Charles Mingus with hypnotic raga-esque riffs.

Review by Richie Unterberger, Allmusic.com

Tracklist:

01. No Preacher Blues (02:16)
02. The Fakir (04:13)
03. I'm Looking Thru' You (02:04)
04. Hummingbird (02:40)
05. Watermelon Man (03:00)
06. Stormy Monday (03:39)
07. Money Honey (02:26)
08. Walkin' The Dog (02:39)
09. Fire In My Soul (01:53)
10. Lost Lover Blues (02:06)
11. Neighbour, Neighbour (02:35)
12. Jubilation (01:47)
13. Rags And Old Iron (03:22)
14. Jelly Roll Baker (02:45)


Exact Audio Copy V1.0 beta 6 from 9. April 2015

EAC extraction logfile from 1. May 2018, 14:18

Davy Graham / Midnight Man

Used drive : PLEXTOR DVDR PX-891SA Adapter: 0 ID: 2

Read mode : Secure
Utilize accurate stream : Yes
Defeat audio cache : Yes
Make use of C2 pointers : No

Read offset correction : 6
Overread into Lead-In and Lead-Out : No
Fill up missing offset samples with silence : Yes
Delete leading and trailing silent blocks : No
Null samples used in CRC calculations : Yes
Used interface : Installed external ASPI interface

Used output format : User Defined Encoder
Selected bitrate : 320 kBit/s
Quality : High
Add ID3 tag : No
Command line compressor : C:\Program Files\Exact Audio Copy 1.b6\Exact Audio Copy\Flac\flac.exe
Additional command line options : -V -8 -T "Genre=%genre%" -T "Artist=%artist%" -T "Title=%title%" -T "Album=%albumtitle%" -T "Date=%year%" -T "Tracknumber=%tracknr%" -T "Comment=%comment%" %source%


TOC of the extracted CD

Track | Start | Length | Start sector | End sector
––––––––––––––––––––––––––––-
1 | 0:00.00 | 2:16.72 | 0 | 10271
2 | 2:16.72 | 4:13.07 | 10272 | 29253
3 | 6:30.04 | 2:04.68 | 29254 | 38621
4 | 8:34.72 | 2:40.17 | 38622 | 50638
5 | 11:15.14 | 3:00.10 | 50639 | 64148
6 | 14:15.24 | 3:39.71 | 64149 | 80644
7 | 17:55.20 | 2:26.45 | 80645 | 91639
8 | 20:21.65 | 2:39.42 | 91640 | 103606
9 | 23:01.32 | 1:53.37 | 103607 | 112118
10 | 24:54.69 | 2:06.02 | 112119 | 121570
11 | 27:00.71 | 2:35.57 | 121571 | 133252
12 | 29:36.53 | 1:47.42 | 133253 | 141319
13 | 31:24.20 | 3:22.40 | 141320 | 156509
14 | 34:46.60 | 2:45.15 | 156510 | 168899


Range status and errors

Selected range

Filename L:\Audio\SWF\CD\Davy Graham\1966. Davy Graham - Midnight Man (2005 Fledg'ling Records, FLED 3053, UK)\Davy Graham - Midnight Man.wav

Peak level 98.9 %
Extraction speed 7.5 X
Range quality 100.0 %
Test CRC 5A61F8AC
Copy CRC 5A61F8AC
Copy OK

No errors occurred


AccurateRip summary

Track 1 accurately ripped (confidence 6) [C798D2EE] (AR v2)
Track 2 accurately ripped (confidence 6) [D067D88B] (AR v2)
Track 3 accurately ripped (confidence 6) [E1B1C9F8] (AR v2)
Track 4 accurately ripped (confidence 6) [0F1CEB71] (AR v2)
Track 5 accurately ripped (confidence 6) [FEA55E4E] (AR v2)
Track 6 accurately ripped (confidence 6) [14D52E96] (AR v2)
Track 7 accurately ripped (confidence 6) [9DF6DE25] (AR v2)
Track 8 accurately ripped (confidence 6) [3CA58B53] (AR v2)
Track 9 accurately ripped (confidence 6) [E21209F8] (AR v2)
Track 10 accurately ripped (confidence 6) [D81FD4B5] (AR v2)
Track 11 accurately ripped (confidence 6) [A4AF545C] (AR v2)
Track 12 accurately ripped (confidence 6) [A822E864] (AR v2)
Track 13 accurately ripped (confidence 6) [6BA4502A] (AR v2)
Track 14 accurately ripped (confidence 6) [C3EBB9E2] (AR v2)

All tracks accurately ripped

End of status report

–– CUETools DB Plugin V2.1.6

[CTDB TOCID: Y4kxAK..ZfHovNcFoFJFGkMYFrY-] found
Submit result: Y4kxAK..ZfHovNcFoFJFGkMYFrY- has been confirmed
Track | CTDB Status
1 | (4/4) Accurately ripped
2 | (3/4) Accurately ripped
3 | (4/4) Accurately ripped
4 | (4/4) Accurately ripped
5 | (4/4) Accurately ripped
6 | (4/4) Accurately ripped
7 | (4/4) Accurately ripped
8 | (4/4) Accurately ripped
9 | (4/4) Accurately ripped
10 | (4/4) Accurately ripped
11 | (3/4) Accurately ripped
12 | (4/4) Accurately ripped
13 | (3/4) Accurately ripped
14 | (3/4) Accurately ripped


==== Log checksum B1027DDBFE5CD8AA5610BF812E8E5276624F68B0E96D65C99C8DD61EBD653E9F ====

foobar2000 1.2 / Dynamic Range Meter 1.1.1
log date: 2019-04-13 19:17:22

––––––––––––––––––––––––––––––––––––––––
Analyzed: Davy Graham / Midnight Man
––––––––––––––––––––––––––––––––––––––––

DR Peak RMS Duration Track
––––––––––––––––––––––––––––––––––––––––
DR8 -0.10 dB -8.77 dB 2:17 01-No Preacher Blues
DR8 -0.10 dB -10.12 dB 4:13 02-The Fakir
DR7 -0.10 dB -7.70 dB 2:05 03-I'm Looking Thru' You
DR8 -0.10 dB -8.85 dB 2:40 04-Hummingbird
DR9 -0.10 dB -10.36 dB 3:00 05-Watermelon Man
DR10 -0.10 dB -11.27 dB 3:40 06-Stormy Monday
DR9 -0.10 dB -10.10 dB 2:27 07-Money Honey
DR9 -0.10 dB -10.39 dB 2:40 08-Walkin' The Dog
DR8 -0.10 dB -8.92 dB 1:53 09-Fire In My Soul
DR8 -0.10 dB -8.97 dB 2:06 10-Lost Lover Blues
DR7 -0.10 dB -8.82 dB 2:36 11-Neighbour, Neighbour
DR9 -0.10 dB -9.81 dB 1:48 12-Jubilation
DR9 -0.10 dB -9.97 dB 3:23 13-Rags And Old Iron
DR8 -0.10 dB -10.00 dB 2:45 14-Jelly Roll Baker
––––––––––––––––––––––––––––––––––––––––

Number of tracks: 14
Official DR value: DR8

Samplerate: 44100 Hz
Channels: 2
Bits per sample: 16
Bitrate: 633 kbps
Codec: FLAC
================================================================================

Davy Graham - Albums Collection 1963-1970 (6CD)

Davy Graham - Albums Collection 1963-1970 (6CD)




Davy Graham - Albums Collection 1963-1970 (6CD)

Davy Graham - Large As Life And Twice As Natural (1968) Reissue 2005
EAC | FLAC | Image (Cue&Log) ~ 326 Mb | Mp3 (CBR320) ~ 111 Mb | Scans ~ 238 Mb
Label: Fledg'ling Records | # FLED 3054 | Time: 00:48:49

With the exception of 1964's Folk, Blues & Beyond, this is Graham's finest non-compilation album. It's also his most fully arranged and rock-influenced effort, with backing by a meaty ensemble featuring Danny Thompson (of Pentangle) on bass and British blues stalwarts Jon Hiseman and Dick Heckstall-Smith (Graham Bond, Colosseum) on drums and sax respectively. Even Graham's singing sounds better than usual. Graham offers some decent blues, but more interesting are his frequent excursions into raga folk-rock of sorts, especially on "Blue Raga" (learned from Ravi Shankar and Ali Akbar Khan). The raga-jazz interpretation of Joni Mitchell's "Both Sides Now," which moves from meditative opening drones into a freewheeling explosion of modal folk-rock is one of the highlights of Graham's career on record and one of the best expressions of his ability to make a standard his own.

Review by Richie Unterberger, Allmusic.com

Tracklist:

01. Both Sides Now (06:02)
02. Bad Boy Blues (02:17)
03. Tristano (04:00)
04. Babe,It Ain`t No Lie (02:27)
05. Bruton Town (03:59)
06. Sunshine Raga (06:19)
07. Freight Train Blues (04:04)
08. Jenra (03:10)
09. Electric Chair (02:45)
10. Good Morning Blues (05:23)
11. Beautiful City (02:28)
12. Blue Raga (05:48)


Exact Audio Copy V1.0 beta 6 from 9. April 2015

EAC extraction logfile from 1. May 2018, 16:12

Davy Graham / Large as life and twice as natural

Used drive : PLEXTOR DVDR PX-891SA Adapter: 0 ID: 2

Read mode : Secure
Utilize accurate stream : Yes
Defeat audio cache : Yes
Make use of C2 pointers : No

Read offset correction : 6
Overread into Lead-In and Lead-Out : No
Fill up missing offset samples with silence : Yes
Delete leading and trailing silent blocks : No
Null samples used in CRC calculations : Yes
Used interface : Installed external ASPI interface

Used output format : User Defined Encoder
Selected bitrate : 320 kBit/s
Quality : High
Add ID3 tag : No
Command line compressor : C:\Program Files\Exact Audio Copy 1.b6\Exact Audio Copy\Flac\flac.exe
Additional command line options : -V -8 -T "Genre=%genre%" -T "Artist=%artist%" -T "Title=%title%" -T "Album=%albumtitle%" -T "Date=%year%" -T "Tracknumber=%tracknr%" -T "Comment=%comment%" %source%


TOC of the extracted CD

Track | Start | Length | Start sector | End sector
––––––––––––––––––––––––––––-
1 | 0:00.00 | 6:02.46 | 0 | 27195
2 | 6:02.46 | 2:17.00 | 27196 | 37470
3 | 8:19.46 | 4:00.29 | 37471 | 55499
4 | 12:20.00 | 2:27.62 | 55500 | 66586
5 | 14:47.62 | 3:59.21 | 66587 | 84532
6 | 18:47.08 | 6:19.71 | 84533 | 113028
7 | 25:07.04 | 4:04.56 | 113029 | 131384
8 | 29:11.60 | 3:10.59 | 131385 | 145693
9 | 32:22.44 | 2:45.12 | 145694 | 158080
10 | 35:07.56 | 5:23.69 | 158081 | 182374
11 | 40:31.50 | 2:28.49 | 182375 | 193523
12 | 43:00.24 | 5:48.51 | 193524 | 219674


Range status and errors

Selected range

Filename L:\Audio\SWF\CD\Davy Graham\1968. Davy Graham - Large As Life And Twice As Natural (2005 Fledg'ling Records, FLED 3054, UK)\Davy Graham - Large as life and twice as natural.wav

Peak level 98.9 %
Extraction speed 7.9 X
Range quality 100.0 %
Test CRC 7CDFF00A
Copy CRC 7CDFF00A
Copy OK

No errors occurred


AccurateRip summary

Track 1 accurately ripped (confidence 4) [7ED06621] (AR v2)
Track 2 accurately ripped (confidence 4) [56E0C25D] (AR v2)
Track 3 accurately ripped (confidence 4) [88742172] (AR v2)
Track 4 accurately ripped (confidence 4) [A9C4D0D0] (AR v2)
Track 5 accurately ripped (confidence 4) [96FA522E] (AR v2)
Track 6 accurately ripped (confidence 4) [96A6941E] (AR v2)
Track 7 accurately ripped (confidence 4) [AADD2CE0] (AR v2)
Track 8 accurately ripped (confidence 4) [B57E3378] (AR v2)
Track 9 accurately ripped (confidence 4) [F9D52D31] (AR v2)
Track 10 accurately ripped (confidence 4) [7FABCFFA] (AR v2)
Track 11 accurately ripped (confidence 4) [F938F38A] (AR v2)
Track 12 accurately ripped (confidence 4) [90AA3B73] (AR v2)

All tracks accurately ripped

End of status report

–– CUETools DB Plugin V2.1.6

[CTDB TOCID: faJ6uoej1WA3J0ySk9leunwimxo-] found
Submit result: faJ6uoej1WA3J0ySk9leunwimxo- has been confirmed
Track | CTDB Status
1 | (5/5) Accurately ripped
2 | (5/5) Accurately ripped
3 | (5/5) Accurately ripped
4 | (5/5) Accurately ripped
5 | (5/5) Accurately ripped
6 | (5/5) Accurately ripped
7 | (5/5) Accurately ripped
8 | (5/5) Accurately ripped
9 | (5/5) Accurately ripped
10 | (5/5) Accurately ripped
11 | (5/5) Accurately ripped
12 | (5/5) Accurately ripped


==== Log checksum D3BDAC78574C3CDECBD57F0C68BA5C42189B306CB87FFAA32FA3BE9D4AAEAC5C ====

foobar2000 1.2 / Dynamic Range Meter 1.1.1
log date: 2019-03-27 23:18:31

––––––––––––––––––––––––––––––––––––––––
Analyzed: Davy Graham / Large as life and twice as natural
––––––––––––––––––––––––––––––––––––––––

DR Peak RMS Duration Track
––––––––––––––––––––––––––––––––––––––––
DR9 -0.10 dB -11.16 dB 6:03 01-Both Sides Now
DR9 -0.10 dB -10.83 dB 2:17 02-Bad Boy Blues
DR13 -0.10 dB -16.60 dB 4:00 03-Tristano
DR8 -0.10 dB -10.89 dB 2:28 04-Babe,It Ain`t No Lie
DR9 -0.10 dB -11.13 dB 3:59 05-Bruton Town
DR10 -0.10 dB -11.69 dB 6:20 06-Sunshine Raga
DR7 -0.10 dB -8.50 dB 4:05 07-Freight Train Blues
DR11 -0.10 dB -12.20 dB 3:11 08-Jenra
DR8 -0.10 dB -9.35 dB 2:45 09-Electric Chair
DR8 -0.10 dB -9.94 dB 5:24 10-Good Morning Blues
DR8 -0.10 dB -10.12 dB 2:29 11-Beautiful City
DR10 -0.10 dB -11.54 dB 5:49 12-Blue Raga
––––––––––––––––––––––––––––––––––––––––

Number of tracks: 12
Official DR value: DR9

Samplerate: 44100 Hz
Channels: 2
Bits per sample: 16
Bitrate: 935 kbps
Codec: FLAC
================================================================================

Davy Graham - Albums Collection 1963-1970 (6CD)

Davy Graham - Albums Collection 1963-1970 (6CD)




Davy Graham - Albums Collection 1963-1970 (6CD)

Davy Graham - Hat (1969) Reissue 2005
EAC | FLAC | Image (Cue&Log) ~ 217 Mb | Mp3 (CBR320) ~ 79 Mb | Scans ~ 175 Mb
Label: Fledg'ling Records | # FLED 3051 | Time: 00:34:26

There's no such thing as a bad Graham album from the 1960s. While Hat isn't necessarily the first one you should dig into, it offers the standard pleasures that you expect from his records: excellent, feverishly imaginative acoustic guitar playing; vibrant jazz-blues arrangements; and covers of blues numbers, Paul Simon, and Lennon-McCartney. He's just as capable of good-time blues ("I'm Ready") and a folk cover of "Getting Better" from Sgt. Pepper as dark, slightly dissonant instrumentals with a modal/Eastern flavor. As is the case with most of his '60s albums, it's very hard to find, especially in the U.S., where Graham did not have a record deal.

Review by Richie Unterberger, Allmusic.com

Tracklist:

01. Getting Better (02:01)
02. Lotus Blossom (02:27)
03. I'm Ready (02:30)
04. Buhaina Chant (02:32)
05. Homeward Bound (02:19)
06. Love Is Pleasing (02:14)
07. Hornpipe For Harpsicord Played Upon Guitar (01:29)
08. Down Along The Cove (02:11)
09. Hoochie Coochie Man (03:36)
10. Stan's Guitar (02:21)
11. Pretty Polly (03:24)
12. Bulgarian Dance (03:19)
13. I Am A Rock (02:18)
14. Oliver (01:37)


Exact Audio Copy V1.0 beta 6 from 9. April 2015

EAC extraction logfile from 1. May 2018, 14:28

Davy Graham / Hat

Used drive : ASUS SDRW-08D2S-U Adapter: 3 ID: 0

Read mode : Secure
Utilize accurate stream : Yes
Defeat audio cache : Yes
Make use of C2 pointers : No

Read offset correction : 6
Overread into Lead-In and Lead-Out : No
Fill up missing offset samples with silence : Yes
Delete leading and trailing silent blocks : No
Null samples used in CRC calculations : Yes
Used interface : Installed external ASPI interface

Used output format : User Defined Encoder
Selected bitrate : 320 kBit/s
Quality : High
Add ID3 tag : No
Command line compressor : C:\Program Files\Exact Audio Copy 1.b6\Exact Audio Copy\Flac\flac.exe
Additional command line options : -V -8 -T "Genre=%genre%" -T "Artist=%artist%" -T "Title=%title%" -T "Album=%albumtitle%" -T "Date=%year%" -T "Tracknumber=%tracknr%" -T "Comment=%comment%" %source%


TOC of the extracted CD

Track | Start | Length | Start sector | End sector
––––––––––––––––––––––––––––-
1 | 0:00.00 | 2:01.51 | 0 | 9125
2 | 2:01.51 | 2:27.43 | 9126 | 20193
3 | 4:29.19 | 2:30.60 | 20194 | 31503
4 | 7:00.04 | 2:32.61 | 31504 | 42964
5 | 9:32.65 | 2:19.13 | 42965 | 53402
6 | 11:52.03 | 2:14.05 | 53403 | 63457
7 | 14:06.08 | 1:29.01 | 63458 | 70133
8 | 15:35.09 | 2:11.70 | 70134 | 80028
9 | 17:47.04 | 3:36.66 | 80029 | 96294
10 | 21:23.70 | 2:21.55 | 96295 | 106924
11 | 23:45.50 | 3:24.59 | 106925 | 122283
12 | 27:10.34 | 3:19.23 | 122284 | 137231
13 | 30:29.57 | 2:18.47 | 137232 | 147628
14 | 32:48.29 | 1:37.46 | 147629 | 154949


Range status and errors

Selected range

Filename L:\Audio\SWF\CD\Davy Graham\1969. Davy Graham - Hat (2005 Fledg'ling Records, FLED 3051, UK)\Davy Graham - Hat.wav

Peak level 98.9 %
Extraction speed 3.9 X
Range quality 99.9 %
Test CRC 3FCF6C9B
Copy CRC 3FCF6C9B
Copy OK

No errors occurred


AccurateRip summary

Track 1 accurately ripped (confidence 6) [3F0B85F2] (AR v2)
Track 2 accurately ripped (confidence 6) [2C615643] (AR v2)
Track 3 accurately ripped (confidence 6) [DC5027F0] (AR v2)
Track 4 accurately ripped (confidence 6) [795EDF44] (AR v2)
Track 5 accurately ripped (confidence 6) [4DFF6DB4] (AR v2)
Track 6 accurately ripped (confidence 6) [EF25D820] (AR v2)
Track 7 accurately ripped (confidence 6) [8E2A456A] (AR v2)
Track 8 accurately ripped (confidence 6) [E59A0455] (AR v2)
Track 9 accurately ripped (confidence 6) [8A10BFC1] (AR v2)
Track 10 accurately ripped (confidence 7) [5F37B253] (AR v2)
Track 11 accurately ripped (confidence 6) [8B4A9B3C] (AR v2)
Track 12 accurately ripped (confidence 7) [3EB5C309] (AR v2)
Track 13 accurately ripped (confidence 6) [878ED9B6] (AR v2)
Track 14 accurately ripped (confidence 6) [50EFA93D] (AR v2)

All tracks accurately ripped

End of status report

–– CUETools DB Plugin V2.1.6

[CTDB TOCID: _ez1vHX_wVlV2Zf8o6CRpcINdqs-] found
Submit result: _ez1vHX_wVlV2Zf8o6CRpcINdqs- has been confirmed
Track | CTDB Status
1 | (6/6) Accurately ripped
2 | (6/6) Accurately ripped
3 | (6/6) Accurately ripped
4 | (6/6) Accurately ripped
5 | (6/6) Accurately ripped
6 | (6/6) Accurately ripped
7 | (6/6) Accurately ripped
8 | (6/6) Accurately ripped
9 | (6/6) Accurately ripped
10 | (6/6) Accurately ripped
11 | (6/6) Accurately ripped
12 | (6/6) Accurately ripped
13 | (6/6) Accurately ripped
14 | (6/6) Accurately ripped


==== Log checksum 910BFCC2827ECAEF8EDD24245B61E2C095C4F7511FF6E01897135F537F260541 ====

foobar2000 1.2 / Dynamic Range Meter 1.1.1
log date: 2019-03-30 18:27:54

––––––––––––––––––––––––––––––––––––––––
Analyzed: Davy Graham / Hat
––––––––––––––––––––––––––––––––––––––––

DR Peak RMS Duration Track
––––––––––––––––––––––––––––––––––––––––
DR9 -0.10 dB -9.90 dB 2:02 01-Getting Better
DR9 -0.10 dB -10.72 dB 2:28 02-Lotus Blossom
DR10 -0.10 dB -11.44 dB 2:31 03-I'm Ready
DR12 -0.10 dB -12.74 dB 2:33 04-Buhaina Chant
DR9 -0.10 dB -11.94 dB 2:19 05-Homeward Bound
DR10 -0.10 dB -11.84 dB 2:14 06-Love Is Pleasing
DR12 -0.10 dB -12.98 dB 1:29 07-Hornpipe For Harpsicord Played Upon Guitar
DR9 -0.10 dB -10.76 dB 2:12 08-Down Along The Cove
DR11 -0.10 dB -12.12 dB 3:37 09-Hoochie Coochie Man
DR12 -0.10 dB -13.40 dB 2:22 10-Stan's Guitar
DR9 -0.10 dB -11.29 dB 3:25 11-Pretty Polly
DR10 -0.10 dB -12.27 dB 3:19 12-Bulgarian Dance
DR9 -0.10 dB -11.06 dB 2:19 13-I Am A Rock
DR12 -0.10 dB -14.45 dB 1:38 14-Oliver
––––––––––––––––––––––––––––––––––––––––

Number of tracks: 14
Official DR value: DR10

Samplerate: 44100 Hz
Channels: 2
Bits per sample: 16
Bitrate: 882 kbps
Codec: FLAC
================================================================================

Davy Graham - Albums Collection 1963-1970 (6CD)

Davy Graham - Albums Collection 1963-1970 (6CD)




Davy Graham - Albums Collection 1963-1970 (6CD)

Davy Graham & Holly - Godington Boundry (1970) Remastered 2004
EAC | FLAC | Tracks (Cue&Log) ~ 252 Mb | Mp3 (CBR320) ~ 103 Mb | Scans ~ 114 Mb
Label: President Records | # PRCD160 | Time: 00:45:09

This release marks a welcome return to CD for "Godington Boundry", Davy Graham's sole President album recorded in 1970. In keeping with those he made for Decca, it's an unashamedly esoteric blend of the influences dear to his heart. As well as takes on jazz standards such as Thelonius Monk's Round Midnight and Nat Adderley's perennial Worksong, then-contemporary covers of the Beatles' "Mother Nature's Son" and the Incredible String Band's "Everything's Fine Right Now" also feature. Tabla player Kesh Sathe contributes his mastery to Afta, one of the original compositions to debut on this album and Holly Gwyn - Davy's then-wife - lends her stunning vocals to "On Green Dolphin Street" and the rousing "A Mighty Fortress Is Our God". Includes detailed liner notes by Davy Graham authority Colin Harper, with the booklet boasting rare photographs from the Godington Boundry session.

This isn't Graham's most focused or impressive album, but is basically in the same league as most of his early catalog. It's more jazz-oriented than most of his work; he sings rather less than usual and occasionally goes into lengthy improvisations (as on his cover of "The Work Song"). Graham's wife, Holly, gets co-billed, as she did on his previous album, Kaleidoscope, but actually she contributes only to a few numbers; she's more of a guest artist than a true collaborator. Indian/raga influences come into play once in a while, and on the whole it's somewhat quirkier than his previous string of albums. It would also be the last the public would hear from Graham on record for quite some time, as he found himself without a contract for most of the 1970s.

Review by Richie Unterberger, Allmusic.com

Tracklist:

01. I'm A Freeborn Man (2:12)
02. The Preacher (3:00)
03. All Of Me (5:05)
04. Afta (3:21)
05. On Green Dolphin Street (1:59)
06. Dallas Rag (1:43)
07. Round Midnight (4:38)
08. Worksong (8:15)
09. Joe Joe the Cannibal Kid (1:49)
10. Everything's Fine Right Now (1:42)
11. A Mighty Fortress Is Our God (1:57)
12. Mother Nature's Son (1:56)
13. Grooveyard (3:38)
14. Forty Ton Parachute (1:14)
15. Nadu Silma (2:41)


Exact Audio Copy V1.0 beta 3 from 29. August 2011

EAC extraction logfile from 4. April 2013, 16:27

Davy Graham (and Holly) / Godington Boundry

Used drive : PLEXTOR DVDR PX-891SA Adapter: 0 ID: 2

Read mode : Secure
Utilize accurate stream : Yes
Defeat audio cache : Yes
Make use of C2 pointers : No

Read offset correction : 6
Overread into Lead-In and Lead-Out : No
Fill up missing offset samples with silence : Yes
Delete leading and trailing silent blocks : No
Null samples used in CRC calculations : Yes
Used interface : Installed external ASPI interface
Gap handling : Appended to previous track

Used output format : User Defined Encoder
Selected bitrate : 320 kBit/s
Quality : High
Add ID3 tag : No
Command line compressor : C:\Program Files\Exact Audio Copy 1.0\Flac\flac.exe
Additional command line options : -V -8 -T "Genre=%genre%" -T "Artist=%artist%" -T "Title=%title%" -T "Album=%albumtitle%" -T "Date=%year%" -T "Tracknumber=%tracknr%" -T "Comment=%comment%" %source%


TOC of the extracted CD

Track | Start | Length | Start sector | End sector
––––––––––––––––––––––––––––-
1 | 0:00.00 | 2:11.40 | 0 | 9864
2 | 2:11.40 | 2:59.47 | 9865 | 23336
3 | 5:11.12 | 5:05.30 | 23337 | 46241
4 | 10:16.42 | 3:20.60 | 46242 | 61301
5 | 13:37.27 | 1:58.50 | 61302 | 70201
6 | 15:36.02 | 1:43.23 | 70202 | 77949
7 | 17:19.25 | 4:37.70 | 77950 | 98794
8 | 21:57.20 | 8:14.67 | 98795 | 135911
9 | 30:12.12 | 1:48.50 | 135912 | 144061
10 | 32:00.62 | 1:42.33 | 144062 | 151744
11 | 33:43.20 | 1:56.40 | 151745 | 160484
12 | 35:39.60 | 1:55.72 | 160485 | 169181
13 | 37:35.57 | 3:38.08 | 169182 | 185539
14 | 41:13.65 | 1:14.00 | 185540 | 191089
15 | 42:27.65 | 2:41.31 | 191090 | 203195


Track 1

Filename K:\Lossless Temp\Davy Graham\Davy Graham - Godington Boundry - 1970 (2004 President Records, PRCD 160)\01 - Davy Graham (and Holly) - I'm A Freeborn Man.wav

Pre-gap length 0:00:02.00

Peak level 97.7 %
Extraction speed 4.4 X
Track quality 100.0 %
Test CRC AA7C816F
Copy CRC AA7C816F
Track not present in AccurateRip database
Copy OK

Track 2

Filename K:\Lossless Temp\Davy Graham\Davy Graham - Godington Boundry - 1970 (2004 President Records, PRCD 160)\02 - Davy Graham (and Holly) - The Preacher.wav

Pre-gap length 0:00:01.28

Peak level 97.6 %
Extraction speed 4.2 X
Track quality 99.9 %
Test CRC 455368E8
Copy CRC 455368E8
Track not present in AccurateRip database
Copy OK

Track 3

Filename K:\Lossless Temp\Davy Graham\Davy Graham - Godington Boundry - 1970 (2004 President Records, PRCD 160)\03 - Davy Graham (and Holly) - All Of Me.wav

Pre-gap length 0:00:01.27

Peak level 96.6 %
Extraction speed 6.1 X
Track quality 100.0 %
Test CRC B56CF46E
Copy CRC B56CF46E
Track not present in AccurateRip database
Copy OK

Track 4

Filename K:\Lossless Temp\Davy Graham\Davy Graham - Godington Boundry - 1970 (2004 President Records, PRCD 160)\04 - Davy Graham (and Holly) - Afta.wav

Pre-gap length 0:00:01.27

Peak level 96.6 %
Extraction speed 6.3 X
Track quality 100.0 %
Test CRC 0BFC125F
Copy CRC 0BFC125F
Track not present in AccurateRip database
Copy OK

Track 5

Filename K:\Lossless Temp\Davy Graham\Davy Graham - Godington Boundry - 1970 (2004 President Records, PRCD 160)\05 - Davy Graham (and Holly) - On Green Dolphin Street.wav

Pre-gap length 0:00:01.27

Peak level 96.8 %
Extraction speed 6.0 X
Track quality 100.0 %
Test CRC 64C42E9D
Copy CRC 64C42E9D
Track not present in AccurateRip database
Copy OK

Track 6

Filename K:\Lossless Temp\Davy Graham\Davy Graham - Godington Boundry - 1970 (2004 President Records, PRCD 160)\06 - Davy Graham (and Holly) - Dallas Rag.wav

Pre-gap length 0:00:01.27

Peak level 96.6 %
Extraction speed 5.6 X
Track quality 100.0 %
Test CRC 6DD48438
Copy CRC 6DD48438
Track not present in AccurateRip database
Copy OK

Track 7

Filename K:\Lossless Temp\Davy Graham\Davy Graham - Godington Boundry - 1970 (2004 President Records, PRCD 160)\07 - Davy Graham (and Holly) - Round Midnight.wav

Pre-gap length 0:00:01.28

Peak level 96.6 %
Extraction speed 7.4 X
Track quality 100.0 %
Test CRC 9BA45A0D
Copy CRC 9BA45A0D
Track not present in AccurateRip database
Copy OK

Track 8

Filename K:\Lossless Temp\Davy Graham\Davy Graham - Godington Boundry - 1970 (2004 President Records, PRCD 160)\08 - Davy Graham (and Holly) - Worksong.wav

Pre-gap length 0:00:01.30

Peak level 97.6 %
Extraction speed 8.4 X
Track quality 100.0 %
Test CRC F236176C
Copy CRC F236176C
Track not present in AccurateRip database
Copy OK

Track 9

Filename K:\Lossless Temp\Davy Graham\Davy Graham - Godington Boundry - 1970 (2004 President Records, PRCD 160)\09 - Davy Graham (and Holly) - Joe Joe the Cannibal Kid.wav

Pre-gap length 0:00:01.27

Peak level 97.3 %
Extraction speed 7.1 X
Track quality 100.0 %
Test CRC B69115C6
Copy CRC B69115C6
Track not present in AccurateRip database
Copy OK

Track 10

Filename K:\Lossless Temp\Davy Graham\Davy Graham - Godington Boundry - 1970 (2004 President Records, PRCD 160)\10 - Davy Graham (and Holly) - Everything's Fine Right Now.wav

Pre-gap length 0:00:01.27

Peak level 95.3 %
Extraction speed 7.2 X
Track quality 100.0 %
Test CRC A0B019E1
Copy CRC A0B019E1
Track not present in AccurateRip database
Copy OK

Track 11

Filename K:\Lossless Temp\Davy Graham\Davy Graham - Godington Boundry - 1970 (2004 President Records, PRCD 160)\11 - Davy Graham (and Holly) - A Mighty Fortress Is Our God.wav

Pre-gap length 0:00:01.28

Peak level 89.6 %
Extraction speed 5.6 X
Track quality 99.9 %
Test CRC 0A62A2A2
Copy CRC 0A62A2A2
Track not present in AccurateRip database
Copy OK

Track 12

Filename K:\Lossless Temp\Davy Graham\Davy Graham - Godington Boundry - 1970 (2004 President Records, PRCD 160)\12 - Davy Graham (and Holly) - Mother Nature's Son.wav

Pre-gap length 0:00:01.28

Peak level 95.8 %
Extraction speed 7.7 X
Track quality 100.0 %
Test CRC 99B577FE
Copy CRC 99B577FE
Track not present in AccurateRip database
Copy OK

Track 13

Filename K:\Lossless Temp\Davy Graham\Davy Graham - Godington Boundry - 1970 (2004 President Records, PRCD 160)\13 - Davy Graham (and Holly) - Grooveyard.wav

Pre-gap length 0:00:01.27

Peak level 97.7 %
Extraction speed 7.4 X
Track quality 99.9 %
Test CRC F2E39ED5
Copy CRC F2E39ED5
Track not present in AccurateRip database
Copy OK

Track 14

Filename K:\Lossless Temp\Davy Graham\Davy Graham - Godington Boundry - 1970 (2004 President Records, PRCD 160)\14 - Davy Graham (and Holly) - Forty Ton Parachute.wav

Pre-gap length 0:00:01.28

Peak level 93.2 %
Extraction speed 4.8 X
Track quality 99.8 %
Test CRC 925F808E
Copy CRC 925F808E
Track not present in AccurateRip database
Copy OK

Track 15

Filename K:\Lossless Temp\Davy Graham\Davy Graham - Godington Boundry - 1970 (2004 President Records, PRCD 160)\15 - Davy Graham (and Holly) - Nadu Silma.wav

Pre-gap length 0:00:01.30

Peak level 87.8 %
Extraction speed 8.8 X
Track quality 100.0 %
Test CRC 99296858
Copy CRC 99296858
Track not present in AccurateRip database
Copy OK


None of the tracks are present in the AccurateRip database

No errors occurred

End of status report

==== Log checksum EF68A20EEE7D5EF87855A973ECCCE1102974DA5DFCAB5E8E228845832A430978 ====

[CUETools log; Date: 26.03.2018 5:48:30; Version: 2.1.4]
[CTDB TOCID: IYPvSjw7HMC9pwXfmebliwWbrMA-] found.
Track | CTDB Status
1 | (4/4) Accurately ripped
2 | (4/4) Accurately ripped
3 | (4/4) Accurately ripped
4 | (4/4) Accurately ripped
5 | (4/4) Accurately ripped
6 | (4/4) Accurately ripped
7 | (4/4) Accurately ripped
8 | (4/4) Accurately ripped
9 | (4/4) Accurately ripped
10 | (4/4) Accurately ripped
11 | (4/4) Accurately ripped
12 | (4/4) Accurately ripped
13 | (4/4) Accurately ripped
14 | (4/4) Accurately ripped
15 | (4/4) Accurately ripped
[AccurateRip ID: 001a6189-0129b991-bc0a950f] found.
Track [ CRC | V2 ] Status
01 [fad05ac8|95824f7c] (0+1/2) Accurately ripped
02 [6f11e116|5ec1ef94] (0+1/2) Accurately ripped
03 [ac45b7ac|cac1df52] (0+1/2) Accurately ripped
04 [6b25a4ba|23b8bebf] (0+1/2) Accurately ripped
05 [208f9a73|9c7329e6] (0+1/2) Accurately ripped
06 [f622f435|0fdc2cdc] (0+1/2) Accurately ripped
07 [3f9240a1|e1cb0fe4] (0+1/2) Accurately ripped
08 [8797b51e|d3946ad5] (0+1/2) Accurately ripped
09 [a347164e|5cfed37d] (0+1/2) Accurately ripped
10 [dca70317|ca131442] (0+1/2) Accurately ripped
11 [e12aa379|cb392b89] (0+1/2) Accurately ripped
12 [89df48af|d275a229] (0+1/2) Accurately ripped
13 [6caefa25|e6938ca3] (0+1/2) Accurately ripped
14 [36bc7ad3|0a4ff4b6] (0+1/2) Accurately ripped
15 [084ec95d|c1d43bbb] (0+1/2) Accurately ripped

Track Peak [ CRC32 ] [W/O NULL] [ LOG ]
– 97,7 [45BB5431] [ED41F9EA]
01 97,7 [AA7C816F] [6C5B751C] CRC32
02 97,6 [455368E8] [84B2C637] CRC32
03 96,5 [B56CF46E] [F34DCA0D] CRC32
04 96,5 [0BFC125F] [1D18C05A] CRC32
05 96,8 [64C42E9D] [5A18F0C7] CRC32
06 96,5 [6DD48438] [7A4FB61E] CRC32
07 96,6 [9BA45A0D] [F6998C13] CRC32
08 97,6 [F236176C] [52705EA3] CRC32
09 97,3 [B69115C6] [F0B2E6AF] CRC32
10 95,3 [A0B019E1] [8EFE374F] CRC32
11 89,6 [0A62A2A2] [92D75516] CRC32
12 95,8 [99B577FE] [919477A1] CRC32
13 97,7 [F2E39ED5] [414BDEBD] CRC32
14 93,2 [925F808E] [B8941E91] CRC32
15 87,8 [99296858] [04D68746] CRC32

foobar2000 1.2 / Dynamic Range Meter 1.1.1
log date: 2018-03-26 05:23:26

––––––––––––––––––––––––––––––––––––––––
Analyzed: Davy Graham (and Holly) / Godington Boundry
––––––––––––––––––––––––––––––––––––––––

DR Peak RMS Duration Track
––––––––––––––––––––––––––––––––––––––––
DR8 -0.20 dB -11.78 dB 2:12 01-I'm A Freeborn Man
DR8 -0.21 dB -9.41 dB 3:00 02-The Preacher
DR9 -0.30 dB -10.35 dB 5:05 03-All Of Me
DR9 -0.30 dB -10.41 dB 3:21 04-Afta
DR8 -0.28 dB -10.12 dB 1:59 05-On Green Dolphin Street
DR8 -0.30 dB -9.95 dB 1:43 06-Dallas Rag
DR8 -0.30 dB -9.96 dB 4:38 07-Round Midnight
DR9 -0.20 dB -10.44 dB 8:15 08-Worksong
DR10 -0.23 dB -12.18 dB 1:49 09-Joe Joe the Cannibal Kid
DR9 -0.41 dB -10.93 dB 1:42 10-Everything's Fine Right Now
DR11 -0.95 dB -15.39 dB 1:57 11-A Mighty Fortress Is Our God
DR10 -0.36 dB -12.52 dB 1:56 12-Mother Nature's Son
DR9 -0.20 dB -10.61 dB 3:38 13-Grooveyard
DR9 -0.61 dB -10.98 dB 1:14 14-Forty Ton Parachute
DR10 -1.12 dB -13.74 dB 2:41 15-Nadu Silma
––––––––––––––––––––––––––––––––––––––––

Number of tracks: 15
Official DR value: DR9

Samplerate: 44100 Hz
Channels: 2
Bits per sample: 16
Bitrate: 722 kbps
Codec: FLAC
================================================================================

Davy Graham - Albums Collection 1963-1970 (6CD)

Davy Graham - Albums Collection 1963-1970 (6CD)




All thanks to original releaser - Swamp Fox

More interesting music in My Blog