Tags
Language
Tags

Dead Or Alive - Albums Collection 1984-1999 (13CD)

Posted By: Designol
Dead Or Alive - Albums Collection 1984-1999 (13CD)

Dead Or Alive - Albums Collection 1984-1999 (13CD)
EAC | FLAC | Image (Cue&Log) ~ 4.26 Gb | Mp3 (CBR320) ~ 1.2 Gb | Scans ~ 490 Mb
Genre: Hi-NRG, New Wave, Dance-Pop, Dance-Rock | Time: 09:07:49

A British dance-pop group which found fame thanks to the antics of androgynous frontman Pete Burns, Dead or Alive formed in Liverpool in 1980. Burns first surfaced three years prior in the Mystery Girls, later heading the proto-goth rockers Nightmares in Wax; he founded Dead or Alive with keyboardist Marty Healey, guitarist Mitch, bassist Sue James, and drummer Joe Musker, debuting in 1980 with the Ian Broudie-produced Doors soundalike "I'm Falling." "Number Eleven" followed, but just as the group was gaining momentum, they were swept aside by the emergence of the New Romantic movement, with Burns subsequently charging that fellow androgyne Boy George of Culture Club had merely stolen his outrageous image.

Undaunted, Burns forged on with a retooled Dead or Alive roster including future Mission U.K. guitarist Wayne Hussey and bassist Mike Percy. Over the course of records including the 1982 It's Been Hours Now EP and the follow-up single, "The Stranger," the group evolved into a true dance band and ultimately landed with major-label Epic. A series of singles appeared over during 1983, including "Misty Circles" and "What I Want"; Hussey soon exited, and it was a lineup comprising Burns, Percy, keyboardist Tim Lever, and drummer Steve Coy which scored Dead or Alive's first major hit, a 1984 cover of KC & the Sunshine Band's disco classic "That's the Way (I Like It)" which fell just shy of reaching the British Top 20.

The group's full-length debut, Sophisticated Boom Boom, also fared well with audiences, but they achieved true stardom in early 1985 with the Hi-NRG smash "You Spin Me Round (Like a Record)," the first number one hit for the production team of Stock, Aitken & Waterman. The succeeding LP, Youthquake, was also a smash, yielding further hits in the form of the singles "Lover Come Back to Me," "In Too Deep," and "My Heart Goes Bang." 1986's "Brand New Lover" kept the group in the limelight, but the 1987 LP, Mad, Bad and Dangerous to Know proved disastrous at home and in the U.S., although a fervent following emerged in Japan. In the wake of 1989's Nude, both Lever and Percy left the group; the nucleus of Burns and Coy remained, additionally taking over production and managerial duties. Subsequent Dead or Alive LPs included Fan the Flame, Part One, and Nukleopatra.

Biography by Jason Ankeny, Allmusic.com

Dead Or Alive - Albums Collection 1984-1999 (13CD)

Dead Or Alive at Wiki



Dead Or Alive - Albums Collection 1984-1999 (13CD)

Dead Or Alive - Sophisticated Boom Boom (1984) Japan Issue 1995
EAC | FLAC | Image (Cue&Log) ~ 324 Mb | Mp3 (CBR320) ~ 107 Mb | Scans ~ 123 Mb
Label: Sony Music | # ESCA 6343 | Time: 00:44:52

Whether or not Dead or Alive was the first synth-goth band in history is a bit open to debate, but they were unquestionably in on the ground floor somewhere. Burns and his crew created a weird sort of landmark with Sophisticated Boom Boom, though ultimately it's a bit more memorable as being the dry run for later successes as opposed to being fully notable on its own. By this time, the murky gloom of earlier singles was starting to give way to a more freely mainstream approach, though the combination of Burns' outrageous appearances and his utterly over-dramatic singing style helped ensure they never went down totally easy on the charts. Pretty much everything on the album came from somewhere else: the squiggly early-'80s keyboards/beat neo-disco production, the occasional blasts of clattering drums, the gang shout choruses, and the overall air of sex, sex, and more sex. If anything was the role model, clearly Duran Duran's massive success had gone to Burns' head, from the dry slap-bass to the synth melodies. The end result was nicely assembled, though, and the help of the Kick Horns on brass, Zeus B. Held's production, and Tim Palmer's engineering resulted in a nice sounding package. Perhaps unsurprisingly, the best effort comes via the cover of "That's the Way (I Like It)," even though the end result is unforgivably stiff in comparison to the original. Burns himself, meanwhile, is the understandable centerpiece to everything, rolling his "r"'s, hyping himself just by breathing, and finding ever more ways to project and project again. As for what it's all about, the song titles make that much clear: "What I Want," "Do It," "You Make We Wanna." It's terribly amusing in context to hear Wayne Hussey's guitar playing crop up, as on "Misty Circles" – the eventual feel of his work in both the Sisters of Mercy and the Mission is there, just in a quite different setting.

Review by Ned Raggett, Allmusic.com

Tracklist:

01. I'd Do Anything (04:12)
02. That's The Way (I Like It) (03:43)
03. Absolutely Nothing (04:19)
04. What I Want (05:26)
05. Far Too Hard (04:31)
06. You Make Me Wanna (02:54)
07. Sit On It (03:07)
08. Wish You Were Here (05:20)
09. Misty Circles (03:39)
10. Do It (03:55)
11. Keep That Body Strong (That's The Way) (03:40)


Exact Audio Copy V1.0 beta 1 from 15. November 2010

EAC extraction logfile from 4. June 2011, 19:44

Dead Or Alive / Sophisticated Boom Boom

Used drive : PLEXTOR DVDR PX-716A Adapter: 0 ID: 0

Read mode : Secure
Utilize accurate stream : Yes
Defeat audio cache : Yes
Make use of C2 pointers : No

Read offset correction : 30
Overread into Lead-In and Lead-Out : Yes
Fill up missing offset samples with silence : Yes
Delete leading and trailing silent blocks : No
Null samples used in CRC calculations : Yes
Used interface : Native Win32 interface for Win NT & 2000

Used output format : User Defined Encoder
Selected bitrate : 1024 kBit/s
Quality : High
Add ID3 tag : No
Command line compressor : C:\Program Files (x86)\FLAC\flac.exe
Additional command line options : -8 -V -T "ARTIST=%a" -T "TITLE=%t" -T "ALBUM=%g" -T "DATE=%y" -T "TRACKNUMBER=%n" -T "GENRE=%m" -T "COMMENT=EAC FLAC -8" %s


TOC of the extracted CD

Track | Start | Length | Start sector | End sector
––––––––––––––––––––––––––––-
1 | 0:00.00 | 4:12.32 | 0 | 18931
2 | 4:12.32 | 3:43.55 | 18932 | 35711
3 | 7:56.12 | 4:19.70 | 35712 | 55206
4 | 12:16.07 | 5:26.18 | 55207 | 79674
5 | 17:42.25 | 4:31.37 | 79675 | 100036
6 | 22:13.62 | 2:54.13 | 100037 | 113099
7 | 25:08.00 | 3:07.32 | 113100 | 127156
8 | 28:15.32 | 5:20.70 | 127157 | 151226
9 | 33:36.27 | 3:39.38 | 151227 | 167689
10 | 37:15.65 | 3:55.67 | 167690 | 185381
11 | 41:11.57 | 3:40.55 | 185382 | 201936


Range status and errors

Selected range

Filename E:\mtorrent_flac\Dead Or Alive - Sophisticated Boom Boom (Japan)\Dead Or Alive - Sophisticated Boom Boom.wav

Peak level 100.0 %
Extraction speed 0.1 X
Range quality 100.0 %
Test CRC ECA24657
Copy CRC ECA24657
Copy OK

No errors occurred


AccurateRip summary

Track 1 not present in database
Track 2 not present in database
Track 3 not present in database
Track 4 not present in database
Track 5 not present in database
Track 6 not present in database
Track 7 not present in database
Track 8 not present in database
Track 9 not present in database
Track 10 not present in database
Track 11 not present in database

None of the tracks are present in the AccurateRip database

End of status report


Original releaser - Konstantin_slash



Dead Or Alive - Albums Collection 1984-1999 (13CD)

Sophisticated Boom Boom (1984) Remastered & Expanded 2007
EAC | FLAC | Image (Cue&Log) ~ 590 Mb | Mp3 (CBR320) ~ 189 Mb | Scans ~ 25 Mb
Label: Cherry Pop | # CR POP 4 | Time: 01:18:39

The debut album from UK synth pop/new wave act Dead Or Alive, released in 1984. Fronted by the imposing figure of Pete Burns. Dead Or Alive were embraced by the New Romantics as well as clubbers, and Burns engaged in a series of entertaining press spats with Boy George about who minted that image of extravagant gay frontman/outrageous dresser first. This re-release, on CD for the first time in the UK, includes a slew of 7 bonus tracks as well as detailed liners notes about the band's history.

Tracklist:

01. I'd Do Anything (04:15)
02. That's The Way (I Like It) (03:38)
03. Absolutely Nothing (04:21)
04. What I Want (05:23)
05. Far Too Hard (04:30)
06. You Make Me Wanna (02:53)
07. Sit On It (03:07)
08. Wish You Were Here (05:20)
09. Misty Circles (03:38)
10. Do It (03:53)

Bonus tracks:
11. Selfish Side (02:34)
12. The Stranger (04:49)
13. Misty Circles (Dance Mix) (09:09)
14. What I Want (Dance Mix) (06:12)
15. I'd Do Anything (Megamix) (05:21)
16. That's The Way (I Like It) (Extended Version) (05:51)
17. Keep That Body Strong (That's The Way) (03:37)


Exact Audio Copy V0.99 prebeta 4 from 23. January 2008

Отчёт EAC об извлечении, выполненном 18. января 2009, 4:37

Dead Or Alive / Sophisticated Boom Boom [Remastered & Bonus tracks]

Дисковод: TEAC DV-W520GM Adapter: 4 ID: 2

Режим чтения : Достоверность
Использование точного потока : Да
Отключение кэша аудио : Да
Использование указателей C2 : Нет

Коррекция смещения при чтении : 6
Способность читать области Lead-in и Lead-out : Нет
Заполнение пропущенных сэмплов тишиной : Да
Удаление блоков с тишиной в начале и конце : Нет
При вычислениях CRC использовались нулевые сэмплы : Да
Интерфейс : Установленный внешний ASPI-интерфейс

Выходной формат : Внутренние WAV-операции
Формат сэмплов : 44.100 Гц; 16 бит; стерео


TOC извлечённого CD

Трек | Старт | Длительность | Начальный сектор | Конечный сектор
––––––––––––––––––––––––––––––––––-
1 | 0:00.00 | 4:15.65 | 0 | 19189
2 | 4:15.65 | 3:38.60 | 19190 | 35599
3 | 7:54.50 | 4:21.16 | 35600 | 55190
4 | 12:15.66 | 5:23.33 | 55191 | 79448
5 | 17:39.24 | 4:30.70 | 79449 | 99768
6 | 22:10.19 | 2:53.53 | 99769 | 112796
7 | 25:03.72 | 3:07.04 | 112797 | 126825
8 | 28:11.01 | 5:20.39 | 126826 | 150864
9 | 33:31.40 | 3:38.40 | 150865 | 167254
10 | 37:10.05 | 3:53.29 | 167255 | 184758
11 | 41:03.34 | 2:34.31 | 184759 | 196339
12 | 43:37.65 | 4:49.13 | 196340 | 218027
13 | 48:27.03 | 9:09.50 | 218028 | 259252
14 | 57:36.53 | 6:12.09 | 259253 | 287161
15 | 63:48.62 | 5:21.40 | 287162 | 311276
16 | 69:10.27 | 5:51.45 | 311277 | 337646
17 | 75:01.72 | 3:37.68 | 337647 | 353989


Характеристики диапазона извлечения и сообщения об ошибках

Выбранный диапазон

Имя файла F:\RELEASE\My RELEASES\Dead Or Alive (Discography)\2007 - Dead Or Alive - Sophisticated Boom Boom [Remastered & Bonus tracks]\Dead Or Alive - Sophisticated Boom Boom [Remastered & Bonus tracks].wav

Пиковый уровень 100.0 %
Качество диапазона 100.0 %
CRC теста 188E8C2E
CRC копии 188E8C2E
Копирование… OK

Ошибок не произошло


AccurateRip: сводка

Трек 1 точное извлечение (доверие 3) [3F1FAD71]
Трек 2 точное извлечение (доверие 3) [43EA2921]
Трек 3 точное извлечение (доверие 3) [44CE09C9]
Трек 4 точное извлечение (доверие 3) [1221698F]
Трек 5 точное извлечение (доверие 2) [F19C8067]
Трек 6 точное извлечение (доверие 3) [65B328BF]
Трек 7 точное извлечение (доверие 3) [0378E8D9]
Трек 8 точное извлечение (доверие 3) [3B3FAF45]
Трек 9 точное извлечение (доверие 3) [D552458D]
Трек 10 точное извлечение (доверие 3) [AD0F1DED]
Трек 11 точное извлечение (доверие 3) [C09FFFC2]
Трек 12 точное извлечение (доверие 3) [6A5A19F1]
Трек 13 точное извлечение (доверие 3) [2E00E19A]
Трек 14 точное извлечение (доверие 2) [171202B9]
Трек 15 точное извлечение (доверие 3) [0345ACF0]
Трек 16 точное извлечение (доверие 3) [D5CCBC70]
Трек 17 точное извлечение (доверие 3) [D3A6A2E4]

Все треки извлечены точно

Конец отчёта


Original releaser - SVSSTUDIO



Dead Or Alive - Albums Collection 1984-1999 (13CD)

Dead Or Alive -Youthquake (1985) US 1st Press
EAC | FLAC | Image (Cue&Log) ~ 245 Mb | Mp3 (CBR320) ~ 85 Mb | Scans ~ 19 Mb
Label: Epic | # EK 40119 | Time: 00:36:59

Switching to the noted Stock/Aitken/Waterman production team, Peter Burns and crew brought it all together on an undisputed-'80s classic. Though arguably the singles hold up better in the end than the album does, there's no question that in terms of sheer hooks, fun, and drama, Youthquake is a pure pop delight by any measure. No question that the band's over the top image had a lot to do with it – Burns in particular dressed and posed in the kind of outfits and presentations that made Boy George look like a missionary – but all it takes is the first song to get any party going. "You Spin Me Round (Like a Record)" has an instantly catchy chorus, bright, kicky synth tones, and fantastic delivery from Burns, right from the opening: "And I!"

No less great is the other huge single, "Lover Come Back to Me"." When Burns commands at the end of the chorus, "Kick it right down, right down!" it's as memorable as mass media pop of any stripe ever gets. The Stock/Aitken/Waterman crew doesn't do all that much different per sé on this album than Zeus B Held did on the previous one. While once or twice the trio's tendency towards relative blandness gets the better of the material, most of the time it's a good marriage between Burns' overarching sense of style, and his projection and commercial aims. Where things falter is when the clichés creep in. Orchestral stabs weren't anything new by the time "I Wanna Be a Toy" was littered with them, while everything from sampling stutters to drum pads inevitably call to mind everyone who tinkered with them first. But just let Burns crank up his theatrical wail and amiable sense of sleaze over a good beat and melody, like the string-tinged Philly disco sweep of "In Too Deep," or his desire to "send this sloppy kiss to you" on "Big Daddy of the Rhythm," and the results beat out all objections.

Review by Ned Raggett, Allmusic.com

Tracklist:

01. You Spin Me Round (Like A Record) (03:17)
02. I Wanna Be A Toy (03:57)
03. D.J. Hit That Button (03:26)
04. In Too Deep (04:08)
05. Big Daddy Of The Rhythm (03:20)
06. Cake And Eat It (04:36)
07. Lover Come Back To Me (03:06)
08. My Heart Goes Bang (03:11)
09. It's Been A Long Time (07:54)


Exact Audio Copy V0.99 prebeta 4 from 23. January 2008

Отчёт EAC об извлечении, выполненном 16. января 2009, 21:53

Dead Or Alive / Youthquake

Дисковод: TEAC DV-W520GM Adapter: 4 ID: 2

Режим чтения : Достоверность
Использование точного потока : Да
Отключение кэша аудио : Да
Использование указателей C2 : Нет

Коррекция смещения при чтении : 6
Способность читать области Lead-in и Lead-out : Нет
Заполнение пропущенных сэмплов тишиной : Да
Удаление блоков с тишиной в начале и конце : Нет
При вычислениях CRC использовались нулевые сэмплы : Да
Интерфейс : Установленный внешний ASPI-интерфейс

Выходной формат : Внутренние WAV-операции
Формат сэмплов : 44.100 Гц; 16 бит; стерео


TOC извлечённого CD

Трек | Старт | Длительность | Начальный сектор | Конечный сектор
––––––––––––––––––––––––––––––––––-
1 | 0:00.00 | 3:17.42 | 0 | 14816
2 | 3:17.42 | 3:57.03 | 14817 | 32594
3 | 7:14.45 | 3:26.60 | 32595 | 48104
4 | 10:41.30 | 4:09.17 | 48105 | 66796
5 | 14:50.47 | 3:20.45 | 66797 | 81841
6 | 18:11.17 | 4:36.43 | 81842 | 102584
7 | 22:47.60 | 3:06.60 | 102585 | 116594
8 | 25:54.45 | 3:11.40 | 116595 | 130959
9 | 29:06.10 | 7:54.40 | 130960 | 166549


Характеристики диапазона извлечения и сообщения об ошибках

Выбранный диапазон

Имя файла F:\RELEASE\My RELEASES\Dead Or Alive (Discography)\1985 - Dead Or Alive - Youthquake\Dead Or Alive - Youthquake.wav

Пиковый уровень 96.4 %
Качество диапазона 100.0 %
CRC теста 007E3A5F
CRC копии 007E3A5F
Копирование… OK

Ошибок не произошло


AccurateRip: сводка

Трек 1 точное извлечение (доверие 2) [A961C8A5]
Трек 2 точное извлечение (доверие 2) [3A730F19]
Трек 3 точное извлечение (доверие 2) [3FC10A26]
Трек 4 точное извлечение (доверие 2) [7DB14670]
Трек 5 точное извлечение (доверие 2) [0EF46980]
Трек 6 точное извлечение (доверие 2) [3657609A]
Трек 7 точность не определена (достоверность 2) [5C4A6BFB], AccurateRip вернул [0F44C119]
Трек 8 точное извлечение (доверие 2) [B84105FC]
Трек 9 точное извлечение (доверие 2) [1D22C69B]

8 трек(и) скопированы точно
1 трек(и) не удалось проверить на точность

Некоторые треки не прошли проверку на точность

Конец отчёта


Original releaser - SVSSTUDIO



Dead Or Alive - Albums Collection 1984-1999 (13CD)

Dead Or Alive -Youthquake (1985) UK 1994 Rewind Series
EAC | FLAC | Image (Cue&Log) ~ 356 Mb | Mp3 (CBR320) ~ 120 Mb | Scans ~ 28 Mb
Label: Epic/Sony | # 477853 2 | Time: 00:49:58

UK pressing of the hit 1985 album from New Wave dance mavericks Dead Or Alive features the extended mix 'You Spin Me Round (Like A Record)' as a bonus track for a total of 10 freakazoid dancefloor fillers! The album, produced by the hit-making team of Stock, Aitken & Waterman, also includes 'Lover Come Back To Me', 'I Wanna Be A Toy' and 'My Heart Goes Bang'.

Tracklist:

01. You Spin Me Round (Like A Record) (03:19)
02. I Wanna Be A Toy (03:56)
03. D.J. Hit That Button (03:25)
04. In To Deep (04:07)
05. Big Daddy Of The Rhythm (03:20)
06. You Spin Me Round (Like A Record) (Performance Mix) (07:25)
07. Cake And Eat It (04:40)
08. Lover Come Back To Me (03:07)
09. My Heart Goes Bang (03:10)
10. It's Been A Long Time (07:59)
11. Lover Come Back To Me (Extended Mix) (05:25)


Exact Audio Copy V0.99 prebeta 4 from 23. January 2008

Отчёт EAC об извлечении, выполненном 21. ноября 2009, 14:48

Dead Or Alive / Youthquake (Rewind)

Дисковод: TEAC DV-W520GM Adapter: 4 ID: 2

Режим чтения : Достоверность
Использование точного потока : Да
Отключение кэша аудио : Да
Использование указателей C2 : Нет

Коррекция смещения при чтении : 6
Способность читать области Lead-in и Lead-out : Нет
Заполнение пропущенных сэмплов тишиной : Да
Удаление блоков с тишиной в начале и конце : Нет
При вычислениях CRC использовались нулевые сэмплы : Да
Интерфейс : Установленный внешний ASPI-интерфейс

Выходной формат : Внутренние WAV-операции
Формат сэмплов : 44.100 Гц; 16 бит; стерео


TOC извлечённого CD

Трек | Старт | Длительность | Начальный сектор | Конечный сектор
––––––––––––––––––––––––––––––––––-
1 | 0:00.00 | 3:21.15 | 0 | 15089
2 | 3:21.15 | 3:56.70 | 15090 | 32859
3 | 7:18.10 | 3:26.37 | 32860 | 48346
4 | 10:44.47 | 4:08.60 | 48347 | 67006
5 | 14:53.32 | 3:24.15 | 67007 | 82321
6 | 18:17.47 | 7:26.55 | 82322 | 115826
7 | 25:44.27 | 4:40.63 | 115827 | 136889
8 | 30:25.15 | 3:07.10 | 136890 | 150924
9 | 33:32.25 | 3:10.17 | 150925 | 165191
10 | 36:42.42 | 8:01.53 | 165192 | 201319
11 | 44:44.20 | 5:25.55 | 201320 | 225749


Характеристики диапазона извлечения и сообщения об ошибках

Выбранный диапазон

Имя файла Y:\HiNRG\Dead Or Alive\1994 - Dead Or Alive - Youthquake (Rewind)(UK)\Dead Or Alive - Youthquake (Rewind).wav

Пиковый уровень 100.0 %
Качество диапазона 100.0 %
CRC теста 2D396FBB
CRC копии 2D396FBB
Копирование… OK

Ошибок не произошло


AccurateRip: сводка

Трек 1 точное извлечение (доверие 2) [B1867363]
Трек 2 точное извлечение (доверие 2) [4A953049]
Трек 3 точное извлечение (доверие 2) [1A00973D]
Трек 4 точное извлечение (доверие 2) [00A459D5]
Трек 5 точное извлечение (доверие 2) [C1BBD8CC]
Трек 6 точное извлечение (доверие 2) [5FEFEF86]
Трек 7 точное извлечение (доверие 2) [736061EF]
Трек 8 точное извлечение (доверие 2) [2103F6F5]
Трек 9 точное извлечение (доверие 2) [7F1DFC75]
Трек 10 точное извлечение (доверие 2) [A7787945]
Трек 11 точность не определена (достоверность 4) [7464976E], AccurateRip вернул [97C49BC1]

0 трек(и) скопированы точно
1 трек(и) не удалось проверить на точность

Некоторые треки не прошли проверку на точность

Конец отчёта


Original releaser - SVSSTUDIO



Dead Or Alive - Albums Collection 1984-1999 (13CD)

Dead Or Alive - Mad, Bad, And Dangerous To Know. (1986) US 1st Press
EAC | FLAC | Image (Cue&Log) ~ 293 Mb | Mp3 (CBR320) ~ 94 Mb | Scans ~ 19 Mb
Label: Epic | # EK 40572 | Time: 00:41:03

During my formative 80's years, I had the good fortune of having Lynn Benally, a classmate at high school and at the junior college I was at, turn me on to all sorts of music and groups. One was Dead Or Alive's Mad Bad and Dangerous To Know, which he bought at the local small business records and tapes outlet, and I was with him when he did. I instantly liked the first song that played, the infectious "Brand New Lover," which eventually hit the US Top 20. Given the album cover, I thought it was some weird goth band, but no, it was sheer bubblegum. I eventually bought this myself, and I noticed something that should've clicked after my hearing "Brand New Lover" was when I looked above the song listing on the verso and saw who produced it–Stock, Aitken, Waterman. Well, I should've realized, shouldn't I? Key: *=remix included on Rip It Up compilation

The first four songs really kick. "Brand New Lover"* is what the protagonist is looking for, and it's set to the usual S-A-W barrage of insistent drum machines and synth keyboards, and the occasional guitar solo. And dig those "hey hey!" voices. The thumping drums and brass-like synths in "I'll Save You All My Kisses"* is set at the same breakneck tempo, which rival the song "Venus" by Bananarama, also a S-A-W client.

A more bass keyboard at uptempo pace sets the backing for "Son Of A Gun" which benefits from some shouts from the band. "Then There Was You" is a relief about finding that someone else that cures someone's blues: "I looked around/look what I found/what was I supposed to do?" The question then is, "do you promise you won't go away-ay-ay?"

The version of "Something In My House"* is a lengthy 7:20, which probably made for some good club music stomping. The inclusion of a Spanish guitar and a harp-like melody on the synths isn't repeated on the other tracks. With the stuttered "I"'s, I thought I was listening to Stacey Q. Seriously, Pete Burns' New-Wave distinctive resonant vocals sound nothing like dat Q girl. And just what is in his house? He's "haunted by a love that isn't there" by "the ghost of a blonde dead up there."

"Hooked On Love"* makes the trite analogy of love with drugs, and even has the protagonist asking for a good supplier, "I simply gotta have some more." The analogy continues where he was happy without it, and hardly thought about it in the beginning. So that's what Roxy Music meant by love is the drug. Maybe.

A slight tropical sound comes in during "I Want You," which isn't as breakneck as the other numbers, but has some fanfare bursts on occasion. The last song, "Special Star," continues the uptempo nature of the album.

Like the later Kylie Minogue debut, there's hardly any variation in sound or tempo from the S-A-W format, and it's an instant party disc to boot. Small wonder that half of the Rip It Up compilation was ripped from this album. And once again, thanks to Lynn for introducing them to me.

Review by Daniel J. Hamlow, Amazon

Tracklist:

01. Brand New Lover (05:19)
02. I'll Save You All My Kisses (03:32)
03. Son Of A Gun (04:17)
04. Then There Was You (03:43)
05. Come Inside (04:28)
06. Something In My House (07:19)
07. Hooked On Love (03:53)
08. I Want You (04:12)
09. Special Star (04:09)


Exact Audio Copy V0.99 prebeta 4 from 23. January 2008

Отчёт EAC об извлечении, выполненном 18. ноября 2009, 17:20

Dead Or Alive / Mad, Bad, And Dangerous To Know

Дисковод: TEAC DV-W520GM Adapter: 4 ID: 2

Режим чтения : Достоверность
Использование точного потока : Да
Отключение кэша аудио : Да
Использование указателей C2 : Нет

Коррекция смещения при чтении : 6
Способность читать области Lead-in и Lead-out : Нет
Заполнение пропущенных сэмплов тишиной : Да
Удаление блоков с тишиной в начале и конце : Нет
При вычислениях CRC использовались нулевые сэмплы : Да
Интерфейс : Установленный внешний ASPI-интерфейс

Выходной формат : Внутренние WAV-операции
Формат сэмплов : 44.100 Гц; 16 бит; стерео


TOC извлечённого CD

Трек | Старт | Длительность | Начальный сектор | Конечный сектор
––––––––––––––––––––––––––––––––––-
1 | 0:00.00 | 5:19.12 | 0 | 23936
2 | 5:19.12 | 3:34.03 | 23937 | 39989
3 | 8:53.15 | 4:17.20 | 39990 | 59284
4 | 13:10.35 | 3:43.70 | 59285 | 76079
5 | 16:54.30 | 4:29.60 | 76080 | 96314
6 | 21:24.15 | 7:19.70 | 96315 | 129309
7 | 28:44.10 | 3:55.12 | 129310 | 146946
8 | 32:39.22 | 4:14.03 | 146947 | 165999
9 | 36:53.25 | 4:09.67 | 166000 | 184741


Характеристики диапазона извлечения и сообщения об ошибках

Выбранный диапазон

Имя файла Y:\HiNRG\Dead Or Alive\1986 - Dead Or Alive - Mad, Bad, And Dangerous To Know\Dead Or Alive - Mad, Bad, And Dangerous To Know.wav

Пиковый уровень 95.5 %
Качество диапазона 99.9 %
CRC теста DBB7B2DC
CRC копии DBB7B2DC
Копирование… OK

Ошибок не произошло


AccurateRip: сводка

Трек 1 точность не определена (достоверность 2) [393FD603], AccurateRip вернул [89B5D52A]
Трек 2 точность не определена (достоверность 2) [0726B315], AccurateRip вернул [29B9DD6F]
Трек 3 точность не определена (достоверность 2) [69C6C174], AccurateRip вернул [6981D519]
Трек 4 точность не определена (достоверность 2) [66759D8C], AccurateRip вернул [17BDFEE0]
Трек 5 точность не определена (достоверность 2) [AA0EF75E], AccurateRip вернул [3D768CB1]
Трек 6 нет в базе данных
Трек 7 точность не определена (достоверность 2) [9762066D], AccurateRip вернул [CCD1EE83]
Трек 8 точность не определена (достоверность 2) [CD127444], AccurateRip вернул [85EAFC45]
Трек 9 точность не определена (достоверность 2) [72BF67F2], AccurateRip вернул [45502C21]

8 трек(и) не удалось проверить на точность
1 трек(и) не содержатся в базе AccurateRip

Ни один трек не прошёл проверки на точность
В вашей базе может быть иной вариант штамповки диска

Конец отчёта


Original releaser - SVSSTUDIO



Dead Or Alive - Albums Collection 1984-1999 (13CD)

Dead Or Alive - Mad, Bad, And Dangerous To Know. (1986) Japan 1st Press
EAC | FLAC | Image (Cue&Log) ~ 291 Mb | Mp3 (CBR320) ~ 94 Mb | Scans ~ 142 Mb
Label: Epic/Sony | # 32-8P-162 | Time: 00:41:11


Tracklist:

01. Brand New Lover (05:19)
02. I'll Save You All My Kisses (03:36)
03. Son Of A Gun (04:17)
04. Then There Was You (03:43)
05. Come Inside (04:30)
06. Something In My House (07:21)
07. Hooked On Love (03:55)
08. I Want You (04:14)
09. Special Star (04:13)


Exact Audio Copy V0.99 prebeta 5 from 4. May 2009

EAC extraction logfile from 15. November 2009, 14:10

Dead Or Alive / Mad, Bad, And Dangerous To Know

Used drive : PLEXTOR DVDR PX-716A Adapter: 0 ID: 0

Read mode : Secure
Utilize accurate stream : Yes
Defeat audio cache : Yes
Make use of C2 pointers : No

Read offset correction : 30
Overread into Lead-In and Lead-Out : Yes
Fill up missing offset samples with silence : Yes
Delete leading and trailing silent blocks : No
Null samples used in CRC calculations : Yes
Used interface : Native Win32 interface for Win NT & 2000

Used output format : User Defined Encoder
Selected bitrate : 1024 kBit/s
Quality : High
Add ID3 tag : No
Command line compressor : C:\Program Files\FLAC\flac.exe
Additional command line options : -8 -V -T "ARTIST=%a" -T "TITLE=%t" -T "ALBUM=%g" -T "DATE=%y" -T "TRACKNUMBER=%n" -T "GENRE=%m" -T "COMMENT=EAC FLAC -8" %s


TOC of the extracted CD

Track | Start | Length | Start sector | End sector
––––––––––––––––––––––––––––-
1 | 0:00.00 | 5:19.25 | 0 | 23949
2 | 5:19.25 | 3:36.30 | 23950 | 40179
3 | 8:55.55 | 4:17.30 | 40180 | 59484
4 | 13:13.10 | 3:43.65 | 59485 | 76274
5 | 16:57.00 | 4:30.07 | 76275 | 96531
6 | 21:27.07 | 7:21.05 | 96532 | 129611
7 | 28:48.12 | 3:55.68 | 129612 | 147304
8 | 32:44.05 | 4:14.10 | 147305 | 166364
9 | 36:58.15 | 4:13.27 | 166365 | 185366


Range status and errors

Selected range

Filename E:\mtorrent_flac\Dead or Alive - Mad, Bad And Dangerous To Know (Japan)\Dead Or Alive - Mad, Bad And Dangerous To Know.wav

Peak level 89.4 %
Range quality 99.9 %
Test CRC 979D7933
Copy CRC 979D7933
Copy OK

No errors occurred


AccurateRip summary

Track 1 accurately ripped (confidence 12) [84A35CD5]
Track 2 accurately ripped (confidence 12) [C9F76A03]
Track 3 accurately ripped (confidence 12) [93F75D37]
Track 4 accurately ripped (confidence 12) [4D0838CA]
Track 5 accurately ripped (confidence 12) [A0C7E777]
Track 6 accurately ripped (confidence 12) [E5F33C6D]
Track 7 accurately ripped (confidence 12) [BC8637A3]
Track 8 accurately ripped (confidence 12) [DFC0E926]
Track 9 accurately ripped (confidence 11) [B09D2D68]

All tracks accurately ripped

End of status report


Original releaser - Konstantin_slash



Dead Or Alive - Albums Collection 1984-1999 (13CD)

Dead Or Alive - Rip It Up (1987)
EAC | FLAC | Image (Cue&Log) ~ 265 Mb | Mp3 (CBR320) ~ 88 M7 | Scans included
Label: Epic | # EK 44255 | Time: 00:35:34

One of the great things about the 1980s was the way the decade broke so many of the late 1970s' rules. In the late '70s, many punk rockers hated heavy metal as much as they hated disco, but as much animosity as the punk and arena rock factions felt for one another, they were united in their support of the silly death-to-disco movement. Then, in the 1980s, all of that changed. Just as punks, metalheads, and arena rockers were forming alliances and exchanging musical ideas in the 1980s, the decade found a variety of rockers and new wavers embracing funk, disco, and dance music – clearly, the rules of the late 1970s were being broken in a major way. In the 1980s, no one merged pop/rock with dance-pop, Hi-NRG, and Euro-disco more perfectly than Dead or Alive, whose Rip It Up provides a nonstop dance mix of many of the group's essential hits. Produced by the Stock, Aitken, and Waterman team, gems like "You Spin Me Round," "Brand New Lover," "Something in My House," and "My Heart Goes Bang" have as much pop-rock aggression as they do dance-floor appeal. Rockers loved Dead or Alive, and the strong Beatles influence on "I'll Save You All My Kisses" is hard to miss. But Rip It Up is just as essential from a dance-pop/Hi-NRG standpoint. For those making their first Dead or Alive purchase, this album would be an excellent starting point.

Review by Alex Henderson, Allmusic.com

Tracklist:

01. Brand New Lover (04:33)
02. My Heart Goes Bang (05:23)
03. Something In My House (04:25)
04. Lover Come Back To Me (03:52)
05. You Spin Me Round (Like A Record) (04:27)
06. I'll Save You All My Kisses (04:45)
07. In Too Deep (03:55)
08. Hooked On Love (04:10)


Exact Audio Copy V0.99 prebeta 3 from 28. July 2007

EAC extraction logfile from 25. March 2008, 8:11

Dead Or Alive / Rip It Up

Used drive : TSSTcorpCDDVDW SH-S203B Adapter: 6 ID: 0

Read mode : Secure
Utilize accurate stream : Yes
Defeat audio cache : Yes
Make use of C2 pointers : No

Read offset correction : 6
Overread into Lead-In and Lead-Out : No
Fill up missing offset samples with silence : Yes
Delete leading and trailing silent blocks : No
Null samples used in CRC calculations : Yes
Used interface : Installed external ASPI interface

Used output format : Monkey's Audio Lossless Encoder
Selected bitrate : Fast Lossless Compression
Quality : High
Add ID3 tag : No
Command line compressor : C:\Program Files\Monkey's Audio\MAC.exe
Additional command line options : -6 -V -T "ARTIST=%a" -T "TITLE=%t" -T "ALBUM=%g" -T "DATE=%y" -T "TRACKNUMBER=%n" -T "GENRE=%m" -T "COMMENT=%e" %s -o %d


TOC of the extracted CD

Track | Start | Length | Start sector | End sector
––––––––––––––––––––––––––––-
1 | 0:00.00 | 4:33.67 | 0 | 20541
2 | 4:33.67 | 5:23.55 | 20542 | 44821
3 | 9:57.47 | 4:25.13 | 44822 | 64709
4 | 14:22.60 | 3:52.42 | 64710 | 82151
5 | 18:15.27 | 4:27.08 | 82152 | 102184
6 | 22:42.35 | 4:45.37 | 102185 | 123596
7 | 27:27.72 | 3:55.48 | 123597 | 141269
8 | 31:23.45 | 4:10.67 | 141270 | 160086


Range status and errors

Selected range

Filename C:\uTorrent\CD\Dead Or Alive - Rip It Up\Dead Or Alive - Rip It Up.wav

Peak level 99.9 %
Range quality 99.9 %
Copy CRC 04C7B54A
Copy OK

No errors occurred


AccurateRip summary

Track 1 cannot be verified as accurate (confidence 2) [6A19D7E3], AccurateRip returned [8A6067D0]
Track 2 cannot be verified as accurate (confidence 2) [2B3B1ABD], AccurateRip returned [A00A8540]
Track 3 cannot be verified as accurate (confidence 2) [EAD85C5E], AccurateRip returned [C2A3D21D]
Track 4 cannot be verified as accurate (confidence 2) [D1695C6E], AccurateRip returned [E7C4D771]
Track 5 cannot be verified as accurate (confidence 2) [E59E55CA], AccurateRip returned [50816CEE]
Track 6 cannot be verified as accurate (confidence 2) [230E4744], AccurateRip returned [9D6B9F0E]
Track 7 cannot be verified as accurate (confidence 2) [DC867D6C], AccurateRip returned [527B3BD0]
Track 8 cannot be verified as accurate (confidence 2) [30A335EF], AccurateRip returned [9D5CF029]

No tracks could be verified as accurate
You may have a different pressing from the one(s) in the database

End of status report


Original releaser - bazar



Dead Or Alive - Albums Collection 1984-1999 (13CD)

Dead Or Alive - Nude (1988) 1st Japan Press
EAC | FLAC | Image (Cue&Log) ~ 383 Mb | Mp3 (CBR320) ~ 123 Mb | Scans ~ 81 Mb
Label: Epic/Sony | # 25•8P-5160 | Time: 00:53:46

In the 1980s, the Stock/Aitken/Waterman team was to British dance-pop what Jimmy Jam and Terry Lewis, or L.A. Reid and Babyface, were to urban contemporary. Producing hits for Bananarama, Rick Astley, Samantha Fox, and others, the threesome was despised by many rock critics. But critics can say what they want – Stock, Aitken, and Waterman knew how to deliver the hooks – and many of the songs they produced were undeniably infectious. The team also produced some of Dead or Alive's best work, so when Dead or Alive quit working with them, fans were understandably apprehensive. But on Nude, which was produced by Dead or Alive members Pete Burns and Steve Coy, the group demonstrated that they could get along without Stock/Aitken/Waterman. Though not among the band's essential releases, this is a respectable, if uneven effort, that has a lot to offer from both a dance-pop/Hi-NRG/Euro-disco perspective and a pop-rock perspective. No, there isn't another "You Spin Me Round," or another "Something in My House," but cuts like "Turn Around and Count 2 Ten," "Come Home With Me Baby," and the early-'60s-influenced "Stop Kicking My Heart Around" aren't anything to be ashamed of either. If you've never experienced the pleasures of Dead or Alive, Rip It Up would be a better starting point. Nude is, however, easily recommended to the group's diehard fans.

Review by Alex Henderson, Allmusic.com

Tracklist:

01. Turn Around And Count 2 Ten (06:51)
02. Give It Back (That Love Is Mine) (03:26)
03. Baby Don't Say Goodbye (05:53)
04. Stop Kicking My Heart Around (06:08)
05. Come Home (With Me Baby) (04:05)
06. I Don't Wanna Be Your Boyfriend (04:39)
07. Get Out Of My House (04:12)
08. I Cannot Carry On (04:59)
09. My Forbidden Lover (03:23)
10. Give It Back (instrumental) (03:22)
11. Baby Don't Say Goodbye (alternative mix) (04:07)
12. Love Toy (instrumental) (01:54)


Exact Audio Copy V0.99 prebeta 5 from 4. May 2009

EAC extraction logfile from 1. October 2009, 17:55

Dead or Alive / Nude (Japanese Version)

Used drive : ASUS DRW-1608P Adapter: 2 ID: 0

Read mode : Secure
Utilize accurate stream : Yes
Defeat audio cache : Yes
Make use of C2 pointers : No

Read offset correction : 48
Overread into Lead-In and Lead-Out : No
Fill up missing offset samples with silence : Yes
Delete leading and trailing silent blocks : No
Null samples used in CRC calculations : Yes
Used interface : Installed external ASPI interface

Used output format : User Defined Encoder
Selected bitrate : 1024 kBit/s
Quality : High
Add ID3 tag : No
Command line compressor : C:\Program Files (x86)\Exact Audio Copy\Flac\flac.exe
Additional command line options : -5 -V -T "ARTIST=%a" -T "TITLE=%t" -T "ALBUM=%g" -T "DATE=%y" -T "TRACKNUMBER=%n" -T "GENRE=%m" -T "COMMENT=EAC FLAC -5" %s


TOC of the extracted CD

Track | Start | Length | Start sector | End sector
––––––––––––––––––––––––––––-
1 | 0:00.00 | 6:52.25 | 0 | 30924
2 | 6:52.25 | 3:28.25 | 30925 | 46549
3 | 10:20.50 | 5:56.30 | 46550 | 73279
4 | 16:17.05 | 6:08.52 | 73280 | 100931
5 | 22:25.57 | 4:06.70 | 100932 | 119451
6 | 26:32.52 | 4:39.55 | 119452 | 140431
7 | 31:12.32 | 4:19.08 | 140432 | 159864
8 | 35:31.40 | 4:59.55 | 159865 | 182344
9 | 40:31.20 | 3:35.17 | 182345 | 198486
10 | 44:06.37 | 3:26.60 | 198487 | 213996
11 | 47:33.22 | 4:18.63 | 213997 | 233409
12 | 51:52.10 | 1:54.42 | 233410 | 242001


Range status and errors

Selected range

Filename F:\Dead Or Alive - Nude - 1988 (Japan)\Dead or Alive - Nude (Japanese Version).wav

Peak level 96.7 %
Range quality 99.9 %
Test CRC D6FFA794
Copy CRC D6FFA794
Copy OK

No errors occurred


AccurateRip summary

Track 1 accurately ripped (confidence 2) [263E84C4]
Track 2 accurately ripped (confidence 2) [3948CE14]
Track 3 accurately ripped (confidence 2) [AA9C9C04]
Track 4 accurately ripped (confidence 2) [F9285A74]
Track 5 accurately ripped (confidence 2) [D4575279]
Track 6 accurately ripped (confidence 2) [A1118DC5]
Track 7 accurately ripped (confidence 2) [F2DA4CA8]
Track 8 accurately ripped (confidence 2) [9A6A47F6]
Track 9 accurately ripped (confidence 2) [05BE9D87]
Track 10 accurately ripped (confidence 1) [E8B1C99E]
Track 11 accurately ripped (confidence 2) [2F0E2BE6]
Track 12 accurately ripped (confidence 2) [AD462AF6]

All tracks accurately ripped

End of status report


Original releaser - bvstudio



Dead Or Alive - Albums Collection 1984-1999 (13CD)

Dead Or Alive - Nude (1989) US 1st Press
EAC | FLAC | Image (Cue&Log) ~ 319 Mb | Mp3 (CBR320) ~ 101 Mb | Scans ~ 52 Mb
Label: Epic | # EK 45224 | Time: 00:44:09


Tracklist:

01. Turn Around And Count 2 Ten (06:53)
02. Give It Back That Love Is Mine (03:28)
03. Baby Don't Say Goodbye (05:55)
04. Stop Kicking My Heart Around (06:09)
05. Come Home With Me Baby (04:06)
06. I Don't Wanna Be Your Boyfriend (04:39)
07. Get Out Of My House (04:19)
08. I Cannot Carry On (04:59)
09. My Forbidden Lover (03:36)


Exact Audio Copy V0.99 prebeta 4 from 23. January 2008

Отчёт EAC об извлечении, выполненном 16. января 2009, 22:19

Dead Or Alive / Nude

Дисковод: TEAC DV-W520GM Adapter: 4 ID: 2

Режим чтения : Достоверность
Использование точного потока : Да
Отключение кэша аудио : Да
Использование указателей C2 : Нет

Коррекция смещения при чтении : 6
Способность читать области Lead-in и Lead-out : Нет
Заполнение пропущенных сэмплов тишиной : Да
Удаление блоков с тишиной в начале и конце : Нет
При вычислениях CRC использовались нулевые сэмплы : Да
Интерфейс : Установленный внешний ASPI-интерфейс

Выходной формат : Внутренние WAV-операции
Формат сэмплов : 44.100 Гц; 16 бит; стерео


TOC извлечённого CD

Трек | Старт | Длительность | Начальный сектор | Конечный сектор
––––––––––––––––––––––––––––––––––-
1 | 0:00.00 | 6:53.40 | 0 | 31014
2 | 6:53.40 | 3:28.32 | 31015 | 46646
3 | 10:21.72 | 5:55.45 | 46647 | 73316
4 | 16:17.42 | 6:09.35 | 73317 | 101026
5 | 22:27.02 | 4:06.30 | 101027 | 119506
6 | 26:33.32 | 4:39.60 | 119507 | 140491
7 | 31:13.17 | 4:19.60 | 140492 | 159976
8 | 35:33.02 | 4:59.00 | 159977 | 182401
9 | 40:32.02 | 3:36.73 | 182402 | 198674


Характеристики диапазона извлечения и сообщения об ошибках

Выбранный диапазон

Имя файла F:\RELEASE\My RELEASES\Dead Or Alive (Discography)\1989 - Dead Or Alive - Nude\Dead Or Alive - Nude.wav

Пиковый уровень 98.9 %
Качество диапазона 100.0 %
CRC теста 1432474A
CRC копии 1432474A
Копирование… OK

Ошибок не произошло


AccurateRip: сводка

Трек 1 точность не определена (достоверность 2) [88005C0B], AccurateRip вернул [B4E5A2D9]
Трек 2 точность не определена (достоверность 2) [9B192DA3], AccurateRip вернул [C933E6ED]
Трек 3 точность не определена (достоверность 2) [29950B01], AccurateRip вернул [C22DC412]
Трек 4 точность не определена (достоверность 2) [C0126409], AccurateRip вернул [4B3E4E16]
Трек 5 точность не определена (достоверность 2) [0D771154], AccurateRip вернул [E1F9D6FB]
Трек 6 точность не определена (достоверность 2) [D7956A24], AccurateRip вернул [86445A38]
Трек 7 точность не определена (достоверность 2) [F6C2901A], AccurateRip вернул [818A8DD9]
Трек 8 точность не определена (достоверность 2) [898F1106], AccurateRip вернул [4C5F1C0E]
Трек 9 точность не определена (достоверность 2) [51F0D960], AccurateRip вернул [EF370B40]

Ни один трек не прошёл проверки на точность
В вашей базе может быть иной вариант штамповки диска

Конец отчёта


Original releaser - SVSSTUDIO



Dead Or Alive - Albums Collection 1984-1999 (13CD)

Dead Or Alive - Fan the Flame Part 1 (1990)
EAC | FLAC | Image (Cue&Log) ~ 370 Mb | Mp3 (CBR320) ~ 130 Mb | Scans included
Label: Epic/Sony | # ESCA 5148 | Time: 00:51:35

Fan the Flame (Part 1) is the fifth studio album from dance music band Dead or Alive and was released in 1990. Epic Records released Fan the Flame (Part 1) in Japan only. To this day it is still available only as a Japanese import.

The album contains a slight change in musical style for Dead or Alive, best known for Hi-NRG and disco songs. Fan the Flame (Part 1) contains more mid-tempo songs and melancholy lyrical content. The male background vocals on "Total Stranger" were performed by British pop band Londonbeat and the London Community Gospel Choir provided backing vocals for "Unhappy Birthday".

The songs "Unhappy Birthday" and "Gone 2 Long" were later re-recorded as uptempo dance tracks for Dead or Alive's next album Nukleopatra.

Fan the Flame (Part 2) was recorded but never released, and is often confused with the acoustic album Love Pete, which was made available during a US personal appearance tour in 1992 and has since been widely bootlegged with the title Fan the Flame (Part 2): The Acoustic Sessions. In his autobiography Pete Burns strongly criticizes its subsequent illegal distribution and those fans who continue to buy it.

Wiki

Tracklist:

01. Your Sweetness (Is Your Weakness) (05:49)
02. Unhappy Birthday (06:46)
03. Gone 2 Long (05:45)
04. Total Stranger (07:04)
05. Lucky Day (07:55)
06. What Have U Done (2 Make Me Change) (06:15)
07. And Then I Met U (08:02)
08. Blue Christmas (03:55)


Exact Audio Copy V0.99 prebeta 3 from 28. July 2007

EAC extraction logfile from 31. March 2008, 13:57

Dead or Alive / Fan The Flame (Part 1)

Used drive : TSSTcorpCDDVDW SH-S203B Adapter: 6 ID: 0

Read mode : Secure
Utilize accurate stream : Yes
Defeat audio cache : Yes
Make use of C2 pointers : No

Read offset correction : 6
Overread into Lead-In and Lead-Out : No
Fill up missing offset samples with silence : Yes
Delete leading and trailing silent blocks : No
Null samples used in CRC calculations : Yes
Used interface : Installed external ASPI interface

Used output format : Monkey's Audio Lossless Encoder
Selected bitrate : Fast Lossless Compression
Quality : High
Add ID3 tag : No
Command line compressor : C:\Program Files\Monkey's Audio\MAC.exe
Additional command line options : -6 -V -T "ARTIST=%a" -T "TITLE=%t" -T "ALBUM=%g" -T "DATE=%y" -T "TRACKNUMBER=%n" -T "GENRE=%m" -T "COMMENT=%e" %s -o %d


TOC of the extracted CD

Track | Start | Length | Start sector | End sector
––––––––––––––––––––––––––––-
1 | 0:00.00 | 5:49.67 | 0 | 26241
2 | 5:49.67 | 6:46.63 | 26242 | 56754
3 | 12:36.55 | 5:45.27 | 56755 | 82656
4 | 18:22.07 | 7:04.28 | 82657 | 114484
5 | 25:26.35 | 7:55.37 | 114485 | 150146
6 | 33:21.72 | 6:15.08 | 150147 | 178279
7 | 39:37.05 | 8:03.42 | 178280 | 214546
8 | 47:40.47 | 3:55.65 | 214547 | 232236


Range status and errors

Selected range

Filename C:\uTorrent\CD\Dead or Alive - Fan The Flame (Part 1)\Dead or Alive - Fan The Flame (Part 1).wav

Peak level 98.5 %
Range quality 99.9 %
Copy CRC B72537B6
Copy OK

No errors occurred


AccurateRip summary

Track 1 not present in database
Track 2 not present in database
Track 3 not present in database
Track 4 not present in database
Track 5 not present in database
Track 6 not present in database
Track 7 not present in database
Track 8 not present in database

None of the tracks are present in the AccurateRip database

End of status report


Original releaser - bazar



Dead Or Alive - Albums Collection 1984-1999 (13CD)

Dead Or Alive - Nukleopatra (1995) US Reissue 1998
EAC | FLAC | Image (Cue&Log) ~ 555 Mb | Mp3 (CBR320) ~ 181Mb | Scans included
Label: Cleopatra | # CLP 0318-2 | Time: 01:17:44

With the resurgence of '80s nostalgia reaching a feverish pitch in the late '90s (ex-Culture Club reunion, package tours of '80s artists, etc.), it should come as no surprise that '80s cross-dressers Dead Or Alive have returned with Nukleopatra, their first release in over a decade. Even if the band couldn't resist including two remixes of their huge '80s smash "You Spin Me Round (Like a Record)," they've made a successful transformation toward '90s dance music. Originally released on Sony Japan in 1995, the '98 U.S. reissue of Nukleopatra includes several new tracks not found on the Sony Japan version. Flamboyant singer Pete Burns has not mellowed over the years in the slightest; his vocals remain unpolished and in your face, as a dance cover of David Bowie's "Rebel Rebel" proves. Also present are a cover of Blondie's "Picture This," the opening technoid title track, and two versions of "Sex Drive" (one of which is included as a U.S.-only bonus track).

Review by Greg Prato, Allmusic.com

Tracklist:

01. Nukleopatra (04:19)
02. Sex Drive (05:14)
03. You Spin Me Round (Sugar Pumpers Radio Remix) (03:39)
04. International Thing (06:57)
05. Picture This (04:55)
06. Unhappy Birthday (12'' Remix) (07:32)
07. Rebel Rebel (04:17)
08. I'm A Star (04:50)
09. Sleep With You (05:32)
10. The Right Stuff (03:58)
11. Gone Too Long (05:00)
12. Getting It On (05:47)
13. Spend The Night Together (04:04)
14. You Spin Me Round (Jail House Mix) (04:33)
15. Sex Drive (Scream Driven Mix) (US Bonus) (06:59)


Exact Audio Copy V0.99 prebeta 4 from 23. January 2008

Отчёт EAC об извлечении, выполненном 25. декабря 2008, 0:02

Dead Or Alive / Nukleopatra [US Edition Bonus Track]

Дисковод: TEAC DV-W520GM Adapter: 4 ID: 2

Режим чтения : Достоверность
Использование точного потока : Да
Отключение кэша аудио : Да
Использование указателей C2 : Нет

Коррекция смещения при чтении : 6
Способность читать области Lead-in и Lead-out : Нет
Заполнение пропущенных сэмплов тишиной : Да
Удаление блоков с тишиной в начале и конце : Нет
При вычислениях CRC использовались нулевые сэмплы : Да
Интерфейс : Установленный внешний ASPI-интерфейс

Выходной формат : Внутренние WAV-операции
Формат сэмплов : 44.100 Гц; 16 бит; стерео


TOC извлечённого CD

Трек | Старт | Длительность | Начальный сектор | Конечный сектор
––––––––––––––––––––––––––––––––––-
1 | 0:00.50 | 4:19.72 | 50 | 19546
2 | 4:20.47 | 5:14.03 | 19547 | 43099
3 | 9:34.50 | 3:39.72 | 43100 | 59596
4 | 13:14.47 | 6:57.73 | 59597 | 90944
5 | 20:12.45 | 4:55.25 | 90945 | 113094
6 | 25:07.70 | 7:32.00 | 113095 | 146994
7 | 32:39.70 | 4:17.00 | 146995 | 166269
8 | 36:56.70 | 4:50.00 | 166270 | 188019
9 | 41:46.70 | 5:32.70 | 188020 | 212989
10 | 47:19.65 | 4:00.02 | 212990 | 230991
11 | 51:19.67 | 5:01.73 | 230992 | 253639
12 | 56:21.65 | 5:49.25 | 253640 | 279839
13 | 62:11.15 | 4:06.22 | 279840 | 298311
14 | 66:17.37 | 4:35.28 | 298312 | 318964
15 | 70:52.65 | 6:59.42 | 318965 | 350431


Характеристики диапазона извлечения и сообщения об ошибках

Выбранный диапазон

Имя файла F:\RELEASE\My RELEASES\Dead Or Alive - Nukleopatra [US Edition Bonus Track][1998]\Dead Or Alive - Nukleopatra [US Edition Bonus Track].wav

Пиковый уровень 100.0 %
Качество диапазона 100.0 %
CRC теста 91521A31
CRC копии 91521A31
Копирование… OK

Ошибок не произошло


AccurateRip: сводка

Трек 1 точное извлечение (доверие 2) [9C6C4096]
Трек 2 точное извлечение (доверие 2) [5F229FB1]
Трек 3 точное извлечение (доверие 2) [41993118]
Трек 4 точное извлечение (доверие 2) [0C25B03E]
Трек 5 точное извлечение (доверие 2) [A095617D]
Трек 6 точное извлечение (доверие 2) [AE37E41E]
Трек 7 точное извлечение (доверие 2) [DB51AC8A]
Трек 8 точное извлечение (доверие 2) [E3F09B9F]
Трек 9 точное извлечение (доверие 2) [1F9A87F8]
Трек 10 точное извлечение (доверие 2) [35B63140]
Трек 11 точное извлечение (доверие 2) [39F672A3]
Трек 12 точное извлечение (доверие 2) [F88A36DF]
Трек 13 точное извлечение (доверие 2) [B5DB489F]
Трек 14 точное извлечение (доверие 2) [F8B47F45]
Трек 15 точность не определена (достоверность 2) [F042E2CE], AccurateRip вернул [FBF255AA]

14 трек(и) скопированы точно
1 трек(и) не удалось проверить на точность

Некоторые треки не прошли проверку на точность

Конец отчёта


Original releaser - SVSSTUDIO



Dead Or Alive - Albums Collection 1984-1999 (13CD)

Dead Or Alive - You Spin Me Round / Sex Drive (1999) 2CD Maxi-Singles Compilation
EAC | FLAC | Image (Cue&Log) ~ 583 Mb | Mp3 (CBR320) ~ 164 Mb | Scans included
Label: Cleopatra | # CLP 0533-2 | Time: 01:05:24


Tracklist:

CD1:

01. You Spin Me Round (Sugar Pumpers Radio Edit)
02. You Spin Me Round (Cleopatra Radio Edit)
03. You Spin Me Round (Marc Antonine Radio Edit)
04. You Spin Me Round (Sugar Pumpers Extended Mix)
05. You Spin Me Round (Sugar Pumpers Pumpin Mix)
06. You Spin Me Round (Vicious Mix)
07. You Spin Me Round (Marc Antonine Club Mix)

CD2:

01. Sex Drive (Radio Edit)
02. Sex Drive (Scream Driven Edit)
03. Sex Drive (Dead Or Alive Original Mix)
04. Sex Drive (Scream Driven Mix)
05. Sex Drive (Pee Wee Remix)


Exact Audio Copy V0.99 prebeta 4 from 23. January 2008

Отчёт EAC об извлечении, выполненном 6. февраля 2009, 18:42

Dead Or Alive / You Spin Me Round (Disc 1) - CD Maxi Single

Дисковод: TEAC DV-W520GM Adapter: 4 ID: 2

Режим чтения : Достоверность
Использование точного потока : Да
Отключение кэша аудио : Да
Использование указателей C2 : Нет

Коррекция смещения при чтении : 6
Способность читать области Lead-in и Lead-out : Нет
Заполнение пропущенных сэмплов тишиной : Да
Удаление блоков с тишиной в начале и конце : Нет
При вычислениях CRC использовались нулевые сэмплы : Да
Интерфейс : Установленный внешний ASPI-интерфейс

Выходной формат : Внутренние WAV-операции
Формат сэмплов : 44.100 Гц; 16 бит; стерео

TOC извлечённого CD

Трек | Старт | Длительность | Начальный сектор | Конечный сектор
––––––––––––––––––––––––––––––––––-
1 | 0:00.00 | 3:40.13 | 0 | 16512
2 | 3:40.13 | 4:15.25 | 16513 | 35662
3 | 7:55.38 | 3:23.02 | 35663 | 50889
4 | 11:18.40 | 5:13.11 | 50890 | 74375
5 | 16:31.51 | 7:07.45 | 74376 | 106445
6 | 23:39.21 | 8:12.73 | 106446 | 143418
7 | 31:52.19 | 7:00.41 | 143419 | 174959

Характеристики диапазона извлечения и сообщения об ошибках

Выбранный диапазон

Имя файла F:\RELEASE\My RELEASES\Dead Or Alive (Discography)\1999 -Dead Or Alive - You Spin Me Round & Sex Drive [BOX 2CD-Maxi Single]\[Disc 1] You Spin Me Round\Dead Or Alive - You Spin Me Round (Disc 1) - CD Maxi Single.wav

Пиковый уровень 100.0 %
Качество диапазона 100.0 %
CRC теста C4538AFD
CRC копии C4538AFD
Копирование… OK

Ошибок не произошло

AccurateRip: сводка

Трек 1 точное извлечение (доверие 4) [99FAC3D9]
Трек 2 точное извлечение (доверие 4) [54BCCC02]
Трек 3 точное извлечение (доверие 4) [F8F56D4A]
Трек 4 точное извлечение (доверие 4) [56F904E7]
Трек 5 точное извлечение (доверие 4) [E186F25A]
Трек 6 точное извлечение (доверие 4) [A1E62989]
Трек 7 точное извлечение (доверие 4) [1D003F21]

Все треки извлечены точно

Конец отчёта

Exact Audio Copy V0.99 prebeta 4 from 23. January 2008

Отчёт EAC об извлечении, выполненном 6. февраля 2009, 18:58

Dead Or Alive / Sex Drive (Disc 2) - CD Maxi Single

Дисковод: TEAC DV-W520GM Adapter: 4 ID: 2

Режим чтения : Достоверность
Использование точного потока : Да
Отключение кэша аудио : Да
Использование указателей C2 : Нет

Коррекция смещения при чтении : 6
Способность читать области Lead-in и Lead-out : Нет
Заполнение пропущенных сэмплов тишиной : Да
Удаление блоков с тишиной в начале и конце : Нет
При вычислениях CRC использовались нулевые сэмплы : Да
Интерфейс : Установленный внешний ASPI-интерфейс

Выходной формат : Внутренние WAV-операции
Формат сэмплов : 44.100 Гц; 16 бит; стерео

TOC извлечённого CD

Трек | Старт | Длительность | Начальный сектор | Конечный сектор
––––––––––––––––––––––––––––––––––-
1 | 0:00.00 | 2:54.10 | 0 | 13059
2 | 2:54.10 | 3:56.35 | 13060 | 30794
3 | 6:50.45 | 6:42.00 | 30795 | 60944
4 | 13:32.45 | 7:01.42 | 60945 | 92561
5 | 20:34.12 | 5:58.25 | 92562 | 119436

Характеристики диапазона извлечения и сообщения об ошибках

Выбранный диапазон

Имя файла F:\RELEASE\My RELEASES\Dead Or Alive (Discography)\1999 -Dead Or Alive - You Spin Me Round & Sex Drive [BOX 2CD-Maxi Single]\[Disc 2] Sex Drive\Dead Or Alive - Sex Drive (Disc 2) - CD Maxi Single.wav

Пиковый уровень 100.0 %
Качество диапазона 100.0 %
CRC теста 54852D69
CRC копии 54852D69
Копирование… OK

Ошибок не произошло

AccurateRip: сводка

Трек 1 точное извлечение (доверие 4) [141BFB76]
Трек 2 точное извлечение (доверие 4) [6290813C]
Трек 3 точное извлечение (доверие 4) [308F3E0F]
Трек 4 точное извлечение (доверие 4) [D514E17D]
Трек 5 точное извлечение (доверие 4) [2FEAFA6C]

Все треки извлечены точно

Конец отчёта


Original releaser - SVSSTUDIO



All thanks to original releasers (see CDs info)

More interesting music in My Blog