Tags
Language
Tags
February 2023
Su Mo Tu We Th Fr Sa
29 30 31 1 2 3 4
5 6 7 8 9 10 11
12 13 14 15 16 17 18
19 20 21 22 23 24 25
26 27 28 1 2 3 4

Depeche Mode: Collection (1981 - 2013) [Vinyl Rip 16/44 & mp3-320] Re-up

Posted By: v3122
Depeche Mode: Collection (1981 - 2013) [Vinyl Rip 16/44 & mp3-320] Re-up

Depeche Mode: Collection (1981 - 2013)
12 x Vinyl Rip 16/44 | Flac(Image + Cue) > 3643 Mb
MP3 CBR 320Kbps > 1456 Mb | Artwork > 657 Mb
Sire Records / Intercord Ton GmbH / Mute Records Ltd.
Electronica, New Wave, Dark Wave, Synth-pop

Originally a product of Britain's new romantic movement, Depeche Mode went on to become the quintessential electropop band of the 1980s. One of the first acts to establish a musical identity based completely around the use of synthesizers, they began their existence as a bouncy dance-pop outfit but gradually developed a darker, more dramatic sound that ultimately positioned them as one of the most successful alternative bands of their era.

The roots of Depeche Mode date to 1976, when Basildon, England-based keyboardists Vince Clarke and Andrew Fletcher first teamed to form the group No Romance in China. The band proved short-lived, and by 1979 Clarke had formed French Look, another duo featuring guitarist/keyboardist Martin Gore; Fletcher soon signed on, and the group rechristened itself Composition of Sound. Initially, Clarke handled vocal chores, but in 1980 singer David Gahan was brought in to complete the lineup. After one final name change to Depeche Mode, the quartet members jettisoned all instruments excluding their synthesizers, honing a slick, techno-based sound to showcase Clarke's catchy melodies.

After building a following on the London club scene, Depeche Mode debuted in 1980 with "Photographic," a track included on the Some Bizzare Album label compilation. After signing to Mute Records, they issued "Dreaming of Me" in early 1981; while neither the single nor its follow-up, "New Life," caused much of a stir, their third effort, "Just Can't Get Enough," became a Top Ten U.K. hit, and their 1981 debut LP, Speak and Spell, was also a success. Just as Depeche Mode appeared poised for a major commercial breakthrough, however, principal songwriter Clarke abruptly exited to form Yazoo with singer Alison Moyet, leaving the group's future in grave doubt.

As Gore grabbed the band's songwriting reins, the remaining trio recruited keyboardist Alan Wilder to fill the technological void created by Clarke's departure. While 1982's A Broken Frame deviated only slightly from Depeche Mode's earlier work, Gore's ominous songs grew more assured and sophisticated by the time of 1983's Construction Time Again. Some Great Reward, issued the following year, was their artistic and commercial breakthrough, as Gore's dark, kinky preoccupations with spiritual doubt ("Blasphemous Rumours") and psychosexual manipulation ("Master and Servant") came to the fore; the egalitarian single "People Are People" was a major hit on both sides of the Atlantic and typified the music's turn toward more industrial textures.

Released in 1986, the atmospheric Black Celebration continued the trend toward grim melancholy and further established the group as a commercial force; it eventually sold over 500,000 copies in the U.S., which earned it gold status. Released in 1987, Music for the Masses, featuring three Hot 100 singles in "Strangelove," "Never Let Me Down Again," and "Behind the Wheel," propelled the group into the mainstream. The album would sell over a million copies in the U.S. alone. A subsequent sold-out tour yielded the 1989 double live set 101. Recorded at the Rose Bowl in Pasadena, California, it was accompanied by a concert film directed by the legendary D.A. Pennebaker.

With the alternative music boom of the early '90s, Depeche Mode emerged as one of the world's most successful acts. The triple-platinum Violator, released in 1990, was a Top Ten smash that spawned the hits "Personal Jesus" (a number eight single), "Enjoy the Silence," "Policy of Truth," and "World in My Eyes." Their 1993 LP Songs of Faith and Devotion – featuring a significant change in its heavy use of electric guitars – entered the charts in the number one slot. However, at the peak of its success, the group began to unravel, beginning with Wilder's 1995 exit. Gahan attempted to take his own life and later entered a drug rehabilitation clinic to battle an addiction to heroin.

After a four-year layoff, Depeche Mode continued onward as a trio and released 1997's Ultra, which featured the hits "Barrel of a Gun" and "It's No Good." A year later, the band embarked on a tour in support of its newly released hits album, The Singles 86>98. Depeche Mode played 64 shows in 18 countries for over one million fans. Each member took some considerable time off after the tour's completion, and Depeche Mode would not regroup for another three years.

Exciter, the band's follow-up to Ultra, was released in 2001, with the singles "Dream On" and "I Feel Loved" finding moderate success on international radio outlets. Two years later, Gahan issued his debut solo album, the dark and sultry Paper Monsters. Gore also followed suit by issuing the all-covers Counterfeit², a full-length sequel to his similarly themed 1989 EP. Each member supported his work with respective tours of the U.S. and Europe; however, the bandmembers soon resumed working together, and Playing the Angel, their 11th studio album, became a Top Ten hit upon its release in October 2005. Produced by Ben Hillier (Doves, Blur, U2, Elbow) and studded with singles like "Precious" and "John (The Revelator)," it topped the album charts in 18 countries and went multi-platinum and/or gold in 20 countries. Depeche Mode went on to play for more than two and a half million fans worldwide, and the 2006 video release Touring the Angel: Live in Milan captured one of the band's greatest shows.

Sounds of the Universe, also made with the assistance of Ben Hillier, arrived in early 2009 and debuted at number three in the U.S. The 2013 release of Delta Machine made for a trilogy of Hillier albums, while the album was mixed by longtime Depeche associate Flood. The concert film and album Live in Berlin (directed by Anton Corbijn from a late-2013 show) followed in November 2014.

by Jason Ankeny, allmusic
Depeche Mode: Collection (1981 - 2013) [Vinyl Rip 16/44 & mp3-320] Re-up


Depeche Mode: Collection (1981 - 2013) [Vinyl Rip 16/44 & mp3-320]:

Depeche Mode: Collection (1981 - 2013) [Vinyl Rip 16/44 & mp3-320] Re-up

Tracklist VNL01 - Speak & Spell:
US LP 1981 Sire Records • SRK 3642

01. A1. New Life [03:59]
02. A2. Puppets [03:59]
03. A3. Dreaming Of Me [03:46]
04. A4. Boys Say Go! [03:08]
05. A5. Nodisco [04:14]
06. A6. What's Your Name? [02:43]
07. B1. Photographic [04:58]
08. B2. Tora! Tora! Tora! [04:28]
09. B3. Big Muff [04:26]
10. B4. Any Second Now (Voices) [02:34]
11. B5. Just Can't Get Enough [06:46]

foobar2000 1.2.9 / Dynamic Range Meter 1.1.1
log date: 2016-12-27 17:59:56

––––––––––––––––––––––––––––––––––––––––
Analyzed: DEPECHE MODE / Speak & Spell
––––––––––––––––––––––––––––––––––––––––

DR Peak RMS Duration Track
––––––––––––––––––––––––––––––––––––––––
DR13 -0.88 dB -16.56 dB 4:00 01-A1. New Life
DR16 -0.73 dB -18.73 dB 4:00 02-A2. Puppets
DR14 -0.18 dB -16.50 dB 3:46 03-A3. Dreaming Of Me
DR16 -0.50 dB -19.37 dB 3:08 04-A4. Boys Say Go!
DR14 -2.72 dB -18.01 dB 4:14 05-A5. Nodisco
DR13 -2.44 dB -17.49 dB 2:44 06-A6. What's Your Name?
DR14 -0.43 dB -17.34 dB 4:59 07-B1. Photographic
DR15 -0.51 dB -18.29 dB 4:28 08-B2. Tora! Tora! Tora!
DR14 -2.20 dB -18.35 dB 4:27 09-B3. Big Muff
DR12 -7.14 dB -21.69 dB 2:34 10-B4. Any Second Now (Voices)
DR13 -0.40 dB -16.96 dB 6:47 11-B5. Just Can't Get Enough
––––––––––––––––––––––––––––––––––––––––

Number of tracks: 11
Official DR value: DR14

Samplerate: 44100 Hz
Channels: 2
Bits per sample: 16
Bitrate: 748 kbps
Codec: FLAC
================================================================================



Depeche Mode: Collection (1981 - 2013) [Vinyl Rip 16/44 & mp3-320] Re-up

Tracklist VNL02 - A Broken Frame:
US LP 1982 Sire Records • 9 23751-1

01. A1. Leave In Silence [06:33]
02. A2. My Secret Garden [04:46]
03. A3. Monument [03:16]
04. A4. Nothing To Fear [04:18]
05. A5. See You [04:35]
06. B1. Satellite [04:44]
07. B2. The Meaning Of Love [03:06]
08. B3. Further Excerpts From: My Secret Garden [04:23]
09. B4. A Photograph Of You [03:04]
10. B5. Shouldn't Have Done That [03:23]
11. B6. The Sun & The Rainfall [04:56]

foobar2000 1.2.9 / Dynamic Range Meter 1.1.1
log date: 2016-12-27 17:51:34

––––––––––––––––––––––––––––––––––––––––
Analyzed: DEPECHE MODE / A Broken Frame
––––––––––––––––––––––––––––––––––––––––

DR Peak RMS Duration Track
––––––––––––––––––––––––––––––––––––––––
DR13 -0.19 dB -15.26 dB 6:33 01-A1. Leave In Silence
DR13 -1.74 dB -16.60 dB 4:47 02-A2. My Secret Garden
DR14 -0.16 dB -16.56 dB 3:16 03-A3. Monument
DR13 -1.40 dB -16.59 dB 4:19 04-A4. Nothing To Fear
DR14 -0.13 dB -16.54 dB 4:36 05-A5. See You
DR13 -1.77 dB -18.56 dB 4:44 06-B1. Satellite
DR14 -0.32 dB -16.05 dB 3:07 07-B2. The Meaning Of Love
DR13 -0.16 dB -15.27 dB 4:23 08-B3. Further Excerpts From: My Secret Garden
DR13 -0.22 dB -16.15 dB 3:05 09-B4. A Photograph Of You
DR13 -1.15 dB -18.75 dB 3:23 10-B5. Shouldn't Have Done That
DR12 -1.36 dB -15.57 dB 4:56 11-B6. The Sun & The Rainfall
––––––––––––––––––––––––––––––––––––––––

Number of tracks: 11
Official DR value: DR13

Samplerate: 44100 Hz
Channels: 2
Bits per sample: 16
Bitrate: 852 kbps
Codec: FLAC
================================================================================



Depeche Mode: Collection (1981 - 2013) [Vinyl Rip 16/44 & mp3-320] Re-up

Tracklist VNL03 - Some Great Reward:
DE LP 1984 Intercord Ton GmbH • INT 146.812

01. A1. Something To Do [03:47]
02. A2. Lie To Me [05:03]
03. A3. People Are People [03:52]
04. A4. It Doesn't Matter [04:45]
05. A5. Stories Of Old [03:14]
06. B1. Somebody [04:28]
07. B2. Master And Servant [04:13]
08. B3. If You Want [04:40]
09. B4. Blasphemous Rumours [06:23]

foobar2000 1.2.9 / Dynamic Range Meter 1.1.1
log date: 2016-12-27 18:00:12

––––––––––––––––––––––––––––––––––––––––
Analyzed: DEPECHE MODE / Some Great Reward
––––––––––––––––––––––––––––––––––––––––

DR Peak RMS Duration Track
––––––––––––––––––––––––––––––––––––––––
DR13 -1.79 dB -16.35 dB 3:47 01-A1. Something To Do
DR13 -1.59 dB -16.29 dB 5:04 02-A2. Lie To Me
DR12 -2.00 dB -15.40 dB 3:52 03-A3. People Are People
DR12 -2.54 dB -18.58 dB 4:45 04-A4. It Doesn't Matter
DR12 -2.62 dB -17.76 dB 3:14 05-A5. Stories Of Old
DR12 -4.34 dB -20.16 dB 4:28 06-B1. Somebody
DR12 -0.98 dB -14.34 dB 4:13 07-B2. Master And Servant
DR12 -2.07 dB -16.61 dB 4:41 08-B3. If You Want
DR13 -1.51 dB -17.98 dB 6:24 09-B4. Blasphemous Rumours
––––––––––––––––––––––––––––––––––––––––

Number of tracks: 9
Official DR value: DR12

Samplerate: 44100 Hz
Channels: 2
Bits per sample: 16
Bitrate: 870 kbps
Codec: FLAC
================================================================================



Depeche Mode: Collection (1981 - 2013) [Vinyl Rip 16/44 & mp3-320] Re-up

Tracklist VNL04 - People Are People:
JP LP 1984 Warner-Pioneer Corporation • P-13097

01. A1. People Are People [3:47]
02. A2. Now This Is Fun [3:21]
03. A3. Love In Itself [4:20]
04. A4. Work Hard [4:20]
05. A5. Told You So [4:27]
06. B1. Get The Balance Right [3:12]
07. B2. Leave In Silence [4:04]
08. B3. Pipeline [6:04]
09. B4. Everything Counts [7:18]
10. B5. Master And Servant [4:12]

foobar2000 1.2.9 / Dynamic Range Meter 1.1.1
log date: 2016-12-27 18:00:25

––––––––––––––––––––––––––––––––––––––––
Analyzed: DEPECHE MODE / People Are People (Japan, P-13097)
––––––––––––––––––––––––––––––––––––––––

DR Peak RMS Duration Track
––––––––––––––––––––––––––––––––––––––––
DR12 -2.28 dB -15.95 dB 3:47 01-A1. People Are People
DR13 -1.16 dB -17.50 dB 3:21 02-A2. Now This Is Fun
DR12 -1.84 dB -16.43 dB 4:20 03-A3. Love In Itself
DR12 -1.61 dB -17.03 dB 4:20 04-A4. Work Hard
DR13 -2.44 dB -17.72 dB 4:27 05-A5. Told You So
DR14 -3.13 dB -19.32 dB 3:12 06-B1. Get The Balance Right
DR14 -2.11 dB -18.95 dB 4:04 07-B2. Leave In Silence
DR12 -2.88 dB -18.31 dB 6:04 08-B3. Pipeline
DR13 -4.78 dB -20.42 dB 7:18 09-B4. Everything Counts
DR12 -4.26 dB -18.27 dB 4:12 10-B5. Master And Servant
––––––––––––––––––––––––––––––––––––––––

Number of tracks: 10
Official DR value: DR13

Samplerate: 44100 Hz
Channels: 2
Bits per sample: 16
Bitrate: 759 kbps
Codec: FLAC
================================================================================



Depeche Mode: Collection (1981 - 2013) [Vinyl Rip 16/44 & mp3-320] Re-up

Tracklist VNL05 - Black Celebration:
DE LP 1986 Intercord Ton GmbH • INT 146.818

01. A1. Black Celebration [04:53]
02. A2. Fly On The Windscreen - Final [05:19]
03. A3. A Question Of Lust [04:21]
04. A4. Sometimes [01:55]
05. A5. It Doesn't Matter Two [02:50]
06. B1. A Question Of Time [04:09]
07. B2. Stripped [04:15]
08. B3. Here Is The House [04:15]
09. B4. World Full Of Nothing [02:46]
10. B5. Dressed In Black [02:33]
11. B6. New Dress [03:43]

foobar2000 1.2.9 / Dynamic Range Meter 1.1.1
log date: 2016-12-27 17:54:27

––––––––––––––––––––––––––––––––––––––––
Analyzed: DEPECHE MODE / Black Celebration
––––––––––––––––––––––––––––––––––––––––

DR Peak RMS Duration Track
––––––––––––––––––––––––––––––––––––––––
DR13 -3.69 dB -19.99 dB 4:54 01-A1. Black Celebration
DR14 -1.00 dB -18.35 dB 5:20 02-A2. Fly On The Windscreen - Final
DR12 -0.49 dB -17.76 dB 4:21 03-A3. A Question Of Lust
DR12 -5.13 dB -21.91 dB 1:55 04-A4. Sometimes
DR11 -4.96 dB -19.28 dB 2:51 05-A5. It Doesn't Matter Two
DR12 -1.76 dB -15.84 dB 4:09 06-B1. A Question Of Time
DR12 -1.98 dB -16.94 dB 4:15 07-B2. Stripped
DR12 -2.83 dB -17.36 dB 4:16 08-B3. Here Is The House
DR11 -3.52 dB -18.94 dB 2:47 09-B4. World Full Of Nothing
DR11 -4.31 dB -17.77 dB 2:33 10-B5. Dressed In Black
DR15 -1.88 dB -19.73 dB 3:43 11-B6. New Dress
––––––––––––––––––––––––––––––––––––––––

Number of tracks: 11
Official DR value: DR12

Samplerate: 44100 Hz
Channels: 2
Bits per sample: 16
Bitrate: 874 kbps
Codec: FLAC
================================================================================



Depeche Mode: Collection (1981 - 2013) [Vinyl Rip 16/44 & mp3-320] Re-up

Tracklist VNL06 - Music For The Masses:
US LP 1987 Sire Records • 9 25614-1

01. A1. Never Let Me Down Again [04:47]
02. A2. The Things You Said [03:57]
03. A3. Strangelove [04:42]
04. A4. Sacred [05:04]
05. A5. Little 15 [04:18]
06. B1. Behind The Wheel [05:17]
07. B2. I Want You Now [03:28]
08. B3. To Have And To Hold [03:07]
09. B4. Nothing [04:16]
10. B5. Pimpf [03:59]

foobar2000 1.2.9 / Dynamic Range Meter 1.1.1
log date: 2016-12-27 18:00:40

––––––––––––––––––––––––––––––––––––––––
Analyzed: DEPECHE MODE / Music For The Masses
––––––––––––––––––––––––––––––––––––––––

DR Peak RMS Duration Track
––––––––––––––––––––––––––––––––––––––––
DR12 -0.20 dB -13.99 dB 4:47 01-A1. Never Let Me Down Again
DR12 -1.07 dB -15.68 dB 3:58 02-A2. The Things You Said
DR13 -0.67 dB -16.00 dB 4:42 03-A3. Strangelove
DR13 -0.40 dB -16.60 dB 5:04 04-A4. Sacred
DR12 -1.31 dB -16.99 dB 4:18 05-A5. Little 15
DR12 -1.04 dB -14.73 dB 5:17 06-B1. Behind The Wheel
DR12 -2.44 dB -16.48 dB 3:28 07-B2. I Want You Now
DR11 -1.51 dB -16.54 dB 3:08 08-B3. To Have And To Hold
DR13 -1.13 dB -15.66 dB 4:16 09-B4. Nothing
DR11 -2.80 dB -18.45 dB 3:59 10-B5. Pimpf
––––––––––––––––––––––––––––––––––––––––

Number of tracks: 10
Official DR value: DR12

Samplerate: 44100 Hz
Channels: 2
Bits per sample: 16
Bitrate: 867 kbps
Codec: FLAC
================================================================================



Depeche Mode: Collection (1981 - 2013) [Vinyl Rip 16/44 & mp3-320] Re-up

Tracklist VNL07 - Violator:
DE LP 1990 Intercord Ton GmbH • INT 146.859

01. A1. World In My Eyes [04:26]
02. A2. Sweetest Perfection [04:44]
03. A3. Personal Jesus [04:18]
04. A4. Halo [04:30]
05. A5. Waiting For The Night [06:09]
06. B1. Enjoy The Silence [06:13]
07. B2. Policy Of Truth [04:55]
08. B3. Blue Dress [05:44]
09. B4. Clean [05:27]

foobar2000 1.2.9 / Dynamic Range Meter 1.1.1
log date: 2016-12-27 18:00:54

––––––––––––––––––––––––––––––––––––––––
Analyzed: DEPECHE MODE / Violator
––––––––––––––––––––––––––––––––––––––––

DR Peak RMS Duration Track
––––––––––––––––––––––––––––––––––––––––
DR13 -0.69 dB -14.97 dB 4:26 01-A1. World In My Eyes
DR12 -0.58 dB -16.16 dB 4:44 02-A2. Sweetest Perfection
DR13 -0.55 dB -15.60 dB 4:18 03-A3. Personal Jesus
DR12 -0.11 dB -14.56 dB 4:30 04-A4. Halo
DR11 -2.47 dB -16.07 dB 6:10 05-A5. Waiting For The Night
DR12 -1.23 dB -16.73 dB 6:13 06-B1. Enjoy The Silence
DR12 -0.99 dB -15.49 dB 4:55 07-B2. Policy Of Truth
DR13 -1.98 dB -17.93 dB 5:45 08-B3. Blue Dress
DR13 -1.61 dB -17.36 dB 5:27 09-B4. Clean
––––––––––––––––––––––––––––––––––––––––

Number of tracks: 9
Official DR value: DR12

Samplerate: 44100 Hz
Channels: 2
Bits per sample: 16
Bitrate: 859 kbps
Codec: FLAC
================================================================================



Depeche Mode: Collection (1981 - 2013) [Vinyl Rip 16/44 & mp3-320] Re-up

Tracklist VNL08 - Ultra:


01. A1. Barrel Of A Gun [05:35]
02. A2. The Love Thieves [06:34]
03. A3. Home [05:43]
04. A4. It's No Good [05:59]
05. A5. Uselink [02:21]
06. A6. Useless [05:14]
07. B1. Sister Of Night [06:03]
08. B2. Jazz Thieves [02:57]
09. B3. Freestate [06:43]
10. B4. The Bottom Line [04:27]
11. B5. Insight [05:09]
12. B6. Junior Painkiller [03:23]

foobar2000 1.2.9 / Dynamic Range Meter 1.1.1
log date: 2016-12-27 18:01:13

––––––––––––––––––––––––––––––––––––––––
Analyzed: DEPECHE MODE / Ultra
––––––––––––––––––––––––––––––––––––––––

DR Peak RMS Duration Track
––––––––––––––––––––––––––––––––––––––––
DR12 -1.10 dB -14.98 dB 5:35 01-A1. Barrel Of A Gun
DR11 -3.82 dB -16.40 dB 6:34 02-A2. The Love Thieves
DR10 -2.98 dB -15.95 dB 5:43 03-A3. Home
DR12 -0.56 dB -13.96 dB 5:59 04-A4. It's No Good
DR12 -4.24 dB -20.64 dB 2:21 05-A5. Uselink
DR11 -1.31 dB -14.25 dB 5:15 06-A6. Useless
DR11 -2.47 dB -16.61 dB 6:04 07-B1. Sister Of Night
DR11 -4.55 dB -18.72 dB 2:57 08-B2. Jazz Thieves
DR13 -0.15 dB -16.78 dB 6:43 09-B3. Freestate
DR11 -4.00 dB -17.86 dB 4:27 10-B4. The Bottom Line
DR11 -2.74 dB -17.02 dB 5:09 11-B5. Insight
DR15 -15.50 dB -34.59 dB 3:23 12-B6. Junior Painkiller
––––––––––––––––––––––––––––––––––––––––

Number of tracks: 12
Official DR value: DR12

Samplerate: 44100 Hz
Channels: 2
Bits per sample: 16
Bitrate: 812 kbps
Codec: FLAC
================================================================================



Depeche Mode: Collection (1981 - 2013) [Vinyl Rip 16/44 & mp3-320] Re-up

Tracklist VNL09 - Exciter:
UK 2 x LP 2001 Mute Records Ltd. • STUMM 190

01. A1. Dream On [04:21]
02. A2. Shine [05:32]
03. A3. The Sweetest Condition [03:43]
04. B1. When The Body Speaks [06:02]
05. B2. The Dead Of Night [04:51]
06. B3. Lovetheme [02:02]
07. C1. Freelove [06:12]
08. C2. Comatose [03:24]
09. C3. I Feel Loved [04:20]
10. D1. Breathe [05:19]
11. D2. Easy Tiger [02:06]
12. D3. I Am You [05:10]
13. D4. Goodnight Lovers [03:50]

foobar2000 1.2.9 / Dynamic Range Meter 1.1.1
log date: 2016-12-27 18:01:30

––––––––––––––––––––––––––––––––––––––––
Analyzed: DEPECHE MODE / Exciter
––––––––––––––––––––––––––––––––––––––––

DR Peak RMS Duration Track
––––––––––––––––––––––––––––––––––––––––
DR12 0.00 dB -15.16 dB 4:21 01-A1. Dream On
DR10 -0.86 dB -13.61 dB 5:32 02-A2. Shine
DR10 -0.30 dB -13.45 dB 3:43 03-A3. The Sweetest Condition
DR10 -3.88 dB -15.87 dB 6:03 04-B1. When The Body Speaks
DR10 -0.71 dB -14.21 dB 4:51 05-B2. The Dead Of Night
DR9 -9.66 dB -20.62 dB 2:03 06-B3. Lovetheme
DR11 -1.67 dB -14.71 dB 6:12 07-C1. Freelove
DR11 -3.20 dB -16.86 dB 3:24 08-C2. Comatose
DR10 -0.50 dB -12.93 dB 4:21 09-C3. I Feel Loved
DR12 -2.00 dB -16.68 dB 5:19 10-D1. Breathe
DR10 -8.50 dB -22.39 dB 2:06 11-D2. Easy Tiger
DR12 -1.94 dB -15.58 dB 5:10 12-D3. I Am You
DR9 -6.69 dB -16.76 dB 3:50 13-D4. Goodnight Lovers
––––––––––––––––––––––––––––––––––––––––

Number of tracks: 13
Official DR value: DR11

Samplerate: 44100 Hz
Channels: 2
Bits per sample: 16
Bitrate: 772 kbps
Codec: FLAC
================================================================================



Depeche Mode: Collection (1981 - 2013) [Vinyl Rip 16/44 & mp3-320] Re-up

Tracklist VNL10 - Playing The Angel:
DE 2 x LP 2005 Mute Records Ltd. • STUMM260

01. A1. A Pain That I'm Used To [4:12]
02. A2. John The Revelator [3:43]
03. A3. Suffer Well [3:54]
04. B1. The Sinner In Me [4:58]
05. B2. Precious [4:06]
06. B3. Macro [4:09]
07. C1. I Want It All [6:11]
08. C2. Nothing's Impossible [4:22]
09. C3. Introspectre [1:41]
10. C4. Damaged People [3:30]
11. D1. Lilian [4:49]
12. D2. The Darkest Star [6:59]

foobar2000 1.2.9 / Dynamic Range Meter 1.1.1
log date: 2016-12-27 18:01:46

––––––––––––––––––––––––––––––––––––––––
Analyzed: DEPECHE MODE / Playing The Angel (Germany, Mute, STUMM260)
––––––––––––––––––––––––––––––––––––––––

DR Peak RMS Duration Track
––––––––––––––––––––––––––––––––––––––––
DR9 -1.11 dB -14.54 dB 4:12 01-A1. A Pain That I'm Used To
DR10 -1.24 dB -13.88 dB 3:43 02-A2. John The Revelator
DR10 -2.59 dB -13.92 dB 3:54 03-A3. Suffer Well
DR11 -1.52 dB -14.68 dB 4:58 04-B1. The Sinner In Me
DR10 -2.55 dB -14.89 dB 4:06 05-B2. Precious
DR10 -1.74 dB -16.23 dB 4:09 06-B3. Macro
DR12 -2.71 dB -16.90 dB 6:11 07-C1. I Want It All
DR9 -3.38 dB -16.11 dB 4:22 08-C2. Nothing's Impossible
DR11 -10.35 dB -25.64 dB 1:41 09-C3. Introspectre
DR10 -4.45 dB -17.42 dB 3:30 10-C4. Damaged People
DR10 -2.30 dB -15.89 dB 4:49 11-D1. Lilian
DR11 -4.33 dB -19.11 dB 6:59 12-D2. The Darkest Star
––––––––––––––––––––––––––––––––––––––––

Number of tracks: 12
Official DR value: DR10

Samplerate: 44100 Hz
Channels: 2
Bits per sample: 16
Bitrate: 737 kbps
Codec: FLAC
================================================================================



Depeche Mode: Collection (1981 - 2013) [Vinyl Rip 16/44 & mp3-320] Re-up

Tracklist VNL11 - Sounds Of The Universe:
US 2 x LP 2009 Capitol Records • 5099969605512

01. A1. In Chains [06:53]
02. A2. Hole To Feed [03:57]
03. A3. Wrong [03:12]
04. B1. Fragile Tension [04:10]
05. B2. Little Soul [03:30]
06. B3. In Sympathy [04:55]
07. C1. Peace [04:27]
08. C2. Come Back [05:19]
09. C3. Spacewalker [01:49]
10. C4. Perfect [04:35]
11. D1. Miles Away / The Truth Is [04:12]
12. D2. Jezebel [04:42]
13. D3. Corrupt [06:19]

foobar2000 1.2.9 / Dynamic Range Meter 1.1.1
log date: 2016-12-27 18:02:01

––––––––––––––––––––––––––––––––––––––––
Analyzed: DEPECHE MODE / Sounds Of The Universe
––––––––––––––––––––––––––––––––––––––––

DR Peak RMS Duration Track
––––––––––––––––––––––––––––––––––––––––
DR12 0.00 dB -14.51 dB 6:54 01-A1. In Chains
DR10 -0.56 dB -13.66 dB 3:58 02-A2. Hole To Feed
DR8 -1.38 dB -12.37 dB 3:13 03-A3. Wrong
DR11 -2.40 dB -16.19 dB 4:11 04-B1. Fragile Tension
DR11 -1.24 dB -15.53 dB 3:31 05-B2. Little Soul
DR13 -0.90 dB -15.96 dB 4:55 06-B3. In Sympathy
DR12 -0.65 dB -14.52 dB 4:27 07-C1. Peace
DR10 -2.47 dB -14.82 dB 5:20 08-C2. Come Back
DR12 -6.25 dB -20.50 dB 1:50 09-C3. Spacewalker
DR13 0.00 dB -16.38 dB 4:35 10-C4. Perfect
DR8 -4.48 dB -14.85 dB 4:13 11-D1. Miles Away / The Truth Is
DR12 -1.15 dB -15.01 dB 4:42 12-D2. Jezebel
DR11 -1.37 dB -15.86 dB 6:19 13-D3. Corrupt
––––––––––––––––––––––––––––––––––––––––

Number of tracks: 13
Official DR value: DR11

Samplerate: 44100 Hz
Channels: 2
Bits per sample: 16
Bitrate: 762 kbps
Codec: FLAC
================================================================================



Depeche Mode: Collection (1981 - 2013) [Vinyl Rip 16/44 & mp3-320] Re-up

Tracklist VNL12 - Delta Machine:
US 2 x LP 2013 Columbia Records • 88765 46063 1

01. A1. Welcome To My World [04:57]
02. A2. Angel [03:57]
03. A3. Heaven [04:05]
04. A4. Secret To The End [05:13]
05. B1. My Little Universe [04:25]
06. B2. Slow [03:46]
07. B3. Broken [03:57]
08. B4. The Child Inside [04:17]
09. B5. Soft Touch / Raw Nerve [03:26]
10. C1. Should Be Higher [05:07]
11. C2. Alone [04:28]
12. C3. Soothe My Soul [05:24]
13. C4. Goodbye [05:04]
14. D1. Long Time Lie [04:22]
15. D2. Happens All The Time [04:20]
16. D3. Always [05:07]

foobar2000 1.2.9 / Dynamic Range Meter 1.1.1
log date: 2016-12-27 18:02:19

––––––––––––––––––––––––––––––––––––––––
Analyzed: DEPECHE MODE / Delta Machine
––––––––––––––––––––––––––––––––––––––––

DR Peak RMS Duration Track
––––––––––––––––––––––––––––––––––––––––
DR10 -2.28 dB -15.82 dB 4:57 01-A1. Welcome To My World
DR9 -2.22 dB -13.65 dB 3:57 02-A2. Angel
DR10 -2.78 dB -15.49 dB 4:05 03-A3. Heaven
DR11 -1.85 dB -15.45 dB 5:13 04-A4. Secret To The End
DR11 -1.79 dB -17.00 dB 4:25 05-B1. My Little Universe
DR11 -1.46 dB -15.42 dB 3:46 06-B2. Slow
DR10 -3.76 dB -15.93 dB 3:57 07-B3. Broken
DR10 -4.71 dB -17.69 dB 4:17 08-B4. The Child Inside
DR10 -2.82 dB -15.05 dB 3:27 09-B5. Soft Touch / Raw Nerve
DR10 -2.33 dB -14.03 dB 5:07 10-C1. Should Be Higher
DR10 -1.85 dB -14.08 dB 4:28 11-C2. Alone
DR10 -1.75 dB -14.68 dB 5:24 12-C3. Soothe My Soul
DR10 -1.81 dB -14.53 dB 5:04 13-C4. Goodbye
DR11 -2.52 dB -17.02 dB 4:22 14-D1. Long Time Lie
DR11 -1.66 dB -14.29 dB 4:20 15-D2. Happens All The Time
DR11 -2.21 dB -14.75 dB 5:07 16-D3. Always
DR10 -1.42 dB -13.34 dB 3:24 17-D4. All That's Mine
––––––––––––––––––––––––––––––––––––––––

Number of tracks: 17
Official DR value: DR10

Samplerate: 44100 Hz
Channels: 2
Bits per sample: 16
Bitrate: 769 kbps
Codec: FLAC
================================================================================



* * *

All thanks goes to the original releasers

Depeche Mode in my Blog

Download Depeche Mode: Collection (1981 - 2013) [Vinyl Rip 16/44 & mp3-320]: