Tags
Language
Tags

Don Covay - Mercy (1965) + See-Saw (1966) 2 LP on 1 CD, 2000

Posted By: Designol
Don Covay - Mercy (1965) + See-Saw (1966) 2 LP on 1 CD, 2000

Don Covay - Mercy (1965) + See-Saw (1966) 2 LP on 1 CD, 2000
EAC | FLAC | Tracks (Cue&Log) ~ 379 Mb | Scans ~ 93 Mb | Time: 01:03:09
Southern Soul, Deep Soul, Rhythm & Blues | Label: Koch | # KOC-CD-8186

In 2000, Koch reissued Don Covay's two classic mid-'60s albums, Mercy and See-Saw, on one tremendous CD. The term "classic" is thrown around haphazardly in pop music, but these are two sublime records that earn the term, even if they're not as roundly celebrated as platters from Otis Redding or even cult favorite James Carr. Though he racked up a number of singles on the R&B charts, he never had a huge crossover hit, but his music stands as some of the most effervescent, infectious soul of the '60s (not to mention that his vocal style was a clear inspiration to Mick Jagger). What makes his music so remarkable is how it's earthy Southern soul, kicking really hard in its rhythms and with plenty of growl in Covay's voice, but is as nimble, tuneful, and sunny as the sounds coming out of Chicago and Detroit during the mid-'60s. Perhaps that's why he never quite got a huge single – he straddled the two popular sounds without fully being part of either. It may have not resulted in big singles, but it resulted in splendid music. If there's not much difference stylistically between Mercy and See-Saw – they're both pretty much cut from the same cloth – there's also little difference in quality. It's all tremendous, enjoyable, sweet Southern soul. Razor & Tie's Mercy Mercy: The Definitive Don Covay provides the definitive overview, but for a pure concentration of Covay at his peak, this is irresistible and essential.

Review by Stephen Thomas Erlewine, Allmusic.com

Don Covay - Mercy (1965) + See-Saw (1966) 2 LP on 1 CD, 2000



Tracklist:

Mercy (1965):

01. Mercy, Mercy (2:27)
02. I'll Be Satisfied (3:17)
03. Come On In (2:20)
04. Can't Stay Away (2:51)
05. Can't Fight It Baby (2:52)
06. You're Good For Me (3:31)
07. Take This Hurt Off Me (2:31)
08. Daddy Loves Baby (2:23)
09. Come See About Me (3:24)
10. You Must Believe In Me (2:37)
11. Please Don't Let Me Know (2:27)
12. Just Because (3:27)

See-Saw (1966):

13. See-Saw (3:01)
14. The Boomerang (2:04)
15. Everything Gonna Be Everthing (2:33)
16. Fat Man (2:36)
17. Precious You (2:43)
18. Iron Out The Rough Spots (2:57)
19. Please Do Something (2:51)
20. I Never Get Enough Of Your Love (2:46)
21. The Usual Place (2:08)
22. A Woman's Love (2:38)
23. Sookie Sookie (2:46)


Exact Audio Copy V1.0 beta 3 from 29. August 2011

Отчёт EAC об извлечении, выполненном 22. декабря 2012, 23:30

Don Covay / Mercy & See-Saw

Дисковод: ASUS DRW-24B3ST Adapter: 4 ID: 0

Режим чтения : Достоверность
Использование точного потока : Да
Отключение кэша аудио : Да
Использование указателей C2 : Нет

Коррекция смещения при чтении : 6
Способность читать области Lead-in и Lead-out : Нет
Заполнение пропущенных сэмплов тишиной : Да
Удаление блоков с тишиной в начале и конце : Нет
При вычислениях CRC использовались нулевые сэмплы : Да
Интерфейс : Встроенный Win32-интерфейс для Win NT/2000
Обработка зазоров : Добавлено к предыдущему треку

Выходной формат : Пользовательский кодировщик
Выбранный битрейт : 128 kBit/s
Качество : Высокий
Добавление ID3-тега : Нет
Утилита сжатия : C:\Program Files\Exact Audio Copy\Flac\flac.exe
Дополнительные параметры : -V -8 -T "Date=%year%" -T "Genre=%genre%" %source%


TOC извлечённого CD

Трек | Старт | Длительность | Начальный сектор | Конечный сектор
––––––––––––––––––––––––––––––––––-
1 | 0:00.32 | 2:26.53 | 32 | 11034
2 | 2:27.10 | 3:17.22 | 11035 | 25831
3 | 5:44.32 | 2:19.38 | 25832 | 36294
4 | 8:03.70 | 2:51.17 | 36295 | 49136
5 | 10:55.12 | 2:51.68 | 49137 | 62029
6 | 13:47.05 | 3:30.72 | 62030 | 77851
7 | 17:18.02 | 2:31.30 | 77852 | 89206
8 | 19:49.32 | 2:22.43 | 89207 | 99899
9 | 22:12.00 | 3:24.20 | 99900 | 115219
10 | 25:36.20 | 2:37.35 | 115220 | 127029
11 | 28:13.55 | 2:26.60 | 127030 | 138039
12 | 30:40.40 | 3:26.55 | 138040 | 153544
13 | 34:07.20 | 3:00.65 | 153545 | 167109
14 | 37:08.10 | 2:03.55 | 167110 | 176389
15 | 39:11.65 | 2:33.07 | 176390 | 187871
16 | 41:44.72 | 2:35.58 | 187872 | 199554
17 | 44:20.55 | 2:43.10 | 199555 | 211789
18 | 47:03.65 | 2:56.40 | 211790 | 225029
19 | 50:00.30 | 2:51.05 | 225030 | 237859
20 | 52:51.35 | 2:46.02 | 237860 | 250311
21 | 55:37.37 | 2:08.18 | 250312 | 259929
22 | 57:45.55 | 2:37.45 | 259930 | 271749
23 | 60:23.25 | 2:45.70 | 271750 | 284194


Трек 1

Имя файла C:\Documents and Settings\Sergei\Мои документы\Моя музыка\EAC\01. Mercy, Mercy.wav

Длина предзазора 0:00:02.32

Пиковый уровень 98.8 %
Скорость извлечения 3.9 X
Качество трека 99.9 %
CRC теста 4DDC25EE
CRC копии 4DDC25EE
Точное извлечение (достоверность 6) [64CDDE2F] (AR v1)
Копирование… OK

Трек 2

Имя файла C:\Documents and Settings\Sergei\Мои документы\Моя музыка\EAC\02. I'll Be Satisfied.wav

Длина предзазора 0:00:02.45

Пиковый уровень 97.7 %
Скорость извлечения 5.5 X
Качество трека 100.0 %
CRC теста 1E118F10
CRC копии 1E118F10
Точное извлечение (достоверность 6) [15546F9E] (AR v1)
Копирование… OK

Трек 3

Имя файла C:\Documents and Settings\Sergei\Мои документы\Моя музыка\EAC\03. Come On In.wav

Длина предзазора 0:00:02.72

Пиковый уровень 97.7 %
Скорость извлечения 5.5 X
Качество трека 100.0 %
CRC теста 30368F81
CRC копии 30368F81
Точное извлечение (достоверность 5) [41D95D4A] (AR v1)
Копирование… OK

Трек 4

Имя файла C:\Documents and Settings\Sergei\Мои документы\Моя музыка\EAC\04. Can't Stay Away.wav

Длина предзазора 0:00:02.58

Пиковый уровень 98.8 %
Скорость извлечения 6.0 X
Качество трека 100.0 %
CRC теста 414AE89B
CRC копии 414AE89B
Точное извлечение (достоверность 6) [B929E2A2] (AR v1)
Копирование… OK

Трек 5

Имя файла C:\Documents and Settings\Sergei\Мои документы\Моя музыка\EAC\05. Can't Fight It Baby.wav

Длина предзазора 0:00:02.45

Пиковый уровень 88.2 %
Скорость извлечения 6.3 X
Качество трека 100.0 %
CRC теста F3E525CE
CRC копии F3E525CE
Точное извлечение (достоверность 6) [1F89AE1C] (AR v1)
Копирование… OK

Трек 6

Имя файла C:\Documents and Settings\Sergei\Мои документы\Моя музыка\EAC\06. You're Good For Me.wav

Длина предзазора 0:00:03.00

Пиковый уровень 95.5 %
Скорость извлечения 6.8 X
Качество трека 100.0 %
CRC теста DFA74042
CRC копии DFA74042
Точное извлечение (достоверность 5) [152B9F53] (AR v1)
Копирование… OK

Трек 7

Имя файла C:\Documents and Settings\Sergei\Мои документы\Моя музыка\EAC\07. Take This Hurt Off Me.wav

Длина предзазора 0:00:02.65

Пиковый уровень 97.7 %
Скорость извлечения 5.6 X
Качество трека 99.9 %
CRC теста 514605BA
CRC копии 514605BA
Точное извлечение (достоверность 6) [716C1922] (AR v1)
Копирование… OK

Трек 8

Имя файла C:\Documents and Settings\Sergei\Мои документы\Моя музыка\EAC\08. Daddy Loves Baby.wav

Длина предзазора 0:00:02.57

Пиковый уровень 97.7 %
Скорость извлечения 6.8 X
Качество трека 100.0 %
CRC теста 2A75978E
CRC копии 2A75978E
Точное извлечение (достоверность 6) [82A527C3] (AR v1)
Копирование… OK

Трек 9

Имя файла C:\Documents and Settings\Sergei\Мои документы\Моя музыка\EAC\09. Come See About Me.wav

Длина предзазора 0:00:02.70

Пиковый уровень 97.7 %
Скорость извлечения 7.6 X
Качество трека 100.0 %
CRC теста 936A653E
CRC копии 936A653E
Точное извлечение (достоверность 6) [F67CFB5A] (AR v1)
Копирование… OK

Трек 10

Имя файла C:\Documents and Settings\Sergei\Мои документы\Моя музыка\EAC\10. You Must Believe In Me.wav

Длина предзазора 0:00:03.23

Пиковый уровень 98.8 %
Скорость извлечения 7.5 X
Качество трека 100.0 %
CRC теста 45884C8E
CRC копии 45884C8E
Точное извлечение (достоверность 6) [D81DDD37] (AR v1)
Копирование… OK

Трек 11

Имя файла C:\Documents and Settings\Sergei\Мои документы\Моя музыка\EAC\11. Please Don't Let Me Know.wav

Длина предзазора 0:00:03.35

Пиковый уровень 98.8 %
Скорость извлечения 7.5 X
Качество трека 100.0 %
CRC теста 5EF413DE
CRC копии 5EF413DE
Точное извлечение (достоверность 6) [6B84BAC6] (AR v1)
Копирование… OK

Трек 12

Имя файла C:\Documents and Settings\Sergei\Мои документы\Моя музыка\EAC\12. Just Because.wav

Длина предзазора 0:00:02.65

Пиковый уровень 100.0 %
Скорость извлечения 8.2 X
Качество трека 100.0 %
CRC теста 40567746
CRC копии 40567746
Точное извлечение (достоверность 6) [DEE8EAB8] (AR v1)
Копирование… OK

Трек 13

Имя файла C:\Documents and Settings\Sergei\Мои документы\Моя музыка\EAC\13. See-Saw.wav

Длина предзазора 0:00:03.00

Пиковый уровень 98.8 %
Скорость извлечения 8.3 X
Качество трека 100.0 %
CRC теста DA04D58C
CRC копии DA04D58C
Точное извлечение (достоверность 6) [FB5CAFB9] (AR v1)
Копирование… OK

Трек 14

Имя файла C:\Documents and Settings\Sergei\Мои документы\Моя музыка\EAC\14. The Boomerang.wav

Длина предзазора 0:00:02.60

Пиковый уровень 95.5 %
Скорость извлечения 7.9 X
Качество трека 100.0 %
CRC теста A9A6AE55
CRC копии A9A6AE55
Точное извлечение (достоверность 6) [B033F723] (AR v1)
Копирование… OK

Трек 15

Имя файла C:\Documents and Settings\Sergei\Мои документы\Моя музыка\EAC\15. Everything Gonna Be Everything.wav

Длина предзазора 0:00:02.70

Пиковый уровень 97.7 %
Скорость извлечения 8.4 X
Качество трека 100.0 %
CRC теста 18C2732A
CRC копии 18C2732A
Точное извлечение (достоверность 6) [2DA4485A] (AR v1)
Копирование… OK

Трек 16

Имя файла C:\Documents and Settings\Sergei\Мои документы\Моя музыка\EAC\16. Fat Man.wav

Длина предзазора 0:00:02.22

Пиковый уровень 97.7 %
Скорость извлечения 8.6 X
Качество трека 100.0 %
CRC теста 07552A82
CRC копии 07552A82
Точное извлечение (достоверность 6) [271BFAE2] (AR v1)
Копирование… OK

Трек 17

Имя файла C:\Documents and Settings\Sergei\Мои документы\Моя музыка\EAC\17. Preciouse You.wav

Длина предзазора 0:00:02.45

Пиковый уровень 97.7 %
Скорость извлечения 8.9 X
Качество трека 100.0 %
CRC теста FE15B50A
CRC копии FE15B50A
Точное извлечение (достоверность 6) [4C7BBC28] (AR v1)
Копирование… OK

Трек 18

Имя файла C:\Documents and Settings\Sergei\Мои документы\Моя музыка\EAC\18. Iron Out The Rough Spots.wav

Длина предзазора 0:00:02.55

Пиковый уровень 98.8 %
Скорость извлечения 9.2 X
Качество трека 100.0 %
CRC теста B8763571
CRC копии B8763571
Точное извлечение (достоверность 6) [397689B1] (AR v1)
Копирование… OK

Трек 19

Имя файла C:\Documents and Settings\Sergei\Мои документы\Моя музыка\EAC\19. Please Do Something.wav

Длина предзазора 0:00:03.05

Пиковый уровень 94.4 %
Скорость извлечения 9.3 X
Качество трека 100.0 %
CRC теста F88F8FBA
CRC копии F88F8FBA
Точное извлечение (достоверность 6) [EE2567BC] (AR v1)
Копирование… OK

Трек 20

Имя файла C:\Documents and Settings\Sergei\Мои документы\Моя музыка\EAC\20. I Never Get Enough Of Your Love.wav

Длина предзазора 0:00:02.18

Пиковый уровень 97.7 %
Скорость извлечения 9.6 X
Качество трека 100.0 %
CRC теста F2D0A238
CRC копии F2D0A238
Точное извлечение (достоверность 6) [04D5F226] (AR v1)
Копирование… OK

Трек 21

Имя файла C:\Documents and Settings\Sergei\Мои документы\Моя музыка\EAC\21. The Usual Place.wav

Длина предзазора 0:00:03.07

Пиковый уровень 98.8 %
Скорость извлечения 9.1 X
Качество трека 100.0 %
CRC теста 69A5E974
CRC копии 69A5E974
Точное извлечение (достоверность 6) [FB856C3A] (AR v1)
Копирование… OK

Трек 22

Имя файла C:\Documents and Settings\Sergei\Мои документы\Моя музыка\EAC\22. A Woman's Love.wav

Длина предзазора 0:00:03.33

Пиковый уровень 98.8 %
Скорость извлечения 9.6 X
Качество трека 100.0 %
CRC теста DA54F055
CRC копии DA54F055
Точное извлечение (достоверность 6) [27014F3D] (AR v1)
Копирование… OK

Трек 23

Имя файла C:\Documents and Settings\Sergei\Мои документы\Моя музыка\EAC\23. Sookie Sookie.wav

Длина предзазора 0:00:03.10

Пиковый уровень 97.7 %
Скорость извлечения 10.0 X
Качество трека 100.0 %
CRC теста C4D33EE5
CRC копии C4D33EE5
Точное извлечение (достоверность 6) [9CB4D560] (AR v1)
Копирование… OK


Все треки извлечены точно

Ошибок не произошло

Конец отчёта

==== Контрольная сумма отчёта 8BEFBC5299E24EE651F07FE42C562A1475598EF5A297143CAE26B8057677E9F7 ====

[CUETools log; Date: 09.08.2018 3:04:53; Version: 2.1.4]
Pregap length 00:00:32.
[CTDB TOCID: Bw0CQEfGw5DNGa0fiLDxOS7mJFg-] found.
Track | CTDB Status
1 | (5/5) Accurately ripped
2 | (5/5) Accurately ripped
3 | (5/5) Accurately ripped
4 | (5/5) Accurately ripped
5 | (5/5) Accurately ripped
6 | (5/5) Accurately ripped
7 | (5/5) Accurately ripped
8 | (5/5) Accurately ripped
9 | (5/5) Accurately ripped
10 | (5/5) Accurately ripped
11 | (5/5) Accurately ripped
12 | (5/5) Accurately ripped
13 | (5/5) Accurately ripped
14 | (5/5) Accurately ripped
15 | (5/5) Accurately ripped
16 | (5/5) Accurately ripped
17 | (5/5) Accurately ripped
18 | (5/5) Accurately ripped
19 | (5/5) Accurately ripped
20 | (5/5) Accurately ripped
21 | (5/5) Accurately ripped
22 | (5/5) Accurately ripped
23 | (5/5) Accurately ripped
[AccurateRip ID: 0034bfb5-036d564f-3f0ecd17] found.
Track [ CRC | V2 ] Status
01 [64cdde2f|f2361dca] (06+07/13) Accurately ripped
02 [15546f9e|2e688110] (06+06/12) Accurately ripped
03 [41d95d4a|7deb2a92] (05+06/11) Accurately ripped
04 [b929e2a2|56f5644a] (06+06/12) Accurately ripped
05 [1f89ae1c|76f86c7b] (06+06/12) Accurately ripped
06 [152b9f53|6276d89c] (05+06/11) Accurately ripped
07 [716c1922|9fa3efbd] (06+06/12) Accurately ripped
08 [82a527c3|38f41510] (06+06/12) Accurately ripped
09 [f67cfb5a|05726b75] (06+06/12) Accurately ripped
10 [d81ddd37|8c99991c] (06+06/12) Accurately ripped
11 [6b84bac6|555a1a6c] (06+06/12) Accurately ripped
12 [dee8eab8|c8bc34df] (06+06/12) Accurately ripped
13 [fb5cafb9|799a97f0] (06+06/12) Accurately ripped
14 [b033f723|6e745542] (06+06/12) Accurately ripped
15 [2da4485a|cdf28424] (06+06/12) Accurately ripped
16 [271bfae2|e2cf7fe6] (06+06/12) Accurately ripped
17 [4c7bbc28|ba22412f] (06+06/12) Accurately ripped
18 [397689b1|0ff9efb5] (06+06/12) Accurately ripped
19 [ee2567bc|57071aad] (06+06/12) Accurately ripped
20 [04d5f226|edd3003f] (06+06/12) Accurately ripped
21 [fb856c3a|5064df6f] (06+06/12) Accurately ripped
22 [27014f3d|7cdbddb3] (06+06/12) Accurately ripped
23 [9cb4d560|15af96ba] (06+06/12) Accurately ripped

Track Peak [ CRC32 ] [W/O NULL] [ LOG ]
– 100,0 [A003BFCC] [DAB51386]
01 98,8 [4DDC25EE] [928945A1] CRC32
02 97,7 [1E118F10] [390A925C] CRC32
03 97,7 [30368F81] [69D6F030] CRC32
04 98,8 [414AE89B] [3FF765D7] CRC32
05 88,2 [F3E525CE] [13C7006F] CRC32
06 95,5 [DFA74042] [A7809B3E] CRC32
07 97,7 [514605BA] [87B4EFF6] CRC32
08 97,7 [2A75978E] [26E882A5] CRC32
09 97,7 [936A653E] [29FE7604] CRC32
10 98,8 [45884C8E] [743ADA6C] CRC32
11 98,8 [5EF413DE] [39C6DE29] CRC32
12 100,0 [40567746] [D15D78B3] CRC32
13 98,8 [DA04D58C] [1756C0BE] CRC32
14 95,5 [A9A6AE55] [AB2AE13F] CRC32
15 97,7 [18C2732A] [BEF715F6] CRC32
16 97,7 [07552A82] [17D6CFA9] CRC32
17 97,7 [FE15B50A] [300DDA03] CRC32
18 98,8 [B8763571] [336B4809] CRC32
19 94,4 [F88F8FBA] [41F9888F] CRC32
20 97,7 [F2D0A238] [4B007B92] CRC32
21 98,8 [69A5E974] [5554C6EB] CRC32
22 98,8 [DA54F055] [FF5D9BED] CRC32
23 97,7 [C4D33EE5] [53B4C330] CRC32

foobar2000 1.2 / Dynamic Range Meter 1.1.1
log date: 2018-08-09 02:57:05

––––––––––––––––––––––––––––––––––––––––
Analyzed: Don Covay / Mercy '65 & See-Saw '66
––––––––––––––––––––––––––––––––––––––––

DR Peak RMS Duration Track
––––––––––––––––––––––––––––––––––––––––
DR11 -0.10 dB -13.44 dB 2:27 01-Mercy,Mercy
DR10 -0.20 dB -13.05 dB 3:17 02-I`ll Be Satisfied
DR11 -0.20 dB -13.25 dB 2:20 03-Come On In
DR11 -0.10 dB -13.03 dB 2:51 04-Can`t Stay Away
DR10 -1.09 dB -12.44 dB 2:52 05-Can`t Fight It Baby
DR9 -0.40 dB -12.26 dB 3:31 06-You`re Good For Me
DR11 -0.20 dB -13.80 dB 2:31 07-Take This Hurt Off Me
DR12 -0.20 dB -14.12 dB 2:23 08-Daddy Loves Baby
DR12 -0.20 dB -14.19 dB 3:24 09-Come See About Me
DR11 -0.10 dB -12.98 dB 2:37 10-You Must Believe In Me
DR10 -0.10 dB -12.00 dB 2:27 11-Please Don`t Let Me Know
DR11 0.00 dB -13.23 dB 3:27 12-Just Because
DR11 -0.10 dB -13.57 dB 3:01 13-See-Saw
DR9 -0.40 dB -12.47 dB 2:04 14-The Boomerang
DR10 -0.20 dB -13.01 dB 2:33 15-Everything Gonna Be Everthing
DR10 -0.20 dB -12.78 dB 2:36 16-Fat Man
DR10 -0.20 dB -14.23 dB 2:43 17-Precious You
DR13 -0.10 dB -14.93 dB 2:57 18-Iron Out The Rough Spots
DR10 -0.50 dB -12.78 dB 2:51 19-Please Do Something
DR10 -0.20 dB -13.65 dB 2:46 20-I Never Get Enough Of Your Love
DR9 -0.10 dB -12.11 dB 2:08 21-The Usual Place
DR11 -0.10 dB -13.99 dB 2:38 22-A Woman`s Love
DR11 -0.20 dB -12.18 dB 2:46 23-Sookie Sookie
––––––––––––––––––––––––––––––––––––––––

Number of tracks: 23
Official DR value: DR11

Samplerate: 44100 Hz
Channels: 2
Bits per sample: 16
Bitrate: 833 kbps
Codec: FLAC
================================================================================

Don Covay - Mercy (1965) + See-Saw (1966) 2 LP on 1 CD, 2000

Don Covay - Mercy (1965) + See-Saw (1966) 2 LP on 1 CD, 2000

All thanks to original releaser - Gera1957

More interesting music in My Blog