Tags
Language
Tags

Patrick Doyle & VA - Donnie Brasco: Original Soundtrack (1997) [Re-Up]

Posted By: Efgrapha
Patrick Doyle & VA - Donnie Brasco: Original Soundtrack (1997) [Re-Up]

Patrick Doyle & VA - Donnie Brasco: Original Soundtrack (1997)
EAC | FLAC (Tracks) + cue.+log ~ 378 Mb | Scans included | Time: 00:59:12
Soundtrack, Score, Pop/Rock, R&B, Disco, Jazz-Funk | Label: Hollywood | # 162 102-2

The soundtrack to the period gangster movie Donnie Brasco highlights the music of the film's 1970s milieu, including hits from Electric Light Orchestra, Blondie, the Trammps, Neil Diamond, Dean Martin, The Miracles, Herbie Hancock.

This soundtrack is an interesting mix of different styles and eras of music. This soundtrack does an effective job in conveying the different scenes and moods of the movie "Donnie Brasco". I would highly recommend this CD to anyone who enjoyed the movie enough to watch it more than once. Each song brings back a specific scene from the movie. Listening to the soundtrack and remembering the scenes from the movie is a delight!

RxSuze, Amazon

Patrick Doyle & VA - Donnie Brasco: Original Soundtrack (1997) [Re-Up]


~ IMDB
~ Wiki


Tracklist:

01. Dinah Washington - A Stranger On Earth (2:57)
02. Lou Monte - (The Gang That Sang) Heart Of My Heart (2:33)
03. The Pointer Sisters - Happiness (3:58)
04. Bobby Caldwell - What You Won't Do For Love (4:44)
05. Blondie - Heart Of Glass (4:34)
06. The Miracles - Love Machine - Pt. I (3:01)
07. Electric Light Orchestra - Don't Bring Me Down (4:03)
08. Trammps - Disco Inferno (10:55)
09. Robbie Dupree - Brooklyn Girls (3:24)
10. Dean Martin - Return to Me (2:24)
11. El Chicano - The Latin One (4:40)
12. Herbie Hancock - Just Around The Corner (7:35)
13. Patrick Doyle - Donnie And Lefty (4:25)


Exact Audio Copy V0.99 prebeta 4 from 23. January 2008

EAC extraction logfile from 24. March 2011, 17:51

Various / Donnie Brasco

Used drive : Optiarc DVD RW AD-7241S Adapter: 1 ID: 1

Read mode : Secure
Utilize accurate stream : Yes
Defeat audio cache : Yes
Make use of C2 pointers : No

Read offset correction : 48
Overread into Lead-In and Lead-Out : No
Fill up missing offset samples with silence : Yes
Delete leading and trailing silent blocks : No
Null samples used in CRC calculations : Yes
Used interface : Installed external ASPI interface
Gap handling : Appended to previous track

Used output format : User Defined Encoder
Selected bitrate : 1024 kBit/s
Quality : High
Add ID3 tag : No
Command line compressor : C:\Program Files\Exact Audio Copy\Flac\flac.exe
Additional command line options : -8 -V -T "ARTIST=%a" -T "TITLE=%t" -T "ALBUM=%g" -T "DATE=%y" -T "TRACKNUMBER=%n" -T "GENRE=%m" -T "COMMENT=EAC FLAC -8" %s


TOC of the extracted CD

Track | Start | Length | Start sector | End sector
––––––––––––––––––––––––––––-
1 | 0:00.00 | 2:57.07 | 0 | 13281
2 | 2:57.07 | 2:32.48 | 13282 | 24729
3 | 5:29.55 | 3:57.45 | 24730 | 42549
4 | 9:27.25 | 4:44.07 | 42550 | 63856
5 | 14:11.32 | 4:34.18 | 63857 | 84424
6 | 18:45.50 | 3:00.50 | 84425 | 97974
7 | 21:46.25 | 4:02.45 | 97975 | 116169
8 | 25:48.70 | 10:54.65 | 116170 | 165284
9 | 36:43.60 | 3:24.10 | 165285 | 180594
10 | 40:07.70 | 2:23.50 | 180595 | 191369
11 | 42:31.45 | 4:40.25 | 191370 | 212394
12 | 47:11.70 | 7:34.40 | 212395 | 246484
13 | 54:46.35 | 4:25.22 | 246485 | 266381


Track 1

Filename F:\torrent\Donnie Brasco_OST\OST\01. Dinah Washington – A Stranger On Earth.wav

Pre-gap length 0:00:02.00

Peak level 96.1 %
Track quality 100.0 %
Test CRC B85D953B
Copy CRC B85D953B
Accurately ripped (confidence 1) [F89B0C3C]
Copy OK

Track 2

Filename F:\torrent\Donnie Brasco_OST\OST\02. Lou Monte – (The Gang That Sang) Heart Of My Heart.wav

Peak level 88.9 %
Track quality 100.0 %
Test CRC 67EF17A1
Copy CRC 67EF17A1
Accurately ripped (confidence 1) [83A8506A]
Copy OK

Track 3

Filename F:\torrent\Donnie Brasco_OST\OST\03. The Pointer Sisters – Happiness.wav

Pre-gap length 0:00:01.60

Peak level 99.9 %
Track quality 100.0 %
Test CRC 29B5E728
Copy CRC 29B5E728
Accurately ripped (confidence 1) [BF5B22DB]
Copy OK

Track 4

Filename F:\torrent\Donnie Brasco_OST\OST\04. Bobby Caldwell – What You Won't Do For Love.wav

Peak level 99.9 %
Track quality 100.0 %
Test CRC 3AE1B569
Copy CRC 3AE1B569
Accurately ripped (confidence 2) [434EA140]
Copy OK

Track 5

Filename F:\torrent\Donnie Brasco_OST\OST\05. Blondie – Heart Of Glass.wav

Peak level 99.9 %
Track quality 100.0 %
Test CRC 88233B26
Copy CRC 88233B26
Accurately ripped (confidence 2) [C205648A]
Copy OK

Track 6

Filename F:\torrent\Donnie Brasco_OST\OST\06. The Miracles – Love Machine - Pt. I.wav

Peak level 100.0 %
Track quality 99.9 %
Test CRC 07FF8715
Copy CRC 07FF8715
Accurately ripped (confidence 1) [60129FE4]
Copy OK

Track 7

Filename F:\torrent\Donnie Brasco_OST\OST\07. Electric Light Orchestra – Don't Bring Me Down.wav

Peak level 78.7 %
Track quality 100.0 %
Test CRC A50127D9
Copy CRC A50127D9
Accurately ripped (confidence 2) [8667C31B]
Copy OK

Track 8

Filename F:\torrent\Donnie Brasco_OST\OST\08. Trammps – Disco Inferno.wav

Peak level 97.2 %
Track quality 100.0 %
Test CRC 68A88561
Copy CRC 68A88561
Accurately ripped (confidence 2) [D93016F8]
Copy OK

Track 9

Filename F:\torrent\Donnie Brasco_OST\OST\09. Robbie Dupree – Brooklyn Girls.wav

Peak level 99.9 %
Track quality 100.0 %
Test CRC EF34B9CA
Copy CRC EF34B9CA
Accurately ripped (confidence 1) [20C9EAD6]
Copy OK

Track 10

Filename F:\torrent\Donnie Brasco_OST\OST\10. Dean Martin – Return to Me.wav

Peak level 98.1 %
Track quality 100.0 %
Test CRC 7DCC57FC
Copy CRC 7DCC57FC
Accurately ripped (confidence 1) [27583710]
Copy OK

Track 11

Filename F:\torrent\Donnie Brasco_OST\OST\11. El Chicano – The Latin One.wav

Peak level 100.0 %
Track quality 99.9 %
Test CRC 16E12F05
Copy CRC 16E12F05
Cannot be verified as accurate (confidence 1) [15FAEEF4], AccurateRip returned [576751A3]
Copy OK

Track 12

Filename F:\torrent\Donnie Brasco_OST\OST\12. Herbie Hancock – Just Around The Corner.wav

Peak level 98.8 %
Track quality 100.0 %
Test CRC 5674226F
Copy CRC 5674226F
Accurately ripped (confidence 1) [FBB10494]
Copy OK

Track 13

Filename F:\torrent\Donnie Brasco_OST\OST\13. Patrick Doyle – Donnie And Lefty.wav

Peak level 99.9 %
Track quality 100.0 %
Test CRC 4B6D41B1
Copy CRC 4B6D41B1
Accurately ripped (confidence 1) [C56FDEEC]
Copy OK


12 track(s) accurately ripped
1 track(s) could not be verified as accurate

Some tracks could not be verified as accurate

No errors occurred

End of status report

foobar2000 1.2 / Dynamic Range Meter 1.1.1
log date: 2017-04-23 03:24:22

––––––––––––––––––––––––––––––––––––––––
Analyzed: Blondie / Donnie Brasco (1)
Bobby Caldwell / Donnie Brasco (2)
Dean Martin / Donnie Brasco (3)
Dinah Washington / Donnie Brasco (4)
El Chicano / Donnie Brasco (5)
Electric Light Orchestra / Donnie Brasco (6)
Herbie Hancock / Donnie Brasco (7)
Lou Monte / Donnie Brasco (8)
Patrick Doyle / Donnie Brasco (9)
Robbie Dupree / Donnie Brasco (10)
The Miracles / Donnie Brasco (11)
The Pointer Sisters / Donnie Brasco (12)
Trammps / Donnie Brasco (13)
––––––––––––––––––––––––––––––––––––––––

DR Peak RMS Duration Track
––––––––––––––––––––––––––––––––––––––––
DR15 0.00 dB -17.10 dB 4:34 05-Heart Of Glass
DR14 0.00 dB -16.96 dB 4:44 04-What You Won't Do For Love
DR12 -0.16 dB -15.28 dB 2:24 10-Return to Me
DR11 -0.34 dB -15.01 dB 2:57 01-A Stranger On Earth
DR14 0.00 dB -15.82 dB 4:40 11-The Latin One
DR10 -2.07 dB -13.40 dB 4:03 07-Don't Bring Me Down
DR14 -0.10 dB -15.67 dB 7:35 12-Just Around The Corner
DR12 -1.02 dB -15.91 dB 2:33 02-(The Gang That Sang) Heart Of My Heart
DR12 0.00 dB -18.36 dB 4:25 13-Donnie And Lefty
DR12 0.00 dB -15.34 dB 3:24 09-Brooklyn Girls
DR12 0.00 dB -14.37 dB 3:01 06-Love Machine - Pt. I
DR13 0.00 dB -15.79 dB 3:58 03-Happiness
DR11 -0.24 dB -12.78 dB 10:55 08-Disco Inferno
––––––––––––––––––––––––––––––––––––––––

Number of tracks: 13
Official DR value: DR12

Samplerate: 44100 Hz
Channels: 2
Bits per sample: 16
Bitrate: 943 kbps
Codec: FLAC
================================================================================

Patrick Doyle & VA - Donnie Brasco: Original Soundtrack (1997) [Re-Up]

Patrick Doyle & VA - Donnie Brasco: Original Soundtrack (1997) [Re-Up]

All thanks to original uploader - Sarant

More Movies & Soundtracks in Efgrapha Blog

Film at AvaxHome:
Donnie Brasco (1997) Extended Edition, DVD9