Subcategories

Elvin Bishop - Big Fun (1988)

Posted By: Designol
Elvin Bishop - Big Fun (1988)

Elvin Bishop - Big Fun (1988)
EAC | FLAC | Image (Cue&Log) ~ 222 Mb | Mp3 (CBR320) ~ 86 Mb | Scans included
Modern Electric Blues, Blues-Rock | Label: Alligator | # ALCD 4767 | 00:35:59

When Bishop played guitar with Paul Butterfield in the 1960s he fancied himself a countrified hippie named Pig Boy Cranshaw. His sense of humor remains intact decades later, evidenced on a relaxed blues-oriented rock program shot through with a smart sort of bumpkin levity. He never could sing (it was Mickey Thomas on his 1970s smash "Fooled Around and Fell in Love"), but his guitar rides roughshod over those of many a better-known blues artist.

Review by Frank John Hadley, From Grove Press Guide to Blues on CD

In the 10 years between the release of Hog Heaven and this comeback record, Elvin Bishop was represented in record stores by a Best Of on Capricorn and an album released only in Germany (Is You Is Or Is You Ain't My Baby? on Line Records). Then he signed with Bruce Iglauer's independent blues label Alligator and made this record, which, naturally, emphasizes his more blues-oriented guitar playing, although without sacrificing his country boy identity. Dr. John tickles some of the ivories, and harmonica player Norton Buffalo (of Commander Cody and His Lost Planet Airmen) also guests.

Review by William Ruhlmann, Allmusic.com

Elvin Bishop - Big Fun (1988)



Tracklist:

01. Don't You Lie To Me (3:08)
02. Beer Drinking Woman (4:14)
03. Oklahoma Country Girl (2:51)
04. My Dog (3:34)
05. Midnight Hour Blues (3:34)
06. No Broken hearts (2:50)
07. The Right String But the Wrong Yo Yo (2:37)
08. She Puts Me In The Mood (3:35)
09. Country Boy (3:04)
10. Honest I Do (3:04)
11. Fishin' Again (3:27)


Exact Audio Copy V1.1 from 23. June 2015

EAC extraction logfile from 23. March 2017, 23:14

Elvin Bishop / Big Fun

Used drive : Optiarc DVD RW AD-7240S Adapter: 1 ID: 0

Read mode : Secure
Utilize accurate stream : Yes
Defeat audio cache : Yes
Make use of C2 pointers : No

Read offset correction : 48
Overread into Lead-In and Lead-Out : No
Fill up missing offset samples with silence : Yes
Delete leading and trailing silent blocks : No
Null samples used in CRC calculations : Yes
Used interface : Native Win32 interface for Win NT & 2000

Used output format : User Defined Encoder
Selected bitrate : 896 kBit/s
Quality : High
Add ID3 tag : No
Command line compressor : C:\Program Files (x86)\Exact Audio Copy\Flac\flac.exe
Additional command line options : -6 -V -T "ARTIST=%artist%" -T "TITLE=%title%" -T "ALBUM=%albumtitle%" -T "DATE=%year%" -T "TRACKNUMBER=%tracknr%" -T "GENRE=%genre%" -T "COMMENT=%comment%" -T "BAND=%albuminterpret%" -T "COMPOSER=%composer%" %haslyrics%–tag-from-file=LYRICS="%lyricsfile%"%haslyrics% -T "DISCNUMBER=%cdnumber%" -T "TOTALDISCS=%totalcds%" -T "TOTALTRACKS=%numtracks%" %hascover%–picture="%coverfile%"%hascover% %source% -o %dest%


TOC of the extracted CD

Track | Start | Length | Start sector | End sector
––––––––––––––––––––––––––––-
1 | 0:00.00 | 3:07.50 | 0 | 14074
2 | 3:07.50 | 4:13.67 | 14075 | 33116
3 | 7:21.42 | 2:50.45 | 33117 | 45911
4 | 10:12.12 | 3:34.25 | 45912 | 61986
5 | 13:46.37 | 3:34.33 | 61987 | 78069
6 | 17:20.70 | 2:49.60 | 78070 | 90804
7 | 20:10.55 | 2:37.27 | 90805 | 102606
8 | 22:48.07 | 3:34.45 | 102607 | 118701
9 | 26:22.52 | 3:04.13 | 118702 | 132514
10 | 29:26.65 | 3:04.27 | 132515 | 146341
11 | 32:31.17 | 3:27.28 | 146342 | 161894


Range status and errors

Selected range

Filename D:\My Music Archive_D\__My Rips\Elvin Bishop - Big Fun\Elvin Bishop - Big Fun.wav

Peak level 100.0 %
Extraction speed 3.6 X
Range quality 100.0 %
Test CRC 7E208C09
Copy CRC 7E208C09
Copy OK

No errors occurred


AccurateRip summary

Track 1 cannot be verified as accurate (confidence 8) [A2DE76C2], AccurateRip returned [40EA4C0F] (AR v2)
Track 2 cannot be verified as accurate (confidence 7) [0F26F568], AccurateRip returned [A49E2925] (AR v2)
Track 3 cannot be verified as accurate (confidence 8) [3B49A575], AccurateRip returned [0F2ADB77] (AR v2)
Track 4 cannot be verified as accurate (confidence 8) [50B7FFEE], AccurateRip returned [5BDA2EA5] (AR v2)
Track 5 cannot be verified as accurate (confidence 8) [C2B4D481], AccurateRip returned [F1DFA72B] (AR v2)
Track 6 cannot be verified as accurate (confidence 8) [632A13B8], AccurateRip returned [34B230D0] (AR v2)
Track 7 cannot be verified as accurate (confidence 8) [56E3B7E5], AccurateRip returned [B149B096] (AR v2)
Track 8 cannot be verified as accurate (confidence 7) [824D2634], AccurateRip returned [F0F513B1] (AR v2)
Track 9 cannot be verified as accurate (confidence 8) [D96DF65A], AccurateRip returned [D9D8EA05] (AR v2)
Track 10 cannot be verified as accurate (confidence 8) [7FBFA6F3], AccurateRip returned [1E473AA6] (AR v2)
Track 11 cannot be verified as accurate (confidence 8) [14F89E02], AccurateRip returned [170412E4] (AR v2)

No tracks could be verified as accurate
You may have a different pressing from the one(s) in the database

End of status report

==== Log checksum 6CB676CE7544D429D1BA346D0D94E8A2151EEC7B3B42278FBEE636A515E7379A ====

[CUETools log; Date: 14.02.2018 23:35:59; Version: 2.1.4]
[CTDB TOCID: IlyIFeEQcPZ0Q3JMrckxGp7rQL8-] found.
Track | CTDB Status
1 | (13/14) Accurately ripped
2 | (14/14) Accurately ripped
3 | (14/14) Accurately ripped
4 | (14/14) Accurately ripped
5 | (14/14) Accurately ripped
6 | (14/14) Accurately ripped
7 | (14/14) Accurately ripped
8 | (14/14) Accurately ripped
9 | (14/14) Accurately ripped
10 | (14/14) Accurately ripped
11 | (14/14) Accurately ripped
[AccurateRip ID: 000f0bab-008193be-8e086e0b] found.
Track [ CRC | V2 ] Status
01 [603d282f|a2de76c2] (00+00/15) No match
02 [662dd7e3|0f26f568] (00+00/15) No match
03 [10bf12c9|3b49a575] (00+00/16) No match
04 [21bb13dc|50b7ffee] (00+00/16) No match
05 [a2bccf7e|c2b4d481] (00+00/16) No match
06 [34a033eb|632a13b8] (00+00/16) No match
07 [3f594439|56e3b7e5] (00+00/15) No match
08 [fabb44ae|824d2634] (00+00/15) No match
09 [d184eb17|d96df65a] (00+00/16) No match
10 [47c30f02|7fbfa6f3] (00+00/16) No match
11 [34f7b107|14f89e02] (00+00/16) No match
Offsetted by 2285:
01 [edb6b523] (06/15) Accurately ripped
02 [a49e2925] (07/15) Accurately ripped
03 [d6e1c83c] (07/16) Accurately ripped
04 [2e83550c] (07/16) Accurately ripped
05 [ee9e233b] (07/16) Accurately ripped
06 [855d9a98] (07/16) Accurately ripped
07 [ab18c1b4] (06/15) Accurately ripped
08 [f0f513b1] (07/15) Accurately ripped
09 [ac1c3472] (07/16) Accurately ripped
10 [02d86f71] (07/16) Accurately ripped
11 [0891d0e9] (07/16) Accurately ripped

Track Peak [ CRC32 ] [W/O NULL] [ LOG ]
– 100,0 [7E208C09] [65D7BD7D] CRC32
01 96,4 [FEA9851C] [D3FCB2A0]
02 100,0 [F5983A5B] [B2CECDFE]
03 90,5 [78637361] [F572F834]
04 85,9 [4005ADD1] [6F93F3C3]
05 82,0 [4EA1FC1B] [3ACFE0F1]
06 73,4 [665D5650] [9357A9E1]
07 82,9 [9DD55D1F] [EEFBBEF7]
08 98,5 [842A1157] [BB1DB1E1]
09 100,0 [4CA8EE47] [88F30227]
10 85,3 [92F15102] [DF7A2A81]
11 85,2 [0D62E262] [B6D09BBC]

foobar2000 1.2 / Dynamic Range Meter 1.1.1
log date: 2018-02-14 23:30:54

––––––––––––––––––––––––––––––––––––––––
Analyzed: Elvin Bishop / Big Fun
––––––––––––––––––––––––––––––––––––––––

DR Peak RMS Duration Track
––––––––––––––––––––––––––––––––––––––––
DR14 -0.31 dB -15.84 dB 3:08 01-Don't You Lie To Me
DR14 0.00 dB -17.10 dB 4:14 02-Beer Drinking Woman
DR13 -0.86 dB -14.94 dB 2:51 03-Oklahoma Country Girl
DR13 -1.32 dB -17.24 dB 3:34 04-My Dog
DR13 -1.72 dB -17.03 dB 3:34 05-Midnight Hour Blues
DR12 -2.68 dB -16.35 dB 2:50 06-No Broken hearts
DR13 -1.63 dB -16.30 dB 2:37 07-The Right String But the Wrong Yo Yo
DR14 -0.13 dB -15.95 dB 3:35 08-She Puts Me In The Mood
DR13 0.00 dB -15.11 dB 3:04 09-Country Boy
DR13 -1.37 dB -15.83 dB 3:04 10-Honest I Do
DR13 -1.39 dB -16.74 dB 3:27 11-Fishin' Again
––––––––––––––––––––––––––––––––––––––––

Number of tracks: 11
Official DR value: DR13

Samplerate: 44100 Hz
Channels: 2
Bits per sample: 16
Bitrate: 847 kbps
Codec: FLAC
================================================================================

Elvin Bishop - Big Fun (1988)

Elvin Bishop - Big Fun (1988)