Subcategories

Eugene Istomin: The Concerto And Solo Recordings (2015) 12CD Box Set [Re-Up]

Posted By: Designol
Eugene Istomin: The Concerto And Solo Recordings (2015) 12CD Box Set [Re-Up]

Eugene Istomin: The Concerto And Solo Recordings (2015) 12CD Box Set
EAC | FLAC | Image (Cue&Log) ~ 2.4 Gb | Mp3 (CBR320) ~ 1.4 Gb | Scans ~ 17 Mb
Classical | Label: Sony Classical | # 88875026172 | Time: 10:30:14

Eugene Istomin (1925–2003), one of America’s most respected pianists, was highly esteemed by audiences and colleagues alike for his mindful virtuosity and unusually wide-ranging repertoire. 2015 marks Istomin’s 90th birthday year, a milestone that Sony Classical celebrates with the first-ever release of his complete Columbia Masterworks concerto and solo recordings in a limited original-jacket collection including 10 previously unreleased studio recordings.

Many of these performances appear in their first authorized CD editions, including the 19-year-old pianist’s recorded debut in Bach’s D minor Concerto led by Adolf Busch; his youthful concerto collaborations with Pablo Casals; Chopin’s complete Nocturnes; Brahms’s Handel Variations; Schubert’s D major D 850 Sonata, plus the long-out-of-print Rachmaninoff 2nd, Tchaikovsky 1st, Brahms 2nd, and Beethoven 4th and 5th (“Emperor”) Concertos with Eugene Ormandy and the Philadelphia Orchestra. Newly remastered from the original analogue tapes, the discs are presented in facsimile sleeves and labels corresponding to the original LP releases. An enclosed booklet offers full discographical information, an essay by Jed Distler, and a photographic retrospective.

Istomin was born in New York City on November 26, 1925 to Russian parents who were nightclub singers. Following childhood studies with Kyriena Siloti, the daughter of Liszt pupil Alexander Siloti, Istomin enrolled at the Curtis Institute at thirteen, where he studied with Rudolf Serkin. In 1943 he won both the Philadelphia Youth Award and the coveted Leventritt Award, and made his Philadelphia Orchestra and New York Philharmonic concerto debuts in the same week. Istomin’s participation in the 1950 Prades Bach Festival launched his lifelong friendship with Pablo Casals. During the 1955 Ravinia Festival, Istomin teamed up with violinist Isaac Stern and cellist Leonard Rose for the first time in public, and a high profile, Grammy Award-winning Trio was born. Istomin commissioned and premiered Roger Sessions’ Piano Concerto, while championing other composers of his time like Henri Dutilleux and Ned Rorem. In 1988 Istomin undertook a four-month solo recital tour of thirty cities across North America, accompanied by his own piano technician and using a custom built truck to carry his pianos, and continued these tours for a total of eight years. He made his last recordings in 2001.

Past assessments of the pianist Eugene Istomin (1925-2003) have too often delivered the metaphorical verdict ‘always the bridesmaid, never the bride’. Istomin’s profile is invariably associated with the distinguished triumvirate, the Stern-Rose-Istomin Trio, and not much beyond that, at least not here in the UK. Sony Classical’s collection of ‘The Concerto and Solo Recordings’ serves to focus on a quite different side to Istomin’s art, a far more assertive player and, in Rachmaninov’s Second Concerto with Eugene Ormandy and the Philadelphia Orchestra, a virtuoso very much in the Byron Janis league. The year is 1956, the mono sound clear and immediate if just a little constricted, the concerto’s opening massive in the extreme, the fugato in the finale super-fast. It seems obvious to me that, like Earl Wild a few years later, Istomin took his principal lead from the composer’s own recordings of the piece, and the result is compelling in the extreme.

Likewise a set of Chopin Nocturnes from the previous year: largely unaffected playing informed by the merest suggestion of Rubinstein’s grandeur, tone and musical poise, though with a youthful, sometimes restless edge that places it on its own patch. I loved the impetuosity and poetry of Istomin’s Schumann Concerto under Bruno Walter, possibly the best Schumann we have from the conductor and very well recorded (in stereo). On the same disc, a further collaboration with Ormandy, Chopin’s Second Concerto, with tasteful characterisation throughout and a superb accompaniment.

Beethoven’s Triple with ‘the Trio’ is famous, as handsome a performance as exists anywhere on disc (I personally prefer it to the rather less genial Oistrakh-Richter-Rostropovich-Karajan version on EMI/Warner), now coupled with Beethoven’s Fourth Piano Concerto, a reading that glistens in every rippling detail and is, at times, reminiscent of Istomin’s teacher Rudolf Serkin, specifically Serkin’s mono recording (also with Ormandy and the Philadelphia). Among a handful of first releases are two Beethoven sonatas: the little F sharp minor, Op 78, always a good test for fastidious musical judgement (Istomin passes with flying colours), and a Waldstein Sonata from 1959, amazingly dextrous playing that reminded me of Solomon. A group of Schubert Impromptus displays similar qualities and there’s a big, very spontaneous-sounding account of Schubert’s D major Sonata, D850, a work in which Schnabel excelled: as Jed Distler’s excellent notes inform us, Istomin was very familiar with Schnabel’s style of playing. Stravinsky’s Sonata is another valuable first release, a performance notable for warmth rather than the more predictable angularity.

As to the rest, Tchaikovsky’s First Concerto, again with Ormandy, is at its most poignant at the start of the second movement, where cleanly unanimous pizzicatos and a gorgeous flute solo pave the way for Istomin’s melting first entry. Ormandy was well known as an exponent of Brahms’s Second Concerto – his recordings with Serkin attest to that – and, if anything, his partnership with Istomin presents an even more vital account of the orchestral score, perhaps the best from across the pond alongside Reiner in Chicago (for Gilels). Brahms’s Handel Variations are given with considerable virtuosity though I found the last of the three Intermezzos, Op 117, a mite too fast, even given the Andante con moto direction in the score.

But for me the most delightful surprise was the first disc, a programme of Bach and Mozart that opens with a valuable supplement to the Busch Chamber Players’ Bach legacy, an elegant though dramatic account of the great D minor Keyboard Concerto, BWV1042, where the 19-year-old Istomin combines the rhythmic resilience of Serkin with the poetic delicacy of Edwin Fischer. The cadenzas are energetically played, as is the first-movement cadenza for the Fifth Brandenburg Concerto, where Istomin’s performing partners are violinist Joseph Szigeti, flautist John Wummer and the Prades Festival Orchestra under Pablo Casals. At this relatively late point in his career Szigeti couldn’t always be relied upon to deliver unblemished goods, but here he does. We also have the Toccata and Fugue in E minor, BWV914, and, harking back to Serkin again, a vital performance of Mozart’s Piano Concerto No 14 in E flat, K449, with Casals and the Perpignan Festival Orchestra, that in key respects resembles the one that Serkin made pre-war with Busch and his orchestra. Altogether a very valuable collection (which sells for about £30) and an effective prompt not so much to re-evaluate Eugene Istomin as to grant him a status he was previously denied, at least within these shores.

Review by Rob Cowan, Gramophone Magazine

Eugene Istomin: The Concerto And Solo Recordings (2015) 12CD Box Set [Re-Up]







CD1 (1:15:54)

Johann Sebastian Bach

Keyboard Concerto No.1 in D minor, BWV 1052
01. I. Allegro (7:34)
02. II. Adagio (7:25)
03. III. Allegro (7:30)
- Busch Chamber Players
- Adolf Busch, conductor

Brandenburg Concerto No.5 in D major, BWV 1050
04. I. Allegro (11:16)
05. II. Affettuoso (6:21)
06. III. Allegro (5:41)
- Joseph Szigeti, violin
- John Wummer, flute
- Prades Festival Orchestra
- Pablo Casals, conductor

07. Toccata and Fugue in E Minor, BWV 914 (6:16)


Wolfgang Amadeus Mozart

Piano Concerto No.14 in E flat major, K 449
08. I. Allegro vivace (8:49)
09. II. Andantino (8:57)
10. III. Allegro ma non troppo (6:05)
- Perpignan Festival Orchestra
- Pablo Casals, conductor


Exact Audio Copy V1.1 from 23. June 2015

EAC extraction logfile from 13. September 2016, 21:07

Eugene Istomin / Eugene Istomin - The Concerto and Solo Recordings - CD01

Used drive : HL-DT-STDVDRAM GU70N Adapter: 1 ID: 0

Read mode : Secure
Utilize accurate stream : Yes
Defeat audio cache : Yes
Make use of C2 pointers : No

Read offset correction : 48
Overread into Lead-In and Lead-Out : No
Fill up missing offset samples with silence : Yes
Delete leading and trailing silent blocks : No
Null samples used in CRC calculations : Yes
Used interface : Native Win32 interface for Win NT & 2000

Used output format : User Defined Encoder
Selected bitrate : 128 kBit/s
Quality : High
Add ID3 tag : No
Command line compressor : C:\Program Files (x86)\Exact Audio Copy\Flac\flac.exe
Additional command line options : -V -8 -T "Date=%year%" -T "Genre=%genre%" %source%


TOC of the extracted CD

Track | Start | Length | Start sector | End sector
––––––––––––––––––––––––––––-
1 | 0:00.00 | 7:33.41 | 0 | 34015
2 | 7:33.41 | 7:24.59 | 34016 | 67374
3 | 14:58.25 | 7:29.57 | 67375 | 101106
4 | 22:28.07 | 11:16.06 | 101107 | 151812
5 | 33:44.13 | 6:20.74 | 151813 | 180386
6 | 40:05.12 | 5:41.24 | 180387 | 205985
7 | 45:46.36 | 6:16.07 | 205986 | 234192
8 | 52:02.43 | 8:49.14 | 234193 | 273881
9 | 60:51.57 | 8:56.54 | 273882 | 314135
10 | 69:48.36 | 6:05.09 | 314136 | 341519


Range status and errors

Selected range

Filename C:\temp\Eugene Istomin - The Concerto and Solo Recordings\CD01\Eugene Istomin - The Concerto and Solo Recordings - CD01.wav

Peak level 75.6 %
Extraction speed 2.2 X
Range quality 100.0 %
Test CRC 163ACB86
Copy CRC 163ACB86
Copy OK

No errors occurred


AccurateRip summary

Track 1 accurately ripped (confidence 1) [833FC9CE] (AR v2)
Track 2 accurately ripped (confidence 1) [C2999771] (AR v2)
Track 3 accurately ripped (confidence 1) [5415C379] (AR v2)
Track 4 accurately ripped (confidence 1) [F8A9E3B4] (AR v2)
Track 5 accurately ripped (confidence 1) [D6FA8A50] (AR v2)
Track 6 accurately ripped (confidence 1) [3D699A9D] (AR v2)
Track 7 accurately ripped (confidence 1) [496D952F] (AR v2)
Track 8 accurately ripped (confidence 1) [4404EB45] (AR v2)
Track 9 accurately ripped (confidence 1) [C1F1CCBF] (AR v2)
Track 10 accurately ripped (confidence 1) [AFA629F3] (AR v2)

All tracks accurately ripped

End of status report

==== Log checksum C955D303C58E3C76FEFBB88B5074A9D8844136B8AF22EE551231455FA25ABF46 ====

foobar2000 1.2 / Dynamic Range Meter 1.1.1
log date: 2017-07-29 18:14:32

––––––––––––––––––––––––––––––––––––––––
Analyzed: Eugene Istomin, Busch Chamber Players, Adolf Busch / Eugene Istomin - The Concerto and Solo Recordings - CD01 (1-3)
Eugene Istomin, Joseph Szigeti, John Wummer, Prades Festival Orchestra, Pablo Casals / Eugene Istomin - The Concerto and Solo Recordings - CD01 (4-6)
Eugene Istomin, Perpignan Festival Orchestra, Pablo Casals / Eugene Istomin - The Concerto and Solo Recordings - CD01 (7-9)
––––––––––––––––––––––––––––––––––––––––

DR Peak RMS Duration Track
––––––––––––––––––––––––––––––––––––––––
DR12 -2.42 dB -17.63 dB 7:34 01-Bach: Keyboard Concerto No.1 in D minor, BWV 1052 - I. Allegro
DR11 -4.04 dB -20.29 dB 7:25 02-Bach: Keyboard Concerto No.1 in D minor, BWV 1052 - II. Adagio
DR12 -2.44 dB -17.36 dB 7:30 03-Bach: Keyboard Concert No. 1 in D Minor, BWV 1052 - III. Allegro
DR11 -4.56 dB -19.24 dB 11:16 04-Bach: Brandenburg Concerto No.5 in D major, BWV 1050 - I. Allegro
DR11 -8.14 dB -22.93 dB 6:21 05-Bach: Brandenburg Concerto No.5 in D major, BWV 1050 - II. Affettuoso
DR11 -4.05 dB -18.16 dB 5:41 06-Bach: Brandenburg Concerto No.5 in D major, BWV 1050 - III. Allegro
DR11 -4.19 dB -19.04 dB 8:49 08-Mozart: Piano Concerto No.14 in E flat major, K 449 - I. Allegro vivace
DR11 -5.47 dB -22.77 dB 8:57 09-Mozart: Piano Concerto No.14 in E flat major, K 449 - II. Andantino
DR11 -5.14 dB -20.80 dB 6:05 10-Mozart: Piano Concerto No.14 in E flat major, K 449 - III. Allegro ma non troppo
––––––––––––––––––––––––––––––––––––––––

Number of tracks: 9
Official DR value: DR11

Samplerate: 44100 Hz
Channels: 2
Bits per sample: 16
Bitrate: 328 kbps
Codec: FLAC
================================================================================

––––––––––––––––––––––––––––––––––––––––
Statistics for: 07-Bach: Toccata and Fugue in E Minor, BWV 914
Number of samples: 16585716
Duration: 6:16
––––––––––––––––––––––––––––––––––––––––

Left Right

Peak Value: -6.21 dB –- -6.19 dB
Avg RMS: -20.45 dB –- -20.43 dB
DR channel: 10.44 dB –- 10.44 dB
––––––––––––––––––––––––––––––––––––––––

Official DR Value: DR10

Samplerate: 44100 Hz
Channels: 2
Bits per sample: 16
Bitrate: 328 kbps
Codec: FLAC
================================================================================




CD2: (48:56)

Frédéric Chopin

01. Nocturne No.1 in B flat minor, Op.9 No.1 (5:00)
02. Nocturne No.2 in E flat major, Op.9 No.2 (4:29)
03. Nocturne No.3 in B major, Op.9 No.3 (6:36)
04. Nocturne No.4 in F major, Op.15 No.1 (4:14)
05. Nocturne No.5 in F sharp major, Op.15 No.2 (3:44)
06. Nocturne No.6 in G minor, Op.15 No.3 (4:39)
07. Nocturne No.7 in C sharp minor, Op.27 No.1 (4:59)
08. Nocturne No.8 in D flat major, Op.27 No.2 (5:35)
09. Nocturne No.9 in B major, Op.32 No.1 (4:56)
10. Nocturne No.10 in A flat major, Op.32 No.2 (4:45)


Exact Audio Copy V1.1 from 23. June 2015

EAC extraction logfile from 13. September 2016, 21:37

Eugene Istomin / Eugene Istomin - The Concerto and Solo Recordings - CD02 - Chopin - Nocturnes

Used drive : HL-DT-STDVDRAM GU70N Adapter: 1 ID: 0

Read mode : Secure
Utilize accurate stream : Yes
Defeat audio cache : Yes
Make use of C2 pointers : No

Read offset correction : 48
Overread into Lead-In and Lead-Out : No
Fill up missing offset samples with silence : Yes
Delete leading and trailing silent blocks : No
Null samples used in CRC calculations : Yes
Used interface : Native Win32 interface for Win NT & 2000

Used output format : User Defined Encoder
Selected bitrate : 128 kBit/s
Quality : High
Add ID3 tag : No
Command line compressor : C:\Program Files (x86)\Exact Audio Copy\Flac\flac.exe
Additional command line options : -V -8 -T "Date=%year%" -T "Genre=%genre%" %source%


TOC of the extracted CD

Track | Start | Length | Start sector | End sector
––––––––––––––––––––––––––––-
1 | 0:00.00 | 5:00.21 | 0 | 22520
2 | 5:00.21 | 4:28.43 | 22521 | 42663
3 | 9:28.64 | 6:35.51 | 42664 | 72339
4 | 16:04.40 | 4:13.73 | 72340 | 91387
5 | 20:18.38 | 3:44.19 | 91388 | 108206
6 | 24:02.57 | 4:38.52 | 108207 | 129108
7 | 28:41.34 | 4:58.46 | 129109 | 151504
8 | 33:40.05 | 5:35.19 | 151505 | 176648
9 | 39:15.24 | 4:55.58 | 176649 | 198831
10 | 44:11.07 | 4:44.56 | 198832 | 220187


Range status and errors

Selected range

Filename C:\temp\Eugene Istomin - The Concerto and Solo Recordings\CD02\Eugene Istomin - The Concerto and Solo Recordings - CD02.wav

Peak level 92.7 %
Extraction speed 4.8 X
Range quality 99.9 %
Test CRC 6C888AF2
Copy CRC 6C888AF2
Copy OK

No errors occurred


AccurateRip summary

Track 1 accurately ripped (confidence 1) [178B6696] (AR v2)
Track 2 accurately ripped (confidence 1) [0289663F] (AR v2)
Track 3 accurately ripped (confidence 1) [E66EBF9D] (AR v2)
Track 4 accurately ripped (confidence 1) [3F072AA4] (AR v2)
Track 5 accurately ripped (confidence 1) [0FB5449B] (AR v2)
Track 6 accurately ripped (confidence 1) [D0809B91] (AR v2)
Track 7 accurately ripped (confidence 1) [02BC3664] (AR v2)
Track 8 accurately ripped (confidence 1) [751D248F] (AR v2)
Track 9 accurately ripped (confidence 1) [2B5DEF1E] (AR v2)
Track 10 accurately ripped (confidence 1) [BA59A645] (AR v2)

All tracks accurately ripped

End of status report

==== Log checksum 88C4803B7F58F978B9A14A00C686C0B7DA262B45BEB5506FE6DE2871385327EE ====

foobar2000 1.2 / Dynamic Range Meter 1.1.1
log date: 2017-07-29 18:14:50

––––––––––––––––––––––––––––––––––––––––
Analyzed: Eugene Istomin / Eugene Istomin - The Concerto and Solo Recordings - CD02 - Chopin - Nocturnes
––––––––––––––––––––––––––––––––––––––––

DR Peak RMS Duration Track
––––––––––––––––––––––––––––––––––––––––
DR11 -3.40 dB -19.73 dB 5:00 01-Nocturne No.1 in B flat minor, Op.9 No.1
DR12 -1.78 dB -18.95 dB 4:29 02-Nocturne No.2 in E flat major, Op.9 No.2
DR11 -2.07 dB -17.78 dB 6:36 03-Nocturne No.3 in B major, Op.9 No.3
DR11 -2.15 dB -19.32 dB 4:14 04-Nocturne No.4 in F major, Op.15 No.1
DR11 -2.85 dB -19.63 dB 3:44 05-Nocturne No.5 in F sharp major, Op.15 No.2
DR15 -1.15 dB -21.39 dB 4:39 06-Nocturne No.6 in G minor, Op.15 No.3
DR12 -0.66 dB -18.32 dB 4:59 07-Nocturne No.7 in C sharp minor, Op.27 No.1
DR12 -2.38 dB -19.13 dB 5:35 08-Nocturne No.8 in D flat major, Op.27 No.2
DR15 -0.77 dB -21.68 dB 4:56 09-Nocturne No.9 in B major, Op.32 No.1
DR11 -2.36 dB -18.54 dB 4:45 10-Nocturne No.10 in A flat major, Op.32 No.2
––––––––––––––––––––––––––––––––––––––––

Number of tracks: 10
Official DR value: DR12

Samplerate: 44100 Hz
Channels: 2
Bits per sample: 16
Bitrate: 535 kbps
Codec: FLAC
================================================================================




CD3: (48:45)

Frédéric Chopin

01. Nocturne No.11 in G minor, Op.37 No.1 (5:28)
02. Nocturne No.12 in G major, Op.37 No.2 (5:21)
03. Nocturne No.13 in C minor, Op.48 No.1 (5:27)
04. Nocturne No.14 in F sharp minor, Op.48 No.2 (7:40)
05. Nocturne No.15 in F minor, Op.55 No.1 (4:08)
06. Nocturne No.16 in E flat major, Op.55 No.2 (4:52)
07. Nocturne No.17 in B major, Op.62 No.1 (6:23)
08. Nocturne No.18 in E major, Op.62 No.2 (5:18)
09. Nocturne No.19 in E minor, Op.posth.72 No.1 (4:07)


Exact Audio Copy V1.1 from 23. June 2015

EAC extraction logfile from 13. September 2016, 22:16

Eugene Istomin / Eugene Istomin - The Concerto and Solo Recordings - CD03 - Chopin - Nocturnes

Used drive : HL-DT-STDVDRAM GU70N Adapter: 1 ID: 0

Read mode : Secure
Utilize accurate stream : Yes
Defeat audio cache : Yes
Make use of C2 pointers : No

Read offset correction : 48
Overread into Lead-In and Lead-Out : No
Fill up missing offset samples with silence : Yes
Delete leading and trailing silent blocks : No
Null samples used in CRC calculations : Yes
Used interface : Native Win32 interface for Win NT & 2000

Used output format : User Defined Encoder
Selected bitrate : 128 kBit/s
Quality : High
Add ID3 tag : No
Command line compressor : C:\Program Files (x86)\Exact Audio Copy\Flac\flac.exe
Additional command line options : -V -8 -T "Date=%year%" -T "Genre=%genre%" %source%


TOC of the extracted CD

Track | Start | Length | Start sector | End sector
––––––––––––––––––––––––––––-
1 | 0:00.00 | 5:27.73 | 0 | 24597
2 | 5:27.73 | 5:21.20 | 24598 | 48692
3 | 10:49.18 | 5:26.61 | 48693 | 73203
4 | 16:16.04 | 7:40.29 | 73204 | 107732
5 | 23:56.33 | 4:08.31 | 107733 | 126363
6 | 28:04.64 | 4:51.70 | 126364 | 148258
7 | 32:56.59 | 6:22.52 | 148259 | 176960
8 | 39:19.36 | 5:18.34 | 176961 | 200844
9 | 44:37.70 | 4:06.63 | 200845 | 219357


Range status and errors

Selected range

Filename C:\temp\Eugene Istomin - The Concerto and Solo Recordings\CD03\Eugene Istomin - The Concerto and Solo Recordings - CD03.wav

Peak level 80.2 %
Extraction speed 4.8 X
Range quality 100.0 %
Test CRC 9576805B
Copy CRC 9576805B
Copy OK

No errors occurred


AccurateRip summary

Track 1 accurately ripped (confidence 1) [8C7A287B] (AR v2)
Track 2 accurately ripped (confidence 1) [9A4C9A74] (AR v2)
Track 3 accurately ripped (confidence 1) [F0B32CEE] (AR v2)
Track 4 accurately ripped (confidence 1) [E360D31C] (AR v2)
Track 5 accurately ripped (confidence 1) [91FAC4FD] (AR v2)
Track 6 accurately ripped (confidence 1) [FFEC131B] (AR v2)
Track 7 accurately ripped (confidence 1) [0902F020] (AR v2)
Track 8 accurately ripped (confidence 1) [85ED4F3E] (AR v2)
Track 9 accurately ripped (confidence 1) [09479097] (AR v2)

All tracks accurately ripped

End of status report

==== Log checksum EA7A6A2717FFBE2CB7A3253EC33BCEAA2DF5652FD576CA11349BCA3253A37265 ====

foobar2000 1.2 / Dynamic Range Meter 1.1.1
log date: 2017-07-29 18:15:04

––––––––––––––––––––––––––––––––––––––––
Analyzed: Eugene Istomin / Eugene Istomin - The Concerto and Solo Recordings - CD03 - Chopin - Nocturnes
––––––––––––––––––––––––––––––––––––––––

DR Peak RMS Duration Track
––––––––––––––––––––––––––––––––––––––––
DR12 -4.81 dB -21.66 dB 5:28 01-Nocturne No.11 in G minor, Op.37 No.1
DR13 -5.45 dB -22.99 dB 5:21 02-Nocturne No.12 in G major, Op.37 No.2
DR12 -2.09 dB -19.68 dB 5:27 03-Nocturne No.13 in C minor, Op.48 No.1
DR13 -1.94 dB -20.31 dB 7:40 04-Nocturne No.14 in F sharp minor, Op.48 No.2
DR12 -2.74 dB -21.73 dB 4:08 05-Nocturne No.15 in F minor, Op.55 No.1
DR13 -4.67 dB -24.17 dB 4:52 06-Nocturne No.16 in E flat major, Op.55 No.2
DR14 -1.91 dB -22.09 dB 6:23 07-Nocturne No.17 in B major, Op.62 No.1
DR12 -3.51 dB -20.51 dB 5:18 08-Nocturne No.18 in E major, Op.62 No.2
DR12 -3.77 dB -22.12 dB 4:07 09-Nocturne No.19 in E minor, Op.posth.72 No.1
––––––––––––––––––––––––––––––––––––––––

Number of tracks: 9
Official DR value: DR13

Samplerate: 44100 Hz
Channels: 2
Bits per sample: 16
Bitrate: 403 kbps
Codec: FLAC
================================================================================




CD4 (31:43)

Sergey Rachmaninov

Piano Concerto No.2 in C minor, Op.18
01. I. Moderato (10:08)
02. II. Adagio sostenuto (10:38)
03. III. Allegro scherzando (10:57)


Exact Audio Copy V1.1 from 23. June 2015

EAC extraction logfile from 14. September 2016, 2:37

Eugene Istomin, The Philadelphia Orchestra, Eugene Ormandy / Eugene Istomin - The Concerto and Solo Recordings - CD04 - Rachmaninoff - Piano Concerto No.2

Used drive : HL-DT-STDVDRAM GU70N Adapter: 1 ID: 0

Read mode : Secure
Utilize accurate stream : Yes
Defeat audio cache : Yes
Make use of C2 pointers : No

Read offset correction : 48
Overread into Lead-In and Lead-Out : No
Fill up missing offset samples with silence : Yes
Delete leading and trailing silent blocks : No
Null samples used in CRC calculations : Yes
Used interface : Native Win32 interface for Win NT & 2000

Used output format : User Defined Encoder
Selected bitrate : 128 kBit/s
Quality : High
Add ID3 tag : No
Command line compressor : C:\Program Files (x86)\Exact Audio Copy\Flac\flac.exe
Additional command line options : -V -8 -T "Date=%year%" -T "Genre=%genre%" %source%


TOC of the extracted CD

Track | Start | Length | Start sector | End sector
––––––––––––––––––––––––––––-
1 | 0:00.00 | 10:07.72 | 0 | 45596
2 | 10:07.72 | 10:38.19 | 45597 | 93465
3 | 20:46.16 | 10:57.12 | 93466 | 142752


Range status and errors

Selected range

Filename C:\temp\Eugene Istomin - The Concerto and Solo Recordings\CD04\Eugene Istomin - The Concerto and Solo Recordings - CD04.wav

Peak level 77.6 %
Extraction speed 3.9 X
Range quality 99.9 %
Test CRC 2EA8DD5C
Copy CRC 2EA8DD5C
Copy OK

No errors occurred


AccurateRip summary

Track 1 accurately ripped (confidence 1) [4BA1A4A6] (AR v2)
Track 2 accurately ripped (confidence 1) [B29552EC] (AR v2)
Track 3 accurately ripped (confidence 1) [D9D5E36D] (AR v2)

All tracks accurately ripped

End of status report

==== Log checksum 7A2825F767D384F0A8CFF03A23C9995C7E4D79E77175A3C996EF60F145CB74FD ====

foobar2000 1.2 / Dynamic Range Meter 1.1.1
log date: 2017-07-29 18:15:15

––––––––––––––––––––––––––––––––––––––––
Analyzed: Eugene Istomin, The Philadelphia Orchestra, Eugene Ormandy / Eugene Istomin - The Concerto and Solo Recordings - CD04 - Rachmaninoff - Piano Concerto No.2
––––––––––––––––––––––––––––––––––––––––

DR Peak RMS Duration Track
––––––––––––––––––––––––––––––––––––––––
DR12 -3.47 dB -20.91 dB 10:08 01-Piano Concerto No.2 in C minor, Op.18 - I. Moderato
DR12 -4.56 dB -21.74 dB 10:38 02-Piano Concerto No.2 in C minor, Op.18 - II. Adagio sostenuto
DR12 -2.20 dB -18.96 dB 10:57 03-Piano Concerto No.2 in C minor, Op.18 - III. Allegro scherzando
––––––––––––––––––––––––––––––––––––––––

Number of tracks: 3
Official DR value: DR12

Samplerate: 44100 Hz
Channels: 2
Bits per sample: 16
Bitrate: 593 kbps
Codec: FLAC
================================================================================




CD5 (42:33)

Johannes Brahms

Intermezzi, Op.117
01. No.1 in E falt major (5:06)
02. No.2 in B flat minor (5:03)
03. No.3 in C sharp minor (4:50)

Variations and Fugue on a Theme by Handel, Op.24
04. Aria (0:55)
05. Variation I. Piu Vivo (0:48)
06. Variation II (0:39)
07. Variation III (0:50)
08. Variation IV (0:48)
09. Variation V (1:12)
10. Variation VI (1:06)
11. Variation VII (0:37)
12. Variation VIII (0:40)
13. Variation IX (1:03)
14. Variation X. Allegro (0:42)
15. Variation XI. Moderato (0:54)
16. Variation XII. L'istesso tempo (1:03)
17. Variation XIII. Largamente, ma non troppo (1:27)
18. Variation XIV (0:37)
19. Variation XV (0:46)
20. Variation XVI (0:35)
21. Variation XVII (0:32)
22. Variation XVIII (0:57)
23. Variation XIX (1:14)
24. Variation XX. Andante (1:25)
25. Variation XXI. Vivace (0:52)
26. Variation XXII. Alla Musette (1:03)
27. Variation XXIII. Vivace (0:36)
28. Variation XXIV (0:37)
29. Variation XXV (0:46)
30. Fuga. Moderato (4:50)


Exact Audio Copy V1.1 from 23. June 2015

EAC extraction logfile from 14. September 2016, 20:32

Eugene Istomin / Eugene Istomin - The Concerto and Solo Recordings - CD05 - Brahms

Used drive : HL-DT-STDVDRAM GU70N Adapter: 1 ID: 0

Read mode : Secure
Utilize accurate stream : Yes
Defeat audio cache : Yes
Make use of C2 pointers : No

Read offset correction : 48
Overread into Lead-In and Lead-Out : No
Fill up missing offset samples with silence : Yes
Delete leading and trailing silent blocks : No
Null samples used in CRC calculations : Yes
Used interface : Native Win32 interface for Win NT & 2000

Used output format : User Defined Encoder
Selected bitrate : 128 kBit/s
Quality : High
Add ID3 tag : No
Command line compressor : C:\Program Files (x86)\Exact Audio Copy\Flac\flac.exe
Additional command line options : -V -8 -T "Date=%year%" -T "Genre=%genre%" %source%


TOC of the extracted CD

Track | Start | Length | Start sector | End sector
––––––––––––––––––––––––––––-
1 | 0:00.00 | 5:05.54 | 0 | 22928
2 | 5:05.54 | 5:02.65 | 22929 | 45643
3 | 10:08.44 | 4:50.22 | 45644 | 67415
4 | 14:58.66 | 0:55.33 | 67416 | 71573
5 | 15:54.24 | 0:47.47 | 71574 | 75145
6 | 16:41.71 | 0:39.20 | 75146 | 78090
7 | 17:21.16 | 0:50.01 | 78091 | 81841
8 | 18:11.17 | 0:48.29 | 81842 | 85470
9 | 18:59.46 | 1:12.11 | 85471 | 90881
10 | 20:11.57 | 1:05.62 | 90882 | 95818
11 | 21:17.44 | 0:37.17 | 95819 | 98610
12 | 21:54.61 | 0:40.08 | 98611 | 101618
13 | 22:34.69 | 1:02.46 | 101619 | 106314
14 | 23:37.40 | 0:42.11 | 106315 | 109475
15 | 24:19.51 | 0:54.11 | 109476 | 113536
16 | 25:13.62 | 1:02.45 | 113537 | 118231
17 | 26:16.32 | 1:26.71 | 118232 | 124752
18 | 27:43.28 | 0:37.07 | 124753 | 127534
19 | 28:20.35 | 0:46.22 | 127535 | 131006
20 | 29:06.57 | 0:34.42 | 131007 | 133598
21 | 29:41.24 | 0:31.48 | 133599 | 135971
22 | 30:12.72 | 0:56.52 | 135972 | 140223
23 | 31:09.49 | 1:13.72 | 140224 | 145770
24 | 32:23.46 | 1:24.71 | 145771 | 152141
25 | 33:48.42 | 0:52.28 | 152142 | 156069
26 | 34:40.70 | 1:03.22 | 156070 | 160816
27 | 35:44.17 | 0:36.16 | 160817 | 163532
28 | 36:20.33 | 0:36.74 | 163533 | 166306
29 | 36:57.32 | 0:45.59 | 166307 | 169740
30 | 37:43.16 | 4:49.42 | 169741 | 191457


Range status and errors

Selected range

Filename C:\temp\Eugene Istomin - The Concerto and Solo Recordings\CD05\Eugene Istomin - The Concerto and Solo Recordings - CD05.wav

Peak level 69.6 %
Extraction speed 4.6 X
Range quality 99.9 %
Test CRC 219BCC5B
Copy CRC 219BCC5B
Copy OK

No errors occurred


AccurateRip summary

Track 1 accurately ripped (confidence 1) [7F05DF54] (AR v2)
Track 2 accurately ripped (confidence 1) [F4A78D80] (AR v2)
Track 3 accurately ripped (confidence 1) [FF4AD739] (AR v2)
Track 4 accurately ripped (confidence 1) [56D41699] (AR v2)
Track 5 accurately ripped (confidence 1) [3ECF9A5A] (AR v2)
Track 6 accurately ripped (confidence 1) [2CE7AB3B] (AR v2)
Track 7 accurately ripped (confidence 1) [8562F297] (AR v2)
Track 8 accurately ripped (confidence 1) [B1E06D38] (AR v2)
Track 9 accurately ripped (confidence 1) [54CC9BBB] (AR v2)
Track 10 accurately ripped (confidence 1) [1DE712B4] (AR v2)
Track 11 accurately ripped (confidence 1) [7D0F9C78] (AR v2)
Track 12 accurately ripped (confidence 1) [44ABCDB9] (AR v2)
Track 13 accurately ripped (confidence 1) [427D8F93] (AR v2)
Track 14 accurately ripped (confidence 1) [9B04AEF3] (AR v2)
Track 15 accurately ripped (confidence 1) [650B6E02] (AR v2)
Track 16 accurately ripped (confidence 1) [76AB887F] (AR v2)
Track 17 accurately ripped (confidence 1) [193A8EC2] (AR v2)
Track 18 accurately ripped (confidence 1) [5D68DE04] (AR v2)
Track 19 accurately ripped (confidence 1) [5864F817] (AR v2)
Track 20 accurately ripped (confidence 1) [DAB6A7AD] (AR v2)
Track 21 accurately ripped (confidence 1) [D6192CB2] (AR v2)
Track 22 accurately ripped (confidence 1) [95FCB9C4] (AR v2)
Track 23 accurately ripped (confidence 1) [BAD9CCC0] (AR v2)
Track 24 accurately ripped (confidence 1) [95B6E04D] (AR v2)
Track 25 accurately ripped (confidence 1) [C594D983] (AR v2)
Track 26 accurately ripped (confidence 1) [F1A719AB] (AR v2)
Track 27 accurately ripped (confidence 1) [279F973E] (AR v2)
Track 28 accurately ripped (confidence 1) [D1FF8847] (AR v2)
Track 29 accurately ripped (confidence 1) [148CCD52] (AR v2)
Track 30 accurately ripped (confidence 1) [06DA551D] (AR v2)

All tracks accurately ripped

End of status report

==== Log checksum C5E85ED1EE45F80C78EA0B5811F5E7D998916E2AD370F75FF1FEA2E2CB440A0A ====

foobar2000 1.2 / Dynamic Range Meter 1.1.1
log date: 2017-07-29 18:15:28

––––––––––––––––––––––––––––––––––––––––
Analyzed: Eugene Istomin / Eugene Istomin - The Concerto and Solo Recordings - CD05 - Brahms
––––––––––––––––––––––––––––––––––––––––

DR Peak RMS Duration Track
––––––––––––––––––––––––––––––––––––––––
DR13 -7.41 dB -25.83 dB 5:06 01-Intermezzi, Op.117 - No.1 in E falt major
DR13 -3.14 dB -23.68 dB 5:03 02-Intermezzi, Op.117 - No.2 in B flat minor
DR13 -4.85 dB -23.32 dB 4:50 03-Intermezzi, Op.117 - No.3 in C sharp minor
DR10 -8.22 dB -20.89 dB 0:55 04-Variations and Fugue on a Theme by Handel, Op.24 - Aria
DR11 -8.29 dB -21.19 dB 0:48 05-Variations and Fugue on a Theme by Handel, Op.24 - Variation I. Piu Vivo
DR9 -7.86 dB -19.64 dB 0:39 06-Variations and Fugue on a Theme by Handel, Op.24 - Variation II
DR12 -12.18 dB -27.44 dB 0:50 07-Variations and Fugue on a Theme by Handel, Op.24 - Variation III
DR11 -3.67 dB -16.55 dB 0:48 08-Variations and Fugue on a Theme by Handel, Op.24 - Variation IV
DR11 -11.51 dB -26.67 dB 1:12 09-Variations and Fugue on a Theme by Handel, Op.24 - Variation V
DR11 -13.76 dB -29.26 dB 1:06 10-Variations and Fugue on a Theme by Handel, Op.24 - Variation VI
DR10 -4.77 dB -18.27 dB 0:37 11-Variations and Fugue on a Theme by Handel, Op.24 - Variation VII
DR10 -7.09 dB -20.40 dB 0:40 12-Variations and Fugue on a Theme by Handel, Op.24 - Variation VIII
DR11 -5.66 dB -19.09 dB 1:03 13-Variations and Fugue on a Theme by Handel, Op.24 - Variation IX
DR14 -4.86 dB -22.47 dB 0:42 14-Variations and Fugue on a Theme by Handel, Op.24 - Variation X. Allegro
DR11 -11.25 dB -25.11 dB 0:54 15-Variations and Fugue on a Theme by Handel, Op.24 - Variation XI. Moderato
DR10 -12.18 dB -27.79 dB 1:03 16-Variations and Fugue on a Theme by Handel, Op.24 - Variation XII. L'istesso tempo
DR10 -5.28 dB -17.79 dB 1:27 17-Variations and Fugue on a Theme by Handel, Op.24 - Variation XIII. Largamente, ma non troppo
DR11 -6.61 dB -18.75 dB 0:37 18-Variations and Fugue on a Theme by Handel, Op.24 - Variation XIV
DR10 -4.95 dB -17.59 dB 0:46 19-Variations and Fugue on a Theme by Handel, Op.24 - Variation XV
DR12 -14.00 dB -27.97 dB 0:35 20-Variations and Fugue on a Theme by Handel, Op.24 - Variation XVI
DR10 -14.53 dB -30.35 dB 0:32 21-Variations and Fugue on a Theme by Handel, Op.24 - Variation XVII
DR11 -9.96 dB -25.00 dB 0:57 22-Variations and Fugue on a Theme by Handel, Op.24 - Variation XVIII
DR12 -10.77 dB -26.42 dB 1:14 23-Variations and Fugue on a Theme by Handel, Op.24 - Variation XIX
DR12 -6.34 dB -22.04 dB 1:25 24-Variations and Fugue on a Theme by Handel, Op.24 - Variation XX. Andante
DR10 -7.97 dB -22.83 dB 0:52 25-Variations and Fugue on a Theme by Handel, Op.24 - Variation XXI. Vivace
DR15 -10.48 dB -30.54 dB 1:03 26-Variations and Fugue on a Theme by Handel, Op.24 - Variation XXII. Alla Musette
DR11 -4.12 dB -19.84 dB 0:36 27-Variations and Fugue on a Theme by Handel, Op.24 - Variation XXIII. Vivace
DR10 -4.78 dB -17.92 dB 0:37 28-Variations and Fugue on a Theme by Handel, Op.24 - Variation XXIV
DR11 -4.45 dB -16.88 dB 0:46 29-Variations and Fugue on a Theme by Handel, Op.24 - Variation XXV
DR11 -4.05 dB -19.47 dB 4:50 30-Variations and Fugue on a Theme by Handel, Op.24 - Fuga. Moderato
––––––––––––––––––––––––––––––––––––––––

Number of tracks: 30
Official DR value: DR11

Samplerate: 44100 Hz
Channels: 2
Bits per sample: 16
Bitrate: 384 kbps
Codec: FLAC
================================================================================




CD6 (37:33)

Ludwig van Beethoven

Piano Concerto No.5 in E flat major, Op.73 'Emperor'
01. I. Allegro (19:43)
02. II. Adagio un poco moto (7:43)
03. III. Rondo. Allegro (10:08)
- The Philadelphia Orchestra
- Eugene Ormandy, conductor


Exact Audio Copy V1.1 from 23. June 2015

EAC extraction logfile from 14. September 2016, 20:55

Eugene Istomin, The Philadelphia Orchestra, Eugene Ormandy / Eugene Istomin - The Concerto and Solo Recordings - CD06 - Beethoven - Piano Concerto No.5

Used drive : HL-DT-STDVDRAM GU70N Adapter: 1 ID: 0

Read mode : Secure
Utilize accurate stream : Yes
Defeat audio cache : Yes
Make use of C2 pointers : No

Read offset correction : 48
Overread into Lead-In and Lead-Out : No
Fill up missing offset samples with silence : Yes
Delete leading and trailing silent blocks : No
Null samples used in CRC calculations : Yes
Used interface : Native Win32 interface for Win NT & 2000

Used output format : User Defined Encoder
Selected bitrate : 128 kBit/s
Quality : High
Add ID3 tag : No
Command line compressor : C:\Program Files (x86)\Exact Audio Copy\Flac\flac.exe
Additional command line options : -V -8 -T "Date=%year%" -T "Genre=%genre%" %source%


TOC of the extracted CD

Track | Start | Length | Start sector | End sector
––––––––––––––––––––––––––––-
1 | 0:00.00 | 19:42.52 | 0 | 88701
2 | 19:42.52 | 7:42.57 | 88702 | 123408
3 | 27:25.34 | 10:07.43 | 123409 | 168976


Range status and errors

Selected range

Filename C:\temp\Eugene Istomin - The Concerto and Solo Recordings\CD06\Eugene Istomin - The Concerto and Solo Recordings - CD06.wav

Peak level 67.8 %
Extraction speed 4.1 X
Range quality 100.0 %
Test CRC 8BF7D61D
Copy CRC 8BF7D61D
Copy OK

No errors occurred


AccurateRip summary

Track 1 accurately ripped (confidence 1) [C8CB613D] (AR v2)
Track 2 accurately ripped (confidence 1) [11604487] (AR v2)
Track 3 accurately ripped (confidence 1) [62244C15] (AR v2)

All tracks accurately ripped

End of status report

==== Log checksum 6CD4A6B3FF20D28C06F367CC0D884BD9D82D8435E2C45A6DB1C4FAA71F3E9719 ====

foobar2000 1.2 / Dynamic Range Meter 1.1.1
log date: 2017-07-29 18:15:39

––––––––––––––––––––––––––––––––––––––––
Analyzed: Eugene Istomin, The Philadelphia Orchestra, Eugene Ormandy / Eugene Istomin - The Concerto and Solo Recordings - CD06 - Beethoven - Piano Concerto No.5
––––––––––––––––––––––––––––––––––––––––

DR Peak RMS Duration Track
––––––––––––––––––––––––––––––––––––––––
DR11 -3.65 dB -18.80 dB 19:43 01-Piano Concerto No.5 in E flat major, Op.73 'Emperor' - I. Allegro
DR16 -7.13 dB -27.03 dB 7:43 02-Piano Concerto No.5 in E flat major, Op.73 'Emperor' - II. Adagio un poco moto
DR11 -3.36 dB -18.03 dB 10:08 03-Piano Concerto No.5 in E flat major, Op.73 'Emperor' - III. Rondo. Allegro
––––––––––––––––––––––––––––––––––––––––

Number of tracks: 3
Official DR value: DR13

Samplerate: 44100 Hz
Channels: 2
Bits per sample: 16
Bitrate: 430 kbps
Codec: FLAC
================================================================================




CD7 (34:34)

Pyotr Ilyich Tchaikovsky

Piano Concerto No.1 in B flat minor, Op.23
01. I. Allegro non troppo e molto maestoso (20:18)
02. II. Andantino simplice (7:26)
03. III. Allegro con fuoco (6:50)
- The Philadelphia Orchestra
- Eugene Ormandy, conductor


Exact Audio Copy V1.1 from 23. June 2015

EAC extraction logfile from 14. September 2016, 21:15

Eugene Istomin, The Philadelphia Orchestra, Eugene Ormandy / Eugene Istomin - The Concerto and Solo Recordings - CD07 - Tchaikovsky - Piano Concerto No.1

Used drive : HL-DT-STDVDRAM GU70N Adapter: 1 ID: 0

Read mode : Secure
Utilize accurate stream : Yes
Defeat audio cache : Yes
Make use of C2 pointers : No

Read offset correction : 48
Overread into Lead-In and Lead-Out : No
Fill up missing offset samples with silence : Yes
Delete leading and trailing silent blocks : No
Null samples used in CRC calculations : Yes
Used interface : Native Win32 interface for Win NT & 2000

Used output format : User Defined Encoder
Selected bitrate : 128 kBit/s
Quality : High
Add ID3 tag : No
Command line compressor : C:\Program Files (x86)\Exact Audio Copy\Flac\flac.exe
Additional command line options : -V -8 -T "Date=%year%" -T "Genre=%genre%" %source%


TOC of the extracted CD

Track | Start | Length | Start sector | End sector
––––––––––––––––––––––––––––-
1 | 0:00.00 | 20:17.66 | 0 | 91340
2 | 20:17.66 | 7:26.09 | 91341 | 124799
3 | 27:44.00 | 6:50.07 | 124800 | 155556


Range status and errors

Selected range

Filename C:\temp\Eugene Istomin - The Concerto and Solo Recordings\CD07\Eugene Istomin - The Concerto and Solo Recordings - CD07.wav

Peak level 92.4 %
Extraction speed 4.0 X
Range quality 100.0 %
Test CRC 85BB7DAB
Copy CRC 85BB7DAB
Copy OK

No errors occurred


AccurateRip summary

Track 1 accurately ripped (confidence 1) [A6BE801A] (AR v2)
Track 2 accurately ripped (confidence 1) [79D5CC78] (AR v2)
Track 3 accurately ripped (confidence 1) [2DD3C4FA] (AR v2)

All tracks accurately ripped

End of status report

==== Log checksum C024211436CC1A5FD3C1FB5D0BD3ED10DE0352FD6B873E85134779FA285AD054 ====

foobar2000 1.2 / Dynamic Range Meter 1.1.1
log date: 2017-07-29 18:15:51

––––––––––––––––––––––––––––––––––––––––
Analyzed: Eugene Istomin, The Philadelphia Orchestra, Eugene Ormandy / Eugene Istomin - The Concerto and Solo Recordings - CD07 - Tchaikovsky - Piano Concerto No.1
––––––––––––––––––––––––––––––––––––––––

DR Peak RMS Duration Track
––––––––––––––––––––––––––––––––––––––––
DR14 -0.68 dB -21.16 dB 20:18 01-Piano Concerto No.1 in B flat minor, Op.23 - I. Allegro non troppo e molto maestoso
DR16 -5.66 dB -29.06 dB 7:26 02-Piano Concerto No.1 in B flat minor, Op.23 - II. Andantino simplice
DR13 -1.87 dB -19.28 dB 6:50 03-Piano Concerto No.1 in B flat minor, Op.23 - III. Allegro con fuoco
––––––––––––––––––––––––––––––––––––––––

Number of tracks: 3
Official DR value: DR15

Samplerate: 44100 Hz
Channels: 2
Bits per sample: 16
Bitrate: 665 kbps
Codec: FLAC
================================================================================




CD8 (1:02:23)

Frédéric Chopin

Piano Concerto No.2 in F minor, Op.21
01. I. Maestoso (13:06)
02. II. Larghetto (9:43)
03. III. Allegro vivace (8:37)
- The Philadelphia Orchestra
- Eugene Ormandy, conductor

Robert Schumann

Piano Concerto in A minor, Op.54
04. I. Allegro affettuoso (14:28)
05. II. Intermezzo. Andantino grazioso (5:26)
06. III. Allegro vivace (11:01)
- Columbia Symphony Orchestra
- Bruno Walter, conductor


Exact Audio Copy V1.1 from 23. June 2015

EAC extraction logfile from 14. September 2016, 21:46

Eugene Istomin / Eugene Istomin - The Concerto and Solo Recordings - CD08 - Chopin, Schumann - Piano Concertos

Used drive : HL-DT-STDVDRAM GU70N Adapter: 1 ID: 0

Read mode : Secure
Utilize accurate stream : Yes
Defeat audio cache : Yes
Make use of C2 pointers : No

Read offset correction : 48
Overread into Lead-In and Lead-Out : No
Fill up missing offset samples with silence : Yes
Delete leading and trailing silent blocks : No
Null samples used in CRC calculations : Yes
Used interface : Native Win32 interface for Win NT & 2000

Used output format : User Defined Encoder
Selected bitrate : 128 kBit/s
Quality : High
Add ID3 tag : No
Command line compressor : C:\Program Files (x86)\Exact Audio Copy\Flac\flac.exe
Additional command line options : -V -8 -T "Date=%year%" -T "Genre=%genre%" %source%


TOC of the extracted CD

Track | Start | Length | Start sector | End sector
––––––––––––––––––––––––––––-
1 | 0:00.00 | 13:06.35 | 0 | 58984
2 | 13:06.35 | 9:43.35 | 58985 | 102744
3 | 22:49.70 | 8:37.36 | 102745 | 141555
4 | 31:27.31 | 14:28.04 | 141556 | 206659
5 | 45:55.35 | 5:26.07 | 206660 | 231116
6 | 51:21.42 | 11:01.20 | 231117 | 280711


Range status and errors

Selected range

Filename C:\temp\Eugene Istomin - The Concerto and Solo Recordings\CD08\Eugene Istomin - The Concerto and Solo Recordings - CD08.wav

Peak level 80.1 %
Extraction speed 5.1 X
Range quality 100.0 %
Test CRC A8691E9E
Copy CRC A8691E9E
Copy OK

No errors occurred


AccurateRip summary

Track 1 accurately ripped (confidence 1) [7C7D42C7] (AR v2)
Track 2 accurately ripped (confidence 1) [A6227407] (AR v2)
Track 3 accurately ripped (confidence 1) [43713E8D] (AR v2)
Track 4 accurately ripped (confidence 1) [7D310603] (AR v2)
Track 5 accurately ripped (confidence 1) [65431752] (AR v2)
Track 6 accurately ripped (confidence 1) [565F85DF] (AR v2)

All tracks accurately ripped

End of status report

==== Log checksum 692D3B7E91A5AFF9544CC402D9131E37B163C58FE20842B9C90AB7169C478B64 ====

foobar2000 1.2 / Dynamic Range Meter 1.1.1
log date: 2017-07-29 18:16:01

––––––––––––––––––––––––––––––––––––––––
Analyzed: Eugene Istomin, Columbia Symphony Orchestra, Bruno Walter / Eugene Istomin - The Concerto and Solo Recordings - CD08 - Chopin, Schumann - Piano Concertos
––––––––––––––––––––––––––––––––––––––––

DR Peak RMS Duration Track
––––––––––––––––––––––––––––––––––––––––
DR14 -1.92 dB -22.41 dB 14:28 04-Schumann: Piano Concerto in A minor, Op.54 - I. Allegro affettuoso
DR13 -9.18 dB -28.03 dB 5:26 05-Schumann: Piano Concerto in A minor, Op.54 - II. Intermezzo. Andantino grazioso
DR14 -2.12 dB -20.96 dB 11:01 06-Schumann: Piano Concerto in A minor, Op.54 - III. Allegro vivace
––––––––––––––––––––––––––––––––––––––––

Number of tracks: 3
Official DR value: DR14

Samplerate: 44100 Hz
Channels: 2
Bits per sample: 16
Bitrate: 648 kbps
Codec: FLAC
================================================================================

––––––––––––––––––––––––––––––––––––––––
Analyzed: Eugene Istomin, The Philadelphia Orchestra, Eugene Ormandy / Eugene Istomin - The Concerto and Solo Recordings - CD08 - Chopin, Schumann - Piano Concertos
––––––––––––––––––––––––––––––––––––––––

DR Peak RMS Duration Track
––––––––––––––––––––––––––––––––––––––––
DR12 -6.08 dB -22.80 dB 13:06 01-Chopin: Piano Concerto No.2 in F minor, Op.21 - I. Maestoso
DR13 -8.44 dB -27.73 dB 9:43 02-Chopin: Piano Concerto No.2 in F minor, Op.21 - II. Larghetto
DR12 -6.77 dB -23.13 dB 8:37 03-Chopin: Piano Concerto No.2 in F minor, Op.21 - III. Allegro vivace
––––––––––––––––––––––––––––––––––––––––

Number of tracks: 3
Official DR value: DR13

Samplerate: 44100 Hz
Channels: 2
Bits per sample: 16
Bitrate: 648 kbps
Codec: FLAC
================================================================================




CD9 (50:06)

Johannes Brahms

Piano Concerto No.2 in B flat major, Op.83
01. I. Allegro non troppo (18:13)
02. II. Allegro appassionato (9:08)
03. III. Andante (13:10)
04. IV. Allegretto grazioso (9:34)
- The Philadelphia Orchestra
- Eugene Ormandy, conductor


Exact Audio Copy V1.1 from 23. June 2015

EAC extraction logfile from 14. September 2016, 22:16

Eugene Istomin, The Philadelphia Orchestra, Eugene Ormandy / Eugene Istomin - The Concerto and Solo Recordings - CD09 - Brahms - Piano Concerto No.2

Used drive : HL-DT-STDVDRAM GU70N Adapter: 1 ID: 0

Read mode : Secure
Utilize accurate stream : Yes
Defeat audio cache : Yes
Make use of C2 pointers : No

Read offset correction : 48
Overread into Lead-In and Lead-Out : No
Fill up missing offset samples with silence : Yes
Delete leading and trailing silent blocks : No
Null samples used in CRC calculations : Yes
Used interface : Native Win32 interface for Win NT & 2000

Used output format : User Defined Encoder
Selected bitrate : 128 kBit/s
Quality : High
Add ID3 tag : No
Command line compressor : C:\Program Files (x86)\Exact Audio Copy\Flac\flac.exe
Additional command line options : -V -8 -T "Date=%year%" -T "Genre=%genre%" %source%


TOC of the extracted CD

Track | Start | Length | Start sector | End sector
––––––––––––––––––––––––––––-
1 | 0:00.00 | 18:12.58 | 0 | 81957
2 | 18:12.58 | 9:08.36 | 81958 | 123093
3 | 27:21.19 | 13:10.31 | 123094 | 182374
4 | 40:31.50 | 9:34.03 | 182375 | 225427


Range status and errors

Selected range

Filename C:\temp\Eugene Istomin - The Concerto and Solo Recordings\CD09\Eugene Istomin - The Concerto and Solo Recordings - CD09.wav

Peak level 96.8 %
Extraction speed 4.8 X
Range quality 100.0 %
Test CRC 100DE4B4
Copy CRC 100DE4B4
Copy OK

No errors occurred


AccurateRip summary

Track 1 accurately ripped (confidence 1) [A3BD85A1] (AR v2)
Track 2 accurately ripped (confidence 1) [23E80240] (AR v2)
Track 3 accurately ripped (confidence 1) [27888F7F] (AR v2)
Track 4 accurately ripped (confidence 1) [48CC91E4] (AR v2)

All tracks accurately ripped

End of status report

==== Log checksum 72B04E1B335DDBF417EEF9FA619813505CB40B5D00666C9F6D7AA33A117F7AA7 ====

foobar2000 1.2 / Dynamic Range Meter 1.1.1
log date: 2017-07-29 18:16:35

––––––––––––––––––––––––––––––––––––––––
Analyzed: Eugene Istomin, The Philadelphia Orchestra, Eugene Ormandy / Eugene Istomin - The Concerto and Solo Recordings - CD09 - Brahms - Piano Concerto No.2
––––––––––––––––––––––––––––––––––––––––

DR Peak RMS Duration Track
––––––––––––––––––––––––––––––––––––––––
DR10 -0.81 dB -14.34 dB 18:13 01-Piano Concerto No.2 in B flat major, Op.83 - I. Allegro non troppo
DR9 -0.88 dB -13.92 dB 9:08 02-Piano Concerto No.2 in B flat major, Op.83 - II. Allegro appassionato
DR12 -1.13 dB -19.35 dB 13:10 03-Piano Concerto No.2 in B flat major, Op.83 - III. Andante
DR10 -0.28 dB -14.33 dB 9:34 04-Piano Concerto No.2 in B flat major, Op.83 - IV. Allegretto grazioso
––––––––––––––––––––––––––––––––––––––––

Number of tracks: 4
Official DR value: DR10

Samplerate: 44100 Hz
Channels: 2
Bits per sample: 16
Bitrate: 723 kbps
Codec: FLAC
================================================================================




CD10 (1:11:16)

Ludwig van Beethoven

Concerto for Piano, Violin, Cello and Orchestra in C major, Op.56
01. I. Allegro (18:23)
02. II. Largo (4:39)
03. III. Rondo alla Polacca (13:06)
Isaac Stern, violin
Leonard Rose, cello

Piano Concerto No.4 in G major, Op.58
04. I. Allegro moderato (19:37)
05. II. Andante con moto (5:29)
06. III. Rondo. Vivace (10:01)
- The Philadelphia Orchestra
- Eugene Ormandy, conductor


Exact Audio Copy V1.1 from 23. June 2015

EAC extraction logfile from 15. September 2016, 2:37

Eugene Istomin, The Philadelphia Orchestra, Eugene Ormandy / Eugene Istomin - The Concerto and Solo Recordings - CD10 - Beethoven - Concertos

Used drive : HL-DT-STDVDRAM GU70N Adapter: 1 ID: 0

Read mode : Secure
Utilize accurate stream : Yes
Defeat audio cache : Yes
Make use of C2 pointers : No

Read offset correction : 48
Overread into Lead-In and Lead-Out : No
Fill up missing offset samples with silence : Yes
Delete leading and trailing silent blocks : No
Null samples used in CRC calculations : Yes
Used interface : Native Win32 interface for Win NT & 2000

Used output format : User Defined Encoder
Selected bitrate : 128 kBit/s
Quality : High
Add ID3 tag : No
Command line compressor : C:\Program Files (x86)\Exact Audio Copy\Flac\flac.exe
Additional command line options : -V -8 -T "Date=%year%" -T "Genre=%genre%" %source%


TOC of the extracted CD

Track | Start | Length | Start sector | End sector
––––––––––––––––––––––––––––-
1 | 0:00.00 | 18:23.35 | 0 | 82759
2 | 18:23.35 | 4:39.32 | 82760 | 103716
3 | 23:02.67 | 13:05.59 | 103717 | 162650
4 | 36:08.51 | 19:36.73 | 162651 | 250923
5 | 55:45.49 | 5:29.37 | 250924 | 275635
6 | 61:15.11 | 10:00.69 | 275636 | 320704


Range status and errors

Selected range

Filename C:\temp\Eugene Istomin - The Concerto and Solo Recordings\CD10\Eugene Istomin - The Concerto and Solo Recordings - CD10.wav

Peak level 97.9 %
Extraction speed 5.4 X
Range quality 100.0 %
Test CRC 0A083262
Copy CRC 0A083262
Copy OK

No errors occurred


AccurateRip summary

Track 1 accurately ripped (confidence 1) [6EE87D32] (AR v2)
Track 2 accurately ripped (confidence 1) [3C60CAB5] (AR v2)
Track 3 accurately ripped (confidence 1) [220E9E21] (AR v2)
Track 4 accurately ripped (confidence 1) [24C9401A] (AR v2)
Track 5 accurately ripped (confidence 1) [CE9AAA81] (AR v2)
Track 6 accurately ripped (confidence 1) [08FD9FF3] (AR v2)

All tracks accurately ripped

End of status report

==== Log checksum C2B0EF913EA50618F7FF03FC2D031C16A8E786CBDB68A345E11E3619D6B89AB4 ====

foobar2000 1.2 / Dynamic Range Meter 1.1.1
log date: 2017-07-29 18:17:01

––––––––––––––––––––––––––––––––––––––––
Analyzed: Eugene Istomin, Isaac Stern, Leonard Rose, The Philadelphia Orchestra, Eugene Ormandy / Eugene Istomin - The Concerto and Solo Recordings - CD10 - Beethoven - Concertos (1-3)
Eugene Istomin, The Philadelphia Orchestra, Eugene Ormandy / Eugene Istomin - The Concerto and Solo Recordings - CD10 - Beethoven - Concertos (4-6)
––––––––––––––––––––––––––––––––––––––––

DR Peak RMS Duration Track
––––––––––––––––––––––––––––––––––––––––
DR14 -0.18 dB -20.12 dB 18:23 01-Concerto for Piano, Violin, Cello and Orchestra in C major, Op.56 - I. Allegro
DR13 -8.84 dB -26.33 dB 4:39 02-Concerto for Piano, Violin, Cello and Orchestra in C major, Op.56 - II. Largo
DR14 -0.23 dB -19.58 dB 13:06 03-Concerto for Piano, Violin, Cello and Orchestra in C major, Op.56 - III. Rondo alla Polacca
DR13 -5.60 dB -23.97 dB 19:37 04-Piano Concerto No.4 in G major, Op.58 - I. Allegro moderato
DR12 -6.85 dB -26.74 dB 5:29 05-Piano Concerto No.4 in G major, Op.58 - II. Andante con moto
DR13 -4.64 dB -22.57 dB 10:01 06-Piano Concerto No.4 in G major, Op.58 - III. Rondo. Vivace
––––––––––––––––––––––––––––––––––––––––

Number of tracks: 6
Official DR value: DR13

Samplerate: 44100 Hz
Channels: 2
Bits per sample: 16
Bitrate: 639 kbps
Codec: FLAC
================================================================================




CD11 (1:04:19)

Franz Schubert

Piano Sonata in D major, D 850 (Op.53)
01. I. Allegro vivace (8:30)
02. II. Con moto (13:42)
03. III. Scherzo. Allegro vivace - Trio (9:22)
04. IV. Rondo - Allegro moderato (8:26)

Ludwig van Beethoven

Piano Sonata No.21 in C major, Op.53
05. I. Allegro con brio (9:41)
06. II. Introduzione. Adagio molto (4:34)
07. III. Rondo. Allegretto moderato - Prestissimo (10:04)


Exact Audio Copy V1.1 from 23. June 2015

EAC extraction logfile from 15. September 2016, 10:00

Eugene Istomin / Eugene Istomin - The Concerto and Solo Recordings - CD11

Used drive : HL-DT-STDVDRAM GU70N Adapter: 1 ID: 0

Read mode : Secure
Utilize accurate stream : Yes
Defeat audio cache : Yes
Make use of C2 pointers : No

Read offset correction : 48
Overread into Lead-In and Lead-Out : No
Fill up missing offset samples with silence : Yes
Delete leading and trailing silent blocks : No
Null samples used in CRC calculations : Yes
Used interface : Native Win32 interface for Win NT & 2000

Used output format : User Defined Encoder
Selected bitrate : 128 kBit/s
Quality : High
Add ID3 tag : No
Command line compressor : C:\Program Files (x86)\Exact Audio Copy\Flac\flac.exe
Additional command line options : -V -8 -T "Date=%year%" -T "Genre=%genre%" %source%


TOC of the extracted CD

Track | Start | Length | Start sector | End sector
––––––––––––––––––––––––––––-
1 | 0:00.00 | 8:30.01 | 0 | 38250
2 | 8:30.01 | 13:41.61 | 38251 | 99886
3 | 22:11.62 | 9:22.10 | 99887 | 142046
4 | 31:33.72 | 8:25.55 | 142047 | 179976
5 | 39:59.52 | 9:41.01 | 179977 | 223552
6 | 49:40.53 | 4:34.02 | 223553 | 244104
7 | 54:14.55 | 10:04.16 | 244105 | 289420


Range status and errors

Selected range

Filename C:\temp\Eugene Istomin - The Concerto and Solo Recordings\CD11\Eugene Istomin - The Concerto and Solo Recordings - CD11.wav

Peak level 98.9 %
Extraction speed 5.2 X
Range quality 100.0 %
Test CRC C96E3530
Copy CRC C96E3530
Copy OK

No errors occurred


AccurateRip summary

Track 1 accurately ripped (confidence 1) [AF738EE5] (AR v2)
Track 2 accurately ripped (confidence 1) [FB70335B] (AR v2)
Track 3 accurately ripped (confidence 1) [12F90A18] (AR v2)
Track 4 accurately ripped (confidence 1) [AB7577D1] (AR v2)
Track 5 accurately ripped (confidence 1) [5CF56E88] (AR v2)
Track 6 accurately ripped (confidence 1) [6F838310] (AR v2)
Track 7 accurately ripped (confidence 1) [6F5FCABC] (AR v2)

All tracks accurately ripped

End of status report

==== Log checksum 3A8CA290261A795207A9D6534B0CE23D2C33072688DEE546394360D68648A598 ====

foobar2000 1.2 / Dynamic Range Meter 1.1.1
log date: 2017-07-29 18:17:23

––––––––––––––––––––––––––––––––––––––––
Analyzed: Eugene Istomin / Eugene Istomin - The Concerto and Solo Recordings - CD11
––––––––––––––––––––––––––––––––––––––––

DR Peak RMS Duration Track
––––––––––––––––––––––––––––––––––––––––
DR12 -0.59 dB -16.29 dB 8:30 01-Schubert: Piano Sonata in D major, D 850 (Op.53) - I. Allegro vivace
DR12 -1.10 dB -19.20 dB 13:42 02-Schubert: Piano Sonata in D major, D 850 (Op.53) - II. Con moto
DR12 -1.34 dB -18.62 dB 9:22 03-Schubert: Piano Sonata in D major, D 850 (Op.53) - III. Scherzo. Allegro vivace - Trio
DR14 -1.81 dB -21.49 dB 8:26 04-Schubert: Piano Sonata in D major, D 850 (Op.53) - IV. Rondo - Allegro moderato
DR13 -0.09 dB -18.53 dB 9:41 05-Beethoven: Piano Sonata No.21 in C major, Op.53 - I. Allegro con brio
DR15 -2.43 dB -26.44 dB 4:34 06-Beethoven: Piano Sonata No.21 in C major, Op.53 - II. Introduzione. Adagio molto
DR13 -0.55 dB -18.70 dB 10:04 07-Beethoven: Piano Sonata No.21 in C major, Op.53 - III. Rondo. Allegretto moderato - Prestissimo
––––––––––––––––––––––––––––––––––––––––

Number of tracks: 7
Official DR value: DR13

Samplerate: 44100 Hz
Channels: 2
Bits per sample: 16
Bitrate: 615 kbps
Codec: FLAC
================================================================================




CD12 (1:02:13)

Ludwig van Beethoven

Piano Sonata No.24 in F sharp major, Op.78 'À Thérèse'
01. I. Adagio cantabile - Allegro ma non troppo (8:13)
02. II. Allegro vivace (2:48)

03. Piano Sonata No.14 in C sharp minor, Op.27 No.2 'Moonlight' - I. Adagio sostenuto (7:02)

Frédéric Chopin

04. Chopin: Nocturne in F sharp major, Op.15 No.2 (4:01)
05. Chopin: Polonaise in A flat major, Op.53 (7:23)

Claude Debussy

06. La Fillle aux cheveux de lin (Preludes I, No.8) (2:28)
07. Clair de lune (Suite bergamasque, No.3) (5:00)

Felix Mendelssohn

08. Song without Words in G major, Op.62 No.1 'May Breezes' (3:26)

Franz Schubert

4 Impromptus, D. 899 (Op. 90)
09. No.2 in E flat major (4:20)
10. No.3 in G flat major (6:08)

Igor Stravinsky

Piano Sonata
11. I. Quarter Note = 112 (3:26)
12. II. Adagietto (5:11)
13. III. Quarter Note = 112 (2:48)


Exact Audio Copy V1.1 from 23. June 2015

EAC extraction logfile from 15. September 2016, 19:38

Eugene Istomin / Eugene Istomin - The Concerto and Solo Recordings - CD12

Used drive : HL-DT-STDVDRAM GU70N Adapter: 1 ID: 0

Read mode : Secure
Utilize accurate stream : Yes
Defeat audio cache : Yes
Make use of C2 pointers : No

Read offset correction : 48
Overread into Lead-In and Lead-Out : No
Fill up missing offset samples with silence : Yes
Delete leading and trailing silent blocks : No
Null samples used in CRC calculations : Yes
Used interface : Native Win32 interface for Win NT & 2000

Used output format : User Defined Encoder
Selected bitrate : 128 kBit/s
Quality : High
Add ID3 tag : No
Command line compressor : C:\Program Files (x86)\Exact Audio Copy\Flac\flac.exe
Additional command line options : -V -8 -T "Date=%year%" -T "Genre=%genre%" %source%


TOC of the extracted CD

Track | Start | Length | Start sector | End sector
––––––––––––––––––––––––––––-
1 | 0:00.01 | 8:13.20 | 1 | 36995
2 | 8:13.21 | 2:48.16 | 36996 | 49611
3 | 11:01.37 | 7:01.44 | 49612 | 81230
4 | 18:03.06 | 4:00.72 | 81231 | 99302
5 | 22:04.03 | 7:22.53 | 99303 | 132505
6 | 29:26.56 | 2:27.42 | 132506 | 143572
7 | 31:54.23 | 4:59.58 | 143573 | 166055
8 | 36:54.06 | 3:26.10 | 166056 | 181515
9 | 40:20.16 | 4:19.39 | 181516 | 200979
10 | 44:39.55 | 6:07.63 | 200980 | 228567
11 | 50:47.43 | 3:25.46 | 228568 | 243988
12 | 54:13.14 | 5:11.34 | 243989 | 267347
13 | 59:24.48 | 2:48.18 | 267348 | 279965


Range status and errors

Selected range

Filename C:\temp\Eugene Istomin - The Concerto and Solo Recordings\CD12\Eugene Istomin - The Concerto and Solo Recordings - CD12.wav

Peak level 98.5 %
Extraction speed 5.1 X
Range quality 100.0 %
Test CRC 6296C3BC
Copy CRC 6296C3BC
Copy OK

No errors occurred


AccurateRip summary

Track 1 accurately ripped (confidence 1) [F3341898] (AR v2)
Track 2 accurately ripped (confidence 1) [61D7E006] (AR v2)
Track 3 accurately ripped (confidence 1) [297CDC85] (AR v2)
Track 4 accurately ripped (confidence 1) [50AD808D] (AR v2)
Track 5 accurately ripped (confidence 1) [B3EE2D55] (AR v2)
Track 6 accurately ripped (confidence 1) [138BD29D] (AR v2)
Track 7 accurately ripped (confidence 1) [08A6AB95] (AR v2)
Track 8 accurately ripped (confidence 1) [22AFAD6C] (AR v2)
Track 9 accurately ripped (confidence 1) [D5B5A6A6] (AR v2)
Track 10 accurately ripped (confidence 1) [43C5D88F] (AR v2)
Track 11 accurately ripped (confidence 1) [89371AC7] (AR v2)
Track 12 accurately ripped (confidence 1) [8CE266A2] (AR v2)
Track 13 accurately ripped (confidence 1) [92EBC727] (AR v2)

All tracks accurately ripped

End of status report

==== Log checksum 05EB63FDAF1406DF773E89EB6136C22FB6BFB03C54F7CC0A8649EF4FBD68B59D ====

foobar2000 1.2 / Dynamic Range Meter 1.1.1
log date: 2017-07-29 18:17:44

––––––––––––––––––––––––––––––––––––––––
Analyzed: Eugene Istomin / Eugene Istomin - The Concerto and Solo Recordings - CD12
––––––––––––––––––––––––––––––––––––––––

DR Peak RMS Duration Track
––––––––––––––––––––––––––––––––––––––––
DR14 -0.98 dB -20.58 dB 8:13 01-Beethoven: Piano Sonata No.24 in F sharp major, Op.78 - I. Adagio cantabile - Allegro ma non troppo
DR13 -0.32 dB -18.33 dB 2:48 02-Beethoven: Piano Sonata No.24 in F sharp major, Op.78 - II. Allegro vivace
DR14 -9.32 dB -27.27 dB 7:02 03-Beethoven: Piano Sonata No.14 in C sharp minor, Op.27 No.2 - I. Adagio sostenuto
DR13 -0.19 dB -20.19 dB 4:01 04-Chopin: Nocturne in F sharp major, Op.15 No.2
DR11 -0.13 dB -14.59 dB 7:23 05-Chopin: Polonaise in A flat major, Op.53
DR13 -2.02 dB -23.59 dB 2:28 06-Debussy: La Fillle aux cheveux de lin (Preludes I, No.8)
DR12 -2.57 dB -21.61 dB 5:00 07-Debussy: Clair de lune (Suite bergamasque, No.3)
DR12 -2.36 dB -19.48 dB 3:26 08-Mendelssohn: Song without Words in G major, Op.62 No.1 'May Breezes'
DR12 -0.24 dB -17.95 dB 4:20 09-Schubert: 4 Impromptus, D. 899 (Op. 90) - No.2 in E flat major
DR13 -0.54 dB -19.95 dB 6:08 10-Schubert: 4 Impromptus, D. 899 (Op. 90) - No.3 in G flat major
DR14 -1.21 dB -20.74 dB 3:26 11-Stravinsky: Piano Sonata - I. Quarter Note = 112
DR15 -2.42 dB -22.80 dB 5:11 12-Stravinsky: Piano Sonata - II. Adagietto
DR13 -0.52 dB -18.66 dB 2:48 13-Stravinsky: Piano Sonata - III. Quarter Note = 112
––––––––––––––––––––––––––––––––––––––––

Number of tracks: 13
Official DR value: DR13

Samplerate: 44100 Hz
Channels: 2
Bits per sample: 16
Bitrate: 579 kbps
Codec: FLAC
================================================================================





All thanks to original releaser - A-Z

More interesting music in My Blog