Subcategories
Tags
Language
Tags

Extreme - Albums Collection 1989-2010 (7CD) [Re-Up]

Posted By: Designol
Extreme - Albums Collection 1989-2010 (7CD) [Re-Up]

Extreme - Albums Collection 1989-2010 (7CD)
EAC | FLAC | Image (Cue&Log) ~ 2.76 Gb | Mp3 (CBR320) ~ 958 Mb | Scans ~ 412 Mb
Genre: Hard Rock, Arena Rock, Heavy Metal | Time: 06:59:50

Extreme is an American rock band, currently headed by frontman Gary Cherone and guitarist Nuno Bettencourt. The band reached the height of their popularity in the late 1980s and early 1990s with original line-up Gary Cherone, Nuno Bettencourt, Paul Geary and Patrick Badger. Collection includes: Extreme (1989); Extreme II: Pornograffitti (1990); III Sides to Every Story (1992); Waiting for the Punchline (1995); Saudades de Rock (2008); Take Us Alive (2010).

Extreme's music was never easy to classify, since it rarely confined itself to heavy metal, hard rock, or pop. The Massachusetts-based band formed in 1985; guitarist Nuno Bettencourt had already played in a local band with bassist Pat Badger, while singer Gary Cherone fronted his own group with drummer Paul Geary. The two bands eventually merged, and Cherone and Bettencourt formed a songwriting partnership that would soon place Extreme atop the Billboard charts, if only for a short period.

Coupling the technical proficiency of Bettencourt's guitar with a funky rhythmic base, the band issued a self-titled debut album in 1989. It peaked at number 80 – a modest showing for a new, unseasoned band – and the song "Play with Me" was used to orchestrate the chase scene during Bill & Ted's Excellent Adventure. Extreme had begun to earn respect in the heavy metal world, but it wasn't until the arrival of the band's follow-up effort, Pornograffitti (particularly the the Everly Brothers-style acoustic ballad "More Than Words"), that a mainstream audience latched onto the group's sound. "More Than Words" became a number one hit, while its follow-up single, an acoustic-based pop/rocker named "Hole Hearted," hit number four. Extreme were now one of the most popular acts in the pop-metal genre, but the looming arrival of grunge music – not to mention the band's own shifting tastes – combined to make Extreme's reign relatively short-lived.

The band's third album, III Sides to Every Story, was an ambitious effort whose sales (while strong at first) couldn't match those of Pornograffitti. Geary left the lineup soon after, seeking a career in music business instead, and a revised version of the band (featuring the percussion of Mike Mangini, formerly of Annihilator) returned in 1995 with Waiting for the Punchline. It, too, suffered from a lack of sales. Accordingly, Extreme's bandmates announced their breakup the following year. Bettencourt went on to launch a solo career and issued the Schizophonic album in 1997; he then released two additional albums with his band Mourning Widows. Meanwhile, Cherone enjoyed a brief stint as the vocalist for Van Halen. His one album with the band, 1998's Van Halen III, was slammed by critics and fans alike, resulting in poor sales and Cherone's speedy exit.

13-track best-of collection named An Accidental Collision of Atoms kept Extreme's legacy alive in 2000, and the band quietly reunited in 2004 for a small series of shows. The reunion gigs continued into 2008, when a new album, Saudades de Rock, marked the group's first batch of new material in 13 years.

Biography by Stephen Thomas Erlewine, Allmusic.com

Extreme - Albums Collection 1989-2010 (7CD) [Re-Up]





Extreme - Albums Collection 1989-2010 (7CD) [Re-Up]

Extreme - Extreme (1989)
EAC | FLAC | Image (Cue&Log) ~ 300 Mb | Mp3 (CBR320) ~ 103 Mb
Label: A&M | # 395 238-2 | Time: 00:45:07 | Scans ~ 58 Mb

Extreme's first album shows the band struggling to shed their influences, particularly Van Halen, and develop a style of their own; consequently, it's wildly uneven, but guitarist Nuno Bettencourt is always worth hearing.

Review by Stephen Thomas Erlewine, Allmusic.com

Tracklist:

01. Little Girls (03:45)
02. Wind Me Up (03:35)
03. Kid Ego (04:02)
04. Watching, Waiting (04:54)
05. Mutha (Don't Wanna Go To School Today) (04:52)
06. Teacher's Pet (03:01)
07. Big Boys Don't Cry (03:34)
08. Smoke Signals (04:13)
09. Flesh 'n' Blood (03:30)
10. Rock A Bye Bye (05:56)
11. Play With Me (03:29)


Exact Audio Copy V1.0 beta 1 from 15. November 2010

EAC extraction logfile from 31. July 2011, 16:58

Extreme / Extreme

Used drive : ASUS DRW-24B1ST Adapter: 5 ID: 0

Read mode : Secure
Utilize accurate stream : Yes
Defeat audio cache : Yes
Make use of C2 pointers : No

Read offset correction : 6
Overread into Lead-In and Lead-Out : No
Fill up missing offset samples with silence : Yes
Delete leading and trailing silent blocks : No
Null samples used in CRC calculations : Yes
Used interface : Installed external ASPI interface

Used output format : User Defined Encoder
Selected bitrate : 128 kBit/s
Quality : High
Add ID3 tag : No
Command line compressor : D:\Rec Install\lossless\lossless\Exact Audio Copy 0.9b4 + APE WV & FLAC Encoders\FLAC.EXE
Additional command line options : -8 -V %s


TOC of the extracted CD

Track | Start | Length | Start sector | End sector
––––––––––––––––––––––––––––-
1 | 0:00.32 | 3:47.45 | 32 | 17101
2 | 3:48.02 | 3:37.33 | 17102 | 33409
3 | 7:25.35 | 4:04.62 | 33410 | 51771
4 | 11:30.22 | 4:54.63 | 51772 | 73884
5 | 16:25.10 | 4:52.07 | 73885 | 95791
6 | 21:17.17 | 3:02.00 | 95792 | 109441
7 | 24:19.17 | 3:34.03 | 109442 | 125494
8 | 27:53.20 | 4:14.15 | 125495 | 144559
9 | 32:07.35 | 3:31.72 | 144560 | 160456
10 | 35:39.32 | 5:57.13 | 160457 | 187244
11 | 41:36.45 | 3:29.35 | 187245 | 202954


Range status and errors

Selected range

Filename G:\Torrent\# MY\Extreme - Discography (1989-2010)\1989 - Extreme\Extreme - Extreme.wav

Peak level 97.7 %
Extraction speed 0.2 X
Range quality 100.0 %
Test CRC B991C8C5
Copy CRC B991C8C5
Copy OK

No errors occurred


AccurateRip summary

Track 1 accurately ripped (confidence 6) [0D0A96A8]
Track 2 accurately ripped (confidence 6) [553D5E89]
Track 3 accurately ripped (confidence 6) [895CDE94]
Track 4 accurately ripped (confidence 6) [006A07FC]
Track 5 accurately ripped (confidence 6) [1984D54E]
Track 6 accurately ripped (confidence 6) [FDD494ED]
Track 7 accurately ripped (confidence 6) [DC30C730]
Track 8 accurately ripped (confidence 6) [B720C96A]
Track 9 accurately ripped (confidence 6) [48A1ED2D]
Track 10 accurately ripped (confidence 6) [51A8934C]
Track 11 accurately ripped (confidence 6) [527F6587]

All tracks accurately ripped

End of status report

foobar2000 1.2 / Dynamic Range Meter 1.1.1
log date: 2013-10-29 19:03:08

––––––––––––––––––––––––––––––––––––––––
Analyzed: Extreme / Extreme
––––––––––––––––––––––––––––––––––––––––

DR Peak RMS Duration Track
––––––––––––––––––––––––––––––––––––––––
DR10 -1.38 dB -13.07 dB 3:48 01-Little Girls
DR14 -0.20 dB -15.71 dB 3:37 02-Wind Me Up
DR13 -0.20 dB -15.96 dB 4:05 03-Kid Ego
DR12 -0.77 dB -14.70 dB 4:55 04-Watching, Waiting
DR10 -2.76 dB -15.75 dB 4:52 05-Mutha (Don't Wanna Go To School Today)
DR10 -0.46 dB -13.59 dB 3:02 06-Teacher's Pet
DR10 -1.24 dB -13.37 dB 3:34 07-Big Boys Don't Cry
DR11 -0.48 dB -14.08 dB 4:14 08-Smoke Signals
DR11 -0.20 dB -12.87 dB 3:32 09-Flesh 'n' Blood
DR10 -1.29 dB -16.07 dB 5:57 10-Rock A Bye Bye
DR11 -0.20 dB -12.14 dB 3:29 11-Play With Me
––––––––––––––––––––––––––––––––––––––––

Number of tracks: 11
Official DR value: DR11

Samplerate: 44100 Hz
Channels: 2
Bits per sample: 16
Bitrate: 930 kbps
Codec: FLAC
================================================================================




Extreme - Albums Collection 1989-2010 (7CD) [Re-Up]

Extreme - Extreme II: Pornograffitti (1990)
EAC | FLAC | Image (Cue&Log) ~ 437 Mb | Mp3 (CBR320) ~ 147 Mb
Label: A&M | # 395 313-2 | Time: 01:04:27 | Scans ~ 72 Mb

Extreme came into its own on the concept album Pornograffitti, with the band's strongest set of songs and an intellectual theme revolving around the struggle for genuine love and romance in a sleazy, decadent society full of greed and corruption. The band shows a strong desire to experiment and push the boundaries of the pop-metal format, adding a funky horn section on "Get the Funk Out" and displaying progressive compositional leanings throughout, and virtuoso Nuno Bettencourt puts down his guitar for the enjoyable pseudo-lounge piano ballad of "When I First Kissed You." But of course, the album is best known for its two acoustic-guitar-only hits, the number one ballad "More Than Words" and the equally fine full-band rocker "Hole Hearted." Other highlights include "Decadence Dance" and "Song for Love."

Review by Steve Huey, Allmusic.com

Tracklist:

01. Decadence Dance (06:49)
02. Li'l Jack Horny (04:51)
03. When I'm President (04:21)
04. Get The Funk Out (04:23)
05. More Than Words (05:34)
06. Money (In God We Trust) (04:11)
07. It ('s A Monster) (04:24)
08. Pornograffitti (06:15)
09. When I First Kissed You (04:00)
10. Suzi (Wants Her All Day What?) (03:38)
11. He-Man Woman Hater (06:19)
12. Song For Love (05:55)
13. Hole Hearted (03:39)


Exact Audio Copy V1.0 beta 1 from 15. November 2010

EAC extraction logfile from 31. July 2011, 18:00

Extreme / Pornograffitti

Used drive : ASUS DRW-24B1ST Adapter: 5 ID: 0

Read mode : Secure
Utilize accurate stream : Yes
Defeat audio cache : Yes
Make use of C2 pointers : No

Read offset correction : 6
Overread into Lead-In and Lead-Out : No
Fill up missing offset samples with silence : Yes
Delete leading and trailing silent blocks : No
Null samples used in CRC calculations : Yes
Used interface : Installed external ASPI interface

Used output format : User Defined Encoder
Selected bitrate : 128 kBit/s
Quality : High
Add ID3 tag : No
Command line compressor : D:\Rec Install\lossless\lossless\Exact Audio Copy 0.9b4 + APE WV & FLAC Encoders\FLAC.EXE
Additional command line options : -8 -V %s


TOC of the extracted CD

Track | Start | Length | Start sector | End sector
––––––––––––––––––––––––––––-
1 | 0:00.33 | 6:49.42 | 33 | 30749
2 | 6:50.00 | 4:51.50 | 30750 | 52624
3 | 11:41.50 | 4:21.38 | 52625 | 72237
4 | 16:03.13 | 4:24.17 | 72238 | 92054
5 | 20:27.30 | 5:34.03 | 92055 | 117107
6 | 26:01.33 | 4:11.02 | 117108 | 135934
7 | 30:12.35 | 4:24.60 | 135935 | 155794
8 | 34:37.20 | 6:15.73 | 155795 | 183992
9 | 40:53.18 | 4:00.32 | 183993 | 202024
10 | 44:53.50 | 3:38.38 | 202025 | 218412
11 | 48:32.13 | 6:20.02 | 218413 | 246914
12 | 54:52.15 | 5:55.50 | 246915 | 273589
13 | 60:47.65 | 3:39.30 | 273590 | 290044


Range status and errors

Selected range

Filename G:\Torrent\# MY\Extreme - Discography (1989-2010)\1990 - Pornograffitti\Extreme - Pornograffitti.wav

Peak level 100.0 %
Extraction speed 0.2 X
Range quality 100.0 %
Test CRC DA87C6B8
Copy CRC DA87C6B8
Copy OK

No errors occurred


AccurateRip summary

Track 1 accurately ripped (confidence 9) [2C31F156]
Track 2 accurately ripped (confidence 9) [9E61E12F]
Track 3 accurately ripped (confidence 9) [D111609E]
Track 4 accurately ripped (confidence 9) [7E49EDD9]
Track 5 accurately ripped (confidence 9) [E8B1DF75]
Track 6 accurately ripped (confidence 9) [83658B74]
Track 7 accurately ripped (confidence 9) [8B827E5A]
Track 8 accurately ripped (confidence 9) [22564688]
Track 9 accurately ripped (confidence 9) [7BC70092]
Track 10 accurately ripped (confidence 9) [5F1C2276]
Track 11 accurately ripped (confidence 9) [A91CED10]
Track 12 accurately ripped (confidence 9) [6F17E5E3]
Track 13 accurately ripped (confidence 9) [8AD3CA3C]

All tracks accurately ripped

End of status report

foobar2000 1.2 / Dynamic Range Meter 1.1.1
log date: 2013-10-29 19:03:34

––––––––––––––––––––––––––––––––––––––––
Analyzed: Extreme / Pornograffitti
––––––––––––––––––––––––––––––––––––––––

DR Peak RMS Duration Track
––––––––––––––––––––––––––––––––––––––––
DR10 -0.76 dB -12.41 dB 6:50 01-Decadence Dance
DR10 0.00 dB -12.36 dB 4:52 02-Li'l Jack Horny
DR11 0.00 dB -12.16 dB 4:22 03-When I'm President
DR11 0.00 dB -11.90 dB 4:24 04-Get The Funk Out
DR13 -1.39 dB -18.50 dB 5:34 05-More Than Words
DR11 0.00 dB -12.63 dB 4:11 06-Money (In God We Trust)
DR11 0.00 dB -12.14 dB 4:25 07-It ('s A Monster)
DR10 0.00 dB -12.03 dB 6:16 08-Pornograffitti
DR11 -4.23 dB -19.04 dB 4:00 09-When I First Kissed You
DR11 0.00 dB -12.57 dB 3:39 10-Suzi (Wants Her All Day What?)
DR11 0.00 dB -13.29 dB 6:20 11-He-Man Woman Hater
DR10 0.00 dB -12.51 dB 5:56 12-Song For Love
DR10 -1.24 dB -14.10 dB 3:39 13-Hole Hearted
––––––––––––––––––––––––––––––––––––––––

Number of tracks: 13
Official DR value: DR11

Samplerate: 44100 Hz
Channels: 2
Bits per sample: 16
Bitrate: 948 kbps
Codec: FLAC
================================================================================




Extreme - Albums Collection 1989-2010 (7CD) [Re-Up]

Extreme - III Sides To Every Story (1992)
EAC | FLAC | Image (Cue&Log) ~ 509 Mb | Mp3 (CBR320) ~ 174 Mb
Label: A&M | # 540 006-2 | Time: 01:16:09 | Scans ~ 72 Mb

Extreme's brand of hard rock balanced ambitious, progressive tendencies with catchy melodies owing more to the Beatles than anthemic arena rock; on III Sides to Every Story, the former tends to dominate. The album is divided into three "sides of the story" – roughly speaking, "Yours" concentrates on politically oriented rockers showing off Nuno Bettencourt's virtuosity; "Mine" leans toward pop songs with warmly romantic sensibilities, plus an occasional philosophical lament; and "The Truth" tries to wrap things up into a coherent whole but dissolves into indigestible prog-rock excess. Thus, the thematic material can be likened to a less focused version of Pornograffitti. The album is wildly uneven, but amidst the indulgences there are some fine songs to be found: "Rest in Peace" displays both Bettencourt's technique and melodicism as a soloist, while "Seven Sundays" continues in their occasional lounge ballad vein, and "Tragic Comic" and "Stop the World" are two more intelligent, wounded-romantic pop gems.

Review by Steve Huey, Allmusic.com

Tracklist:

01. Warheads (05:18)
02. Rest In Peace (06:01)
03. Politicalamity (05:04)
04. Color Me Blind (05:00)
05. Cupid's Dead (05:55)
06. Peacemaker Die (06:03)
07. Seven Sundays (04:18)
08. Tragic Comic (04:44)
09. Our Father (04:02)
10. Stop The World (05:57)
11. God Isn't Dead? (02:02)
12. Everything Under The Sun (21:38)


Exact Audio Copy V1.0 beta 1 from 15. November 2010

EAC extraction logfile from 31. July 2011, 18:45

Extreme / III Sides To Every Story

Used drive : ASUS DRW-24B1ST Adapter: 5 ID: 0

Read mode : Secure
Utilize accurate stream : Yes
Defeat audio cache : Yes
Make use of C2 pointers : No

Read offset correction : 6
Overread into Lead-In and Lead-Out : No
Fill up missing offset samples with silence : Yes
Delete leading and trailing silent blocks : No
Null samples used in CRC calculations : Yes
Used interface : Installed external ASPI interface

Used output format : User Defined Encoder
Selected bitrate : 128 kBit/s
Quality : High
Add ID3 tag : No
Command line compressor : D:\Rec Install\lossless\lossless\Exact Audio Copy 0.9b4 + APE WV & FLAC Encoders\FLAC.EXE
Additional command line options : -8 -V %s


TOC of the extracted CD

Track | Start | Length | Start sector | End sector
––––––––––––––––––––––––––––-
1 | 0:00.20 | 5:18.35 | 20 | 23904
2 | 5:18.55 | 6:01.58 | 23905 | 51037
3 | 11:20.38 | 5:04.25 | 51038 | 73862
4 | 16:24.63 | 5:00.42 | 73863 | 96404
5 | 21:25.30 | 5:56.40 | 96405 | 123144
6 | 27:21.70 | 6:03.60 | 123145 | 150429
7 | 33:25.55 | 4:18.08 | 150430 | 169787
8 | 37:43.63 | 4:44.37 | 169788 | 191124
9 | 42:28.25 | 4:02.05 | 191125 | 209279
10 | 46:30.30 | 5:57.70 | 209280 | 236124
11 | 52:28.25 | 2:02.23 | 236125 | 245297
12 | 54:30.48 | 21:38.60 | 245298 | 342707


Range status and errors

Selected range

Filename G:\Torrent\# MY\Extreme - Discography (1989-2010)\1992 - III Sides To Every Story\Extreme - III Sides To Every Story.wav

Peak level 100.0 %
Extraction speed 1.0 X
Range quality 100.0 %
Test CRC 8F0D9F52
Copy CRC 8F0D9F52
Copy OK

No errors occurred


AccurateRip summary

Track 1 accurately ripped (confidence 17) [4579BB10]
Track 2 accurately ripped (confidence 17) [413184F2]
Track 3 accurately ripped (confidence 17) [6DB1AA57]
Track 4 accurately ripped (confidence 17) [5BAFC595]
Track 5 accurately ripped (confidence 17) [D1889535]
Track 6 accurately ripped (confidence 17) [BF7C9C78]
Track 7 accurately ripped (confidence 16) [63FCBE40]
Track 8 accurately ripped (confidence 16) [F958E58A]
Track 9 accurately ripped (confidence 16) [86D9B488]
Track 10 accurately ripped (confidence 16) [82939DED]
Track 11 accurately ripped (confidence 16) [86C4FCB3]
Track 12 accurately ripped (confidence 16) [93B6472D]

All tracks accurately ripped

End of status report

foobar2000 1.2 / Dynamic Range Meter 1.1.1
log date: 2013-10-29 19:04:47

––––––––––––––––––––––––––––––––––––––––
Analyzed: Extreme / III Sides To Every Story
––––––––––––––––––––––––––––––––––––––––

DR Peak RMS Duration Track
––––––––––––––––––––––––––––––––––––––––
DR11 -0.24 dB -12.45 dB 5:18 01-Warheads
DR13 -0.24 dB -14.73 dB 6:02 02-Rest In Peace
DR13 -0.24 dB -14.71 dB 5:04 03-Politicalamity
DR11 -0.24 dB -12.39 dB 5:01 04-Color Me Blind
DR14 -0.24 dB -15.67 dB 5:57 05-Cupid's Dead
DR13 -0.24 dB -14.81 dB 6:04 06-Peacemaker Die
DR11 -0.24 dB -13.38 dB 4:18 07-Seven Sundays
DR13 -0.24 dB -14.04 dB 4:44 08-Tragic Comic
DR13 0.00 dB -14.26 dB 4:02 09-Our Father
DR11 -0.24 dB -12.99 dB 5:58 10-Stop The World
DR11 -0.24 dB -17.33 dB 2:02 11-God Isn't Dead?
DR12 -0.24 dB -15.72 dB 21:39 12-Everything Under The Sun
––––––––––––––––––––––––––––––––––––––––

Number of tracks: 12
Official DR value: DR12

Samplerate: 44100 Hz
Channels: 2
Bits per sample: 16
Bitrate: 935 kbps
Codec: FLAC
================================================================================




Extreme - Albums Collection 1989-2010 (7CD) [Re-Up]

Extreme - Waiting For The Punchline (1995)
EAC | FLAC | Image (Cue&Log) ~ 452 Mb | Mp3 (CBR320) ~ 151 Mb
Label: A&M | # 540 305-2 | Time: 01:06:08 | Scans ~ 91 Mb

Extreme's third album was lost in the thunder of grunge, selling far below expectations. The group fought back with Waiting for the Punchline, blasting out at the new wave of hard rockers by saying they'll be "Hip Today" and, presumably, gone tomorrow. Such proclamations would carry greater weight if they were supported by music that didn't replicate the soft melodic crunch of '80s pop-metal. Nuno Bettencourt remains a stunningly accomplished guitarist, but as a composer he's stuck in an increasingly restrictive formula.

Review by Stephen Thomas Erlewine, Allmusic.com

Tracklist:

01. There Is No God (06:08)
02. Cynical (04:41)
03. Tell Me Something I Don't Know (06:24)
04. Hip Today (04:41)
05. Naked (05:47)
06. Midnight Express (03:59)
07. Leave Me Alone (04:47)
08. No Respect (03:51)
09. Evilangelist (04:48)
10. Shadow Boxing (04:34)
11. Unconditionally (05:01)
12. Fair-Weather Faith / Waiting For The Punchline (Hidden track) (11:15)


Exact Audio Copy V1.0 beta 1 from 15. November 2010

EAC extraction logfile from 31. July 2011, 19:32

Extreme / Waiting For The Punchline

Used drive : ASUS DRW-24B1ST Adapter: 5 ID: 0

Read mode : Secure
Utilize accurate stream : Yes
Defeat audio cache : Yes
Make use of C2 pointers : No

Read offset correction : 6
Overread into Lead-In and Lead-Out : No
Fill up missing offset samples with silence : Yes
Delete leading and trailing silent blocks : No
Null samples used in CRC calculations : Yes
Used interface : Installed external ASPI interface

Used output format : User Defined Encoder
Selected bitrate : 128 kBit/s
Quality : High
Add ID3 tag : No
Command line compressor : D:\Rec Install\lossless\lossless\Exact Audio Copy 0.9b4 + APE WV & FLAC Encoders\FLAC.EXE
Additional command line options : -8 -V %s


TOC of the extracted CD

Track | Start | Length | Start sector | End sector
––––––––––––––––––––––––––––-
1 | 0:00.00 | 6:08.03 | 0 | 27602
2 | 6:08.03 | 4:41.50 | 27603 | 48727
3 | 10:49.53 | 6:25.55 | 48728 | 77657
4 | 17:15.33 | 4:42.17 | 77658 | 98824
5 | 21:57.50 | 5:47.20 | 98825 | 124869
6 | 27:44.70 | 3:59.03 | 124870 | 142797
7 | 31:43.73 | 4:47.52 | 142798 | 164374
8 | 36:31.50 | 3:52.10 | 164375 | 181784
9 | 40:23.60 | 4:49.28 | 181785 | 203487
10 | 45:13.13 | 4:35.05 | 203488 | 224117
11 | 49:48.18 | 5:05.02 | 224118 | 246994
12 | 54:53.20 | 11:15.38 | 246995 | 297657


Range status and errors

Selected range

Filename G:\Torrent\# MY\Extreme - Discography (1989-2010)\1995 - Waiting For The Punchline\Extreme - Waiting For The Punchline.wav

Peak level 97.9 %
Extraction speed 1.1 X
Range quality 100.0 %
Test CRC 10B95BC1
Copy CRC 10B95BC1
Copy OK

No errors occurred


AccurateRip summary

Track 1 accurately ripped (confidence 4) [1A80161E]
Track 2 accurately ripped (confidence 4) [6E607A8F]
Track 3 accurately ripped (confidence 4) [0F18D445]
Track 4 accurately ripped (confidence 4) [1E1096AA]
Track 5 accurately ripped (confidence 4) [111C41E5]
Track 6 accurately ripped (confidence 4) [EF686BEB]
Track 7 accurately ripped (confidence 4) [9C2E225F]
Track 8 accurately ripped (confidence 4) [DCD33770]
Track 9 accurately ripped (confidence 4) [E8F0A45D]
Track 10 accurately ripped (confidence 4) [4060EF21]
Track 11 accurately ripped (confidence 4) [EE9403AA]
Track 12 accurately ripped (confidence 4) [38D9A934]

All tracks accurately ripped

End of status report

foobar2000 1.2 / Dynamic Range Meter 1.1.1
log date: 2013-10-29 19:05:06

––––––––––––––––––––––––––––––––––––––––
Analyzed: Extreme / Waiting For The Punchline
––––––––––––––––––––––––––––––––––––––––

DR Peak RMS Duration Track
––––––––––––––––––––––––––––––––––––––––
DR10 -0.20 dB -11.73 dB 6:08 01-There Is No God
DR10 -0.20 dB -11.36 dB 4:42 02-Cynical
DR9 -0.18 dB -10.60 dB 6:26 03-Tell Me Something I Don't Know
DR10 -0.20 dB -11.34 dB 4:42 04-Hip Today
DR10 -0.20 dB -12.89 dB 5:47 05-Naked
DR12 -0.20 dB -13.96 dB 3:59 06-Midnight Express
DR11 -0.20 dB -12.26 dB 4:48 07-Leave Me Alone
DR10 -0.20 dB -11.86 dB 3:52 08-No Respect
DR10 -0.20 dB -11.40 dB 4:49 09-Evilangelist
DR10 -0.20 dB -12.34 dB 4:35 10-Shadow Boxing
DR11 -0.20 dB -14.11 dB 5:05 11-Unconditionally
DR10 -0.20 dB -12.04 dB 11:16 12-Fair-Weather Faith / Waiting For The Punchline (Hidden track)
––––––––––––––––––––––––––––––––––––––––

Number of tracks: 12
Official DR value: DR10

Samplerate: 44100 Hz
Channels: 2
Bits per sample: 16
Bitrate: 956 kbps
Codec: FLAC
================================================================================




Extreme - Albums Collection 1989-2010 (7CD) [Re-Up]

Extreme - Saudades De Rock (2008)
EAC | FLAC | Image (Cue&Log) ~ 420 Mb | Mp3 (CBR320) ~ 145 Mb
Label: Open E | # 718122406036 | Time: 01:03:21 | Scans ~ 64 Mb

Following two short-lived live reunions in 2004 and 2006, Extreme reconvened for real in 2007, which inevitably led to the release of SAUDADES DE ROCK. Core members Gary Cherone (vocals), Pat Badger (bass), and Nuno Bettencourt (guitar) are joined by former DramaGods/Satellite Party drummer Kevin Figueiredo (who built a grooving kinship with Nuno in both aforementioned bands). In many ways SAUDADES picks up right where 1995's WAITING FOR THE PUNCHLINE left off. Like the previous album, the new material boasts a raw, live-in-the-studio vibe. Fans familiar with Extreme's instrumental muscle and genre-jumping style can expect plenty of diversity here–from the requisite funk metal ("Run," "Comfortable Dumb") to countrified rock ("Take Us Alive") to more gentle, piano-driven ballads ("Ghost," "Peace").

Review by Doug Odell, Allmusic.com

Tracklist:

01. Star (04:11)
02. Comfortably Dumb (04:44)
03. Learn To Love (05:27)
04. Take Us Alive (03:23)
05. Run (04:41)
06. Last Hour (05:37)
07. Flower Man (03:53)
08. King Of The Ladies (04:22)
09. Ghost (04:58)
10. Slide (04:35)
11. Interface (04:34)
12. Sunnie (06:14)
13. Peace (Saudade) (06:35)


Exact Audio Copy V1.0 beta 1 from 15. November 2010

EAC extraction logfile from 31. July 2011, 20:51

Extreme / Saudades De Rock

Used drive : ASUS DRW-24B1ST Adapter: 5 ID: 0

Read mode : Secure
Utilize accurate stream : Yes
Defeat audio cache : Yes
Make use of C2 pointers : No

Read offset correction : 6
Overread into Lead-In and Lead-Out : No
Fill up missing offset samples with silence : Yes
Delete leading and trailing silent blocks : No
Null samples used in CRC calculations : Yes
Used interface : Installed external ASPI interface

Used output format : User Defined Encoder
Selected bitrate : 128 kBit/s
Quality : High
Add ID3 tag : No
Command line compressor : D:\Rec Install\lossless\lossless\Exact Audio Copy 0.9b4 + APE WV & FLAC Encoders\FLAC.EXE
Additional command line options : -8 -V %s


TOC of the extracted CD

Track | Start | Length | Start sector | End sector
––––––––––––––––––––––––––––-
1 | 0:00.00 | 4:11.38 | 0 | 18862
2 | 4:11.38 | 4:44.36 | 18863 | 40198
3 | 8:55.74 | 5:27.55 | 40199 | 64778
4 | 14:23.54 | 3:23.46 | 64779 | 80049
5 | 17:47.25 | 4:41.00 | 80050 | 101124
6 | 22:28.25 | 5:37.51 | 101125 | 126450
7 | 28:06.01 | 3:53.74 | 126451 | 143999
8 | 32:00.00 | 4:22.55 | 144000 | 163704
9 | 36:22.55 | 4:58.55 | 163705 | 186109
10 | 41:21.35 | 4:35.09 | 186110 | 206743
11 | 45:56.44 | 4:34.68 | 206744 | 227361
12 | 50:31.37 | 6:14.04 | 227362 | 255415
13 | 56:45.41 | 6:35.37 | 255416 | 285077


Range status and errors

Selected range

Filename G:\Torrent\# MY\Extreme - Discography (1989-2010)\2008 - Saudades De Rock\Extreme - Saudades De Rock.wav

Peak level 100.0 %
Extraction speed 0.3 X
Range quality 100.0 %
Test CRC 0B5546B2
Copy CRC 0B5546B2
Copy OK

No errors occurred


AccurateRip summary

Track 1 accurately ripped (confidence 6) [D7115FC2]
Track 2 accurately ripped (confidence 6) [53F5AC70]
Track 3 accurately ripped (confidence 6) [B26293EA]
Track 4 accurately ripped (confidence 6) [B2929A4E]
Track 5 accurately ripped (confidence 6) [15D54D34]
Track 6 accurately ripped (confidence 6) [968E03A8]
Track 7 accurately ripped (confidence 6) [34DFA940]
Track 8 accurately ripped (confidence 6) [A606138D]
Track 9 accurately ripped (confidence 6) [49F9413F]
Track 10 accurately ripped (confidence 6) [1B2567B3]
Track 11 accurately ripped (confidence 6) [2E87D952]
Track 12 accurately ripped (confidence 6) [49C879DA]
Track 13 accurately ripped (confidence 6) [BBCC851F]

All tracks accurately ripped

End of status report

foobar2000 1.2 / Dynamic Range Meter 1.1.1
log date: 2013-10-29 19:05:23

––––––––––––––––––––––––––––––––––––––––
Analyzed: Extreme / Saudades De Rock
––––––––––––––––––––––––––––––––––––––––

DR Peak RMS Duration Track
––––––––––––––––––––––––––––––––––––––––
DR7 -0.24 dB -8.45 dB 4:12 01-Star
DR7 0.00 dB -8.73 dB 4:44 02-Comfortably Dumb
DR7 0.00 dB -8.34 dB 5:28 03-Learn To Love
DR8 0.00 dB -9.37 dB 3:24 04-Take Us Alive
DR7 0.00 dB -9.03 dB 4:41 05-Run
DR7 0.00 dB -11.29 dB 5:38 06-Last Hour
DR8 0.00 dB -9.81 dB 3:54 07-Flower Man
DR8 0.00 dB -9.67 dB 4:23 08-King Of The Ladies
DR8 -0.12 dB -11.07 dB 4:59 09-Ghost
DR7 0.00 dB -8.84 dB 4:35 10-Slide
DR7 -0.39 dB -9.90 dB 4:35 11-Interface
DR9 0.00 dB -10.64 dB 6:14 12-Sunnie
DR8 0.00 dB -12.75 dB 6:35 13-Peace (Saudade)
––––––––––––––––––––––––––––––––––––––––

Number of tracks: 13
Official DR value: DR7

Samplerate: 44100 Hz
Channels: 2
Bits per sample: 16
Bitrate: 928 kbps
Codec: FLAC
================================================================================




Extreme - Albums Collection 1989-2010 (7CD) [Re-Up]

Extreme - Take Us Alive (2010) 2CDs
EAC | FLAC | Image (Cue&Log) ~ 703 Mb | Mp3 (CBR320) ~ 246 Mb
Label: Frontiers Records | # FR CD 456 | Time: 01:43:30 | Scans ~ 52 Mb

2010 two CD live release from the Hard Rock legends, recorded at the House of Blues on August 8th, 2009. If there is one word to best describe what Extreme is like live, it would be PERFORMANCE. To hear an Extreme record and to see an Extreme concert has always been two different experiences… until now! Nuno Bettencourt's guitar work is electrifying and to hear some of the earlier material with this live treatment will certainly excite fans both old and new. The energy of the band is unrelenting, led by frontman Gary Cherone's command of the stage. 17 tracks including 'Decadence Dance' and 'More Than Words'.

Tracklist:

CD1:

01. Decadence Dance (08:12)
02. Comfortably Dumb (05:22)
03. Rest In Peace (05:21)
04. It ('s A Monster) (05:29)
05. Star (05:42)
06. Tell Me Something I Don't Know (07:58)
07. Medley: Kid Ego / Little Girls / Teacher's Pet (06:00)
08. Play With Me (09:06)
09. Midnight Express (04:10)

CD2:

01. More Than Words (07:26)
02. Ghost (04:51)
03. Cupid's Dead (06:58)
04. Take Us Alive (06:04)
05. Flight Of The Wounded Bumblebee (01:51)
06. Get The Funk Out (07:37)
07. Am I Ever Gonna Change (06:57)
08. Hole Hearted (04:13)


Exact Audio Copy V1.0 beta 1 from 15. November 2010

EAC extraction logfile from 31. July 2011, 21:27

Extreme / Take Us Alive

Used drive : ASUS DRW-24B1ST Adapter: 5 ID: 0

Read mode : Secure
Utilize accurate stream : Yes
Defeat audio cache : Yes
Make use of C2 pointers : No

Read offset correction : 6
Overread into Lead-In and Lead-Out : No
Fill up missing offset samples with silence : Yes
Delete leading and trailing silent blocks : No
Null samples used in CRC calculations : Yes
Used interface : Installed external ASPI interface

Used output format : User Defined Encoder
Selected bitrate : 128 kBit/s
Quality : High
Add ID3 tag : No
Command line compressor : D:\Rec Install\lossless\lossless\Exact Audio Copy 0.9b4 + APE WV & FLAC Encoders\FLAC.EXE
Additional command line options : -8 -V %s


TOC of the extracted CD

Track | Start | Length | Start sector | End sector
––––––––––––––––––––––––––––-
1 | 0:00.00 | 8:12.15 | 0 | 36914
2 | 8:12.15 | 5:22.73 | 36915 | 61137
3 | 13:35.13 | 5:21.61 | 61138 | 85273
4 | 18:56.74 | 5:29.41 | 85274 | 109989
5 | 24:26.40 | 5:42.32 | 109990 | 135671
6 | 30:08.72 | 7:58.50 | 135672 | 171571
7 | 38:07.47 | 6:00.62 | 171572 | 198633
8 | 44:08.34 | 9:06.33 | 198634 | 239616
9 | 53:14.67 | 4:10.23 | 239617 | 258389


Range status and errors

Selected range

Filename G:\Torrent\# MY\Extreme - Discography (1989-2010)\2010 - Take Us Alive\CD-1\Extreme - Take Us Alive (CD-1).wav

Peak level 100.0 %
Extraction speed 0.2 X
Range quality 99.9 %
Test CRC 18D67793
Copy CRC 18D67793
Copy OK

No errors occurred


AccurateRip summary

Track 1 accurately ripped (confidence 2) [5D3B9CF7]
Track 2 accurately ripped (confidence 2) [FC8FE643]
Track 3 accurately ripped (confidence 2) [1381AF8D]
Track 4 accurately ripped (confidence 2) [8AA07039]
Track 5 accurately ripped (confidence 2) [8D1E1939]
Track 6 accurately ripped (confidence 2) [68011991]
Track 7 accurately ripped (confidence 2) [DDFD9BB1]
Track 8 accurately ripped (confidence 2) [9CC836D3]
Track 9 accurately ripped (confidence 2) [D1F04AD1]

All tracks accurately ripped

End of status report

Exact Audio Copy V1.0 beta 1 from 15. November 2010

EAC extraction logfile from 31. July 2011, 21:53

Extreme / Take Us Alive

Used drive : ASUS DRW-24B1ST Adapter: 5 ID: 0

Read mode : Secure
Utilize accurate stream : Yes
Defeat audio cache : Yes
Make use of C2 pointers : No

Read offset correction : 6
Overread into Lead-In and Lead-Out : No
Fill up missing offset samples with silence : Yes
Delete leading and trailing silent blocks : No
Null samples used in CRC calculations : Yes
Used interface : Installed external ASPI interface

Used output format : User Defined Encoder
Selected bitrate : 128 kBit/s
Quality : High
Add ID3 tag : No
Command line compressor : D:\Rec Install\lossless\lossless\Exact Audio Copy 0.9b4 + APE WV & FLAC Encoders\FLAC.EXE
Additional command line options : -8 -V %s


TOC of the extracted CD

Track | Start | Length | Start sector | End sector
––––––––––––––––––––––––––––-
1 | 0:00.00 | 7:26.37 | 0 | 33486
2 | 7:26.37 | 4:51.60 | 33487 | 55371
3 | 12:18.22 | 6:58.08 | 55372 | 86729
4 | 19:16.30 | 6:04.48 | 86730 | 114077
5 | 25:21.03 | 1:51.39 | 114078 | 122441
6 | 27:12.42 | 7:37.25 | 122442 | 156741
7 | 34:49.67 | 6:57.66 | 156742 | 188082
8 | 41:47.58 | 4:13.47 | 188083 | 207104


Range status and errors

Selected range

Filename G:\Torrent\# MY\Extreme - Discography (1989-2010)\2010 - Take Us Alive\CD-2\Extreme - Take Us Alive (CD-2).wav

Peak level 100.0 %
Extraction speed 0.2 X
Range quality 100.0 %
Test CRC 7B6A3255
Copy CRC 7B6A3255
Copy OK

No errors occurred


AccurateRip summary

Track 1 accurately ripped (confidence 2) [E69E4569]
Track 2 accurately ripped (confidence 2) [437A5390]
Track 3 accurately ripped (confidence 2) [7CCC6A0D]
Track 4 accurately ripped (confidence 2) [3294E953]
Track 5 accurately ripped (confidence 2) [F897432E]
Track 6 accurately ripped (confidence 2) [C45EC0B3]
Track 7 accurately ripped (confidence 2) [9CD99D42]
Track 8 accurately ripped (confidence 2) [C4D0BFFF]

All tracks accurately ripped

End of status report

foobar2000 1.2 / Dynamic Range Meter 1.1.1
log date: 2013-10-29 19:05:39

––––––––––––––––––––––––––––––––––––––––
Analyzed: Extreme / Take Us Alive
––––––––––––––––––––––––––––––––––––––––

DR Peak RMS Duration Track
––––––––––––––––––––––––––––––––––––––––
DR8 0.00 dB -9.67 dB 8:12 01-Decadence Dance
DR8 0.00 dB -8.99 dB 5:23 02-Comfortably Dumb
DR8 0.00 dB -9.74 dB 5:22 03-Rest In Peace
DR8 0.00 dB -9.10 dB 5:30 04-It ('s A Monster)
DR8 0.00 dB -9.34 dB 5:42 05-Star
DR8 0.00 dB -10.39 dB 7:59 06-Tell Me Something I Don't Know
DR8 0.00 dB -9.48 dB 6:01 07-Medley: Kid Ego / Little Girls / Teacher's Pet
DR8 0.00 dB -10.50 dB 9:06 08-Play With Me
DR10 0.00 dB -12.01 dB 4:10 09-Midnight Express
––––––––––––––––––––––––––––––––––––––––

Number of tracks: 9
Official DR value: DR8

Samplerate: 44100 Hz
Channels: 2
Bits per sample: 16
Bitrate: 980 kbps
Codec: FLAC
================================================================================

Exact Audio Copy V1.0 beta 1 from 15. November 2010

EAC extraction logfile from 31. July 2011, 21:53

Extreme / Take Us Alive

Used drive : ASUS DRW-24B1ST Adapter: 5 ID: 0

Read mode : Secure
Utilize accurate stream : Yes
Defeat audio cache : Yes
Make use of C2 pointers : No

Read offset correction : 6
Overread into Lead-In and Lead-Out : No
Fill up missing offset samples with silence : Yes
Delete leading and trailing silent blocks : No
Null samples used in CRC calculations : Yes
Used interface : Installed external ASPI interface

Used output format : User Defined Encoder
Selected bitrate : 128 kBit/s
Quality : High
Add ID3 tag : No
Command line compressor : D:\Rec Install\lossless\lossless\Exact Audio Copy 0.9b4 + APE WV & FLAC Encoders\FLAC.EXE
Additional command line options : -8 -V %s


TOC of the extracted CD

Track | Start | Length | Start sector | End sector
––––––––––––––––––––––––––––-
1 | 0:00.00 | 7:26.37 | 0 | 33486
2 | 7:26.37 | 4:51.60 | 33487 | 55371
3 | 12:18.22 | 6:58.08 | 55372 | 86729
4 | 19:16.30 | 6:04.48 | 86730 | 114077
5 | 25:21.03 | 1:51.39 | 114078 | 122441
6 | 27:12.42 | 7:37.25 | 122442 | 156741
7 | 34:49.67 | 6:57.66 | 156742 | 188082
8 | 41:47.58 | 4:13.47 | 188083 | 207104


Range status and errors

Selected range

Filename G:\Torrent\# MY\Extreme - Discography (1989-2010)\2010 - Take Us Alive\CD-2\Extreme - Take Us Alive (CD-2).wav

Peak level 100.0 %
Extraction speed 0.2 X
Range quality 100.0 %
Test CRC 7B6A3255
Copy CRC 7B6A3255
Copy OK

No errors occurred


AccurateRip summary

Track 1 accurately ripped (confidence 2) [E69E4569]
Track 2 accurately ripped (confidence 2) [437A5390]
Track 3 accurately ripped (confidence 2) [7CCC6A0D]
Track 4 accurately ripped (confidence 2) [3294E953]
Track 5 accurately ripped (confidence 2) [F897432E]
Track 6 accurately ripped (confidence 2) [C45EC0B3]
Track 7 accurately ripped (confidence 2) [9CD99D42]
Track 8 accurately ripped (confidence 2) [C4D0BFFF]

All tracks accurately ripped

End of status report




All thanks to original releaser - Ginger Devil

More interesting music in My Blog