Tags
Language
Tags

Fleetwood Mac - The Complete Blue Horizon Sessions: 1967-1969 (1999) 6CD Box Set [Re-Up]

Posted By:
Fleetwood Mac - The Complete Blue Horizon Sessions: 1967-1969 (1999) 6CD Box Set [Re-Up]

Fleetwood Mac - The Complete Blue Horizon Sessions: 1967-1969 (1999) 6CD Box Set
EAC | FLAC | Image (Cue&Log) ~ 2.27 Gb | Mp3 (CBR320) ~ 927 Mb | Scans ~ 101 Mb
Genre: British Blues, Blues-Rock | Label: Columbia | # 494641 2 | Time: 06:44:05

The Complete Blue Horizon Sessions 1967–1969 is a boxed set by British blues rock band Fleetwood Mac, released in 1999. It was a 6CD compilation of previously released material, plus outtakes and unreleased tracks from the band's early line-up, coming in a longbox with individually boxed CDs and a booklet of extensive notes and anecdotes, written by producer Mike Vernon. It represents the entire recorded output of Fleetwood Mac whilst they were signed to the Blue Horizon label.

A six-CD set of everything Fleetwood Mac recorded for the British Blue Horizon label. Wait, you're saying, didn't they only do two albums for Blue Horizon before leaving the company in early 1969? True, but there were also the non-LP singles that comprised the bulk of the U.K. compilation The Pious Bird of Good Omen, the two albums of blues jams in Chicago that came out later in 1969, and the 1971 LP The Original Fleetwood Mac, comprised of early outtakes. Make each of those half-dozen LPs a CD, add some outtakes and alternate takes to each, and you've got a pretty full box. Unintentionally, this box makes the Mac a candidate for Most Erratic Major Rock Group of the Late 1960s, ranging from the sheer brilliance of Peter Green's songs to rote blues covers that are downright mundane, particularly some of the Jeremy Spencer showcases and Chicago blues jams. If you're a committed enough fan to consider buying this box, you already know that; you're probably more concerned with whether the previously unreleased material merits the cost. Those extras are marginal, to be honest, comprised largely of false starts, incidental studio chatter, and alternate versions that are pretty close to the official takes. Certainly the highlight of those newly unearthed tracks is the 37 minutes of alternate takes of "Need Your Love So Bad." It's also nice that the Danny Kirwan tracks that appeared only on the U.S. album English Rose are here as well. Unfortunately, this is not a complete retrospective of the Peter Green era, whose best material was recorded for Reprise; there's also a lot of noteworthy live stuff that appeared on different labels. Looking for more reasons to get the box anyway? There are extensive notes by producer Mike Vernon, which incorporate a few comments from Green.

Review by Richie Unterberger, Allmusic.com

Website
Wiki



Fleetwood Mac - The Complete Blue Horizon Sessions: 1967-1969 (1999) 6CD Box Set [Re-Up]

CD1: Peter Green's Fleetwood Maс 1968 | Time: 01:03:37

Fleetwood Mac's debut LP was a highlight of the late-'60s British blues boom. Green's always inspired playing, the capable (if erratic) songwriting, and the general panache of the band as a whole placed them leagues above the overcrowded field. Elmore James is a big influence on this set, particularly on the tunes fronted by Jeremy Spencer ("Shake Your Moneymaker," "Got to Move"). Spencer's bluster, however, was outshone by the budding singing and songwriting skills of Green. The guitarist balanced humor and vulnerability on cuts like "Looking for Somebody" and "Long Grey Mare," and with "If I Loved Another Woman," he offered a glimpse of the Latin-blues fusion that he would perfect with "Black Magic Woman." The album was an unexpected smash in the U.K., reaching number four on the British charts.

Review by Richie Unterberger, Allmusic.com

Tracklist:

01. My Heart Beat Like A Hammer (03:33)
02. Merry Go Round (04:19)
03. Long Grey Mare (02:14)
04. Hellhound On My Trail (02:05)
05. Shake Your Moneymaker (03:13)
06. Looking For Somebody (02:51)
07. No Place To Go (03:20)
08. My Baby's Good To Me (02:50)
09. I Loved Another Woman (02:56)
10. Cold Black Night (03:16)
11. The World Keep On Turning (02:29)
12. Got To Move (03:20)
13. My Heart Beat Like A Hammer (take 1) (03:43)
14. Merry Go Round (take 1) (00:56)
15. I Loved Another Woman (takes 1, 2, 3 & 4) (06:08)
16. I Loved Another Woman (takes 5 & 6) (05:10)
17. Cold Black Night (takes 1, 2, 3, 4, 5 & 6) (05:29)
18. You're So Evil (Previously Unissued) (03:06)
19. I'm Coming Home To Stay (Previously Unissued) (02:28)


Exact Audio Copy V0.99 prebeta 5 from 4. May 2009

EAC extraction logfile from 6. June 2009, 18:50

Fleetwood Mac / Peter Green's Fleetwood Maс (Blue Horizon Boxset Disc 1)

Used drive : PLEXTOR DVDR PX-810SA Adapter: 5 ID: 0

Read mode : Secure
Utilize accurate stream : Yes
Defeat audio cache : Yes
Make use of C2 pointers : No

Read offset correction : 48
Overread into Lead-In and Lead-Out : No
Fill up missing offset samples with silence : Yes
Delete leading and trailing silent blocks : No
Null samples used in CRC calculations : Yes
Used interface : Native Win32 interface for Win NT & 2000

Used output format : Internal WAV Routines
Sample format : 44.100 Hz; 16 Bit; Stereo


TOC of the extracted CD

Track | Start | Length | Start sector | End sector
––––––––––––––––––––––––––––-
1 | 0:00.00 | 3:33.12 | 0 | 15986
2 | 3:33.12 | 4:19.58 | 15987 | 35469
3 | 7:52.70 | 2:14.40 | 35470 | 45559
4 | 10:07.35 | 2:05.65 | 45560 | 54999
5 | 12:13.25 | 3:13.47 | 55000 | 69521
6 | 15:26.72 | 2:51.55 | 69522 | 82401
7 | 18:18.52 | 3:20.63 | 82402 | 97464
8 | 21:39.40 | 2:50.62 | 97465 | 110276
9 | 24:30.27 | 2:56.28 | 110277 | 123504
10 | 27:26.55 | 3:16.70 | 123505 | 138274
11 | 30:43.50 | 2:29.02 | 138275 | 149451
12 | 33:12.52 | 3:20.38 | 149452 | 164489
13 | 36:33.15 | 3:43.27 | 164490 | 181241
14 | 40:16.42 | 0:56.40 | 181242 | 185481
15 | 41:13.07 | 6:08.58 | 185482 | 213139
16 | 47:21.65 | 5:10.22 | 213140 | 236411
17 | 52:32.12 | 5:29.65 | 236412 | 261151
18 | 58:02.02 | 3:06.63 | 261152 | 275164
19 | 61:08.65 | 2:28.45 | 275165 | 286309


Range status and errors

Selected range

Filename O:\CD1Image.wav

Peak level 96.1 %
Range quality 100.0 %
Test CRC 8F1C4B09
Copy CRC 8F1C4B09
Copy OK

No errors occurred


AccurateRip summary

Track 1 accurately ripped (confidence 22) [1412D7AD]
Track 2 accurately ripped (confidence 22) [08048BD2]
Track 3 accurately ripped (confidence 22) [CFF7D543]
Track 4 accurately ripped (confidence 22) [68B17B59]
Track 5 accurately ripped (confidence 22) [0A365CCC]
Track 6 accurately ripped (confidence 23) [4E162321]
Track 7 accurately ripped (confidence 22) [123A5D52]
Track 8 accurately ripped (confidence 22) [0E40302B]
Track 9 accurately ripped (confidence 22) [36E1786C]
Track 10 accurately ripped (confidence 22) [550F1912]
Track 11 accurately ripped (confidence 22) [6C9D4B0B]
Track 12 accurately ripped (confidence 22) [0E3E559B]
Track 13 accurately ripped (confidence 21) [E7F9E30B]
Track 14 accurately ripped (confidence 21) [45CF9A1D]
Track 15 accurately ripped (confidence 21) [82C38D11]
Track 16 accurately ripped (confidence 21) [358B08A1]
Track 17 accurately ripped (confidence 21) [A8B32952]
Track 18 accurately ripped (confidence 22) [FA2A3A05]
Track 19 accurately ripped (confidence 21) [F2C73CA1]

All tracks accurately ripped

End of status report

[CUETools log; Date: 17.12.2019 19:23:49; Version: 2.1.4]
[AccurateRip ID: 002999a4-024ac152-0f0ee913] found.
Track [ CRC | V2 ] Status
01 [1412d7ad|a95aaca7] (039+085/235) Accurately ripped
02 [08048bd2|6e681f57] (039+086/236) Accurately ripped
03 [cff7d543|9083f69a] (039+086/236) Accurately ripped
04 [68b17b59|67498ca0] (039+086/236) Accurately ripped
05 [0a365ccc|836f64fc] (039+086/236) Accurately ripped
06 [4e162321|89455eee] (040+086/236) Accurately ripped
07 [123a5d52|c72a75f3] (039+086/236) Accurately ripped
08 [0e40302b|4d158565] (039+086/236) Accurately ripped
09 [36e1786c|9bb0c723] (039+086/236) Accurately ripped
10 [550f1912|67ead004] (039+086/236) Accurately ripped
11 [6c9d4b0b|64c7d794] (039+086/236) Accurately ripped
12 [0e3e559b|2f7ed28c] (039+086/233) Accurately ripped
13 [e7f9e30b|68610d91] (038+084/229) Accurately ripped
14 [45cf9a1d|5aa91532] (037+084/228) Accurately ripped
15 [82c38d11|f64fa95e] (038+084/229) Accurately ripped
16 [358b08a1|cf147c1b] (037+084/228) Accurately ripped
17 [a8b32952|bf32235a] (038+084/228) Accurately ripped
18 [fa2a3a05|0aa92fe6] (039+084/232) Accurately ripped
19 [f2c73ca1|9f872243] (038+082/226) Accurately ripped
Offsetted by 628:
01 [85eadac3] (031/235) Accurately ripped
02 [3f659b24] (031/236) Accurately ripped
03 [beddb027] (031/236) Accurately ripped
04 [c683e680] (031/236) Accurately ripped
05 [ddf805f3] (031/236) Accurately ripped
06 [47e93e65] (031/236) Accurately ripped
07 [395f5e92] (031/236) Accurately ripped
08 [3adb2187] (031/236) Accurately ripped
09 [5cd4711a] (031/236) Accurately ripped
10 [ad862cf6] (031/236) Accurately ripped
11 [29641d07] (031/236) Accurately ripped
12 [36887db1] (031/233) Accurately ripped
13 [9447e6f5] (030/229) Accurately ripped
14 [992c1782] (030/228) Accurately ripped
15 [1bb112bb] (030/229) Accurately ripped
16 [26ca540f] (030/228) Accurately ripped
17 [d0932450] (030/228) Accurately ripped
18 [c7164303] (030/232) Accurately ripped
19 [0752e0a4] (029/226) Accurately ripped
Offsetted by 676:
01 [e4389b9f] (012/235) Accurately ripped
02 [e01b830f] (012/236) Accurately ripped
03 [792f85cf] (012/236) Accurately ripped
04 [75377e71] (012/236) Accurately ripped
05 [6caa0496] (012/236) Accurately ripped
06 [65f41ffd] (011/236) Accurately ripped
07 [0cd0cce1] (012/236) Accurately ripped
08 [d0213cc0] (012/236) Accurately ripped
09 [1de4316b] (012/236) Accurately ripped
10 [bad16d96] (012/236) Accurately ripped
11 [313925ce] (012/236) Accurately ripped
12 [9dbc607a] (011/233) Accurately ripped
13 [283c9255] (011/229) Accurately ripped
14 [d3376a9f] (011/228) Accurately ripped
15 [7d51112b] (011/229) Accurately ripped
16 [f7945915] (011/228) Accurately ripped
17 [92bf9c2f] (011/228) Accurately ripped
18 [d75851de] (011/232) Accurately ripped
19 [4e956000] (011/226) Accurately ripped
Offsetted by -700:
01 [57950d81] (000/235) No match (V2 was not tested)
02 [bfaf409b] (000/236) No match (V2 was not tested)
03 [03697b9f] (000/236) No match (V2 was not tested)
04 [f8bfd763] (000/236) No match (V2 was not tested)
05 [bf853a1f] (000/236) No match (V2 was not tested)
06 [feab22e3] (000/236) No match (V2 was not tested)
07 [19906322] (000/236) No match (V2 was not tested)
08 [aaa8be72] (000/236) No match (V2 was not tested)
09 [7d4b9205] (000/236) No match (V2 was not tested)
10 [8992840e] (000/236) No match (V2 was not tested)
11 [0bff407d] (000/236) No match (V2 was not tested)
12 [58990e58] (000/233) No match (V2 was not tested)
13 [ee9083e4] (000/229) No match (V2 was not tested)
14 [ec8268c4] (000/228) No match (V2 was not tested)
15 [5566e69a] (000/229) No match (V2 was not tested)
16 [fe6e42b3] (000/228) No match (V2 was not tested)
17 [912d0f6b] (000/228) No match (V2 was not tested)
18 [7b45630d] (000/232) No match (V2 was not tested)
19 [c702f765] (000/226) No match (V2 was not tested)
Offsetted by -670:
01 [c5b63e06] (000/235) No match (V2 was not tested)
02 [2fd7f3f6] (000/236) No match (V2 was not tested)
03 [8fe4b999] (000/236) No match (V2 was not tested)
04 [e7450d71] (000/236) No match (V2 was not tested)
05 [1790b6b6] (000/236) No match (V2 was not tested)
06 [60a9e281] (000/236) No match (V2 was not tested)
07 [48b077d1] (000/236) No match (V2 was not tested)
08 [b159ad80] (000/236) No match (V2 was not tested)
09 [8bb69df6] (000/236) No match (V2 was not tested)
10 [b7558303] (000/236) No match (V2 was not tested)
11 [b53613c0] (000/236) No match (V2 was not tested)
12 [e1fa79fc] (000/233) No match (V2 was not tested)
13 [af30cccd] (000/229) No match (V2 was not tested)
14 [3920d248] (000/228) No match (V2 was not tested)
15 [38da12b8] (000/229) No match (V2 was not tested)
16 [6bfd17e7] (000/228) No match (V2 was not tested)
17 [1f6cc38f] (000/228) No match (V2 was not tested)
18 [eeac4a76] (000/232) No match (V2 was not tested)
19 [8cdde5a1] (000/226) No match (V2 was not tested)
Offsetted by -8:
01 [5a8705be] (000/235) No match (V2 was not tested)
02 [d672a285] (000/236) No match (V2 was not tested)
03 [e3751a33] (000/236) No match (V2 was not tested)
04 [7083757a] (000/236) No match (V2 was not tested)
05 [cfec4662] (000/236) No match (V2 was not tested)
06 [f659d239] (000/236) No match (V2 was not tested)
07 [779bc852] (000/236) No match (V2 was not tested)
08 [68902d7c] (000/236) No match (V2 was not tested)
09 [438d8e54] (000/236) No match (V2 was not tested)
10 [14119441] (000/236) No match (V2 was not tested)
11 [76fb97bc] (000/236) No match (V2 was not tested)
12 [4ea24316] (000/233) No match (V2 was not tested)
13 [98e386fc] (000/229) No match (V2 was not tested)
14 [6ad793b7] (000/228) No match (V2 was not tested)
15 [e06b38ff] (000/229) No match (V2 was not tested)
16 [938676d4] (000/228) No match (V2 was not tested)
17 [583316bf] (000/228) No match (V2 was not tested)
18 [fa8a20fb] (000/232) No match (V2 was not tested)
19 [edb0d415] (000/226) No match (V2 was not tested)
Offsetted by 16:
01 [4c22e5a1] (000/235) No match (V2 was not tested)
02 [a5fb9679] (000/236) No match (V2 was not tested)
03 [308d4b67] (000/236) No match (V2 was not tested)
04 [70768720] (000/236) No match (V2 was not tested)
05 [7ee289c2] (000/236) No match (V2 was not tested)
06 [6e11547e] (000/236) No match (V2 was not tested)
07 [616da456] (000/236) No match (V2 was not tested)
08 [585f5aee] (000/236) No match (V2 was not tested)
09 [7b974c8c] (000/236) No match (V2 was not tested)
10 [ccd99def] (000/236) No match (V2 was not tested)
11 [7a14d245] (000/236) No match (V2 was not tested)
12 [8bedb569] (000/233) No match (V2 was not tested)
13 [2142e874] (000/229) No match (V2 was not tested)
14 [11fbdcb0] (000/228) No match (V2 was not tested)
15 [c6620e19] (000/229) No match (V2 was not tested)
16 [45545f8f] (000/228) No match (V2 was not tested)
17 [33c14e5c] (000/228) No match (V2 was not tested)
18 [833183a0] (000/232) No match (V2 was not tested)
19 [fdccf424] (000/226) No match (V2 was not tested)

Track Peak [ CRC32 ] [W/O NULL] [ LOG ]
– 96,1 [8F1C4B09] [592B9E9D] CRC32
01 94,9 [D118862E] [55E77766]
02 87,4 [0DFDF94D] [BF1182BE]
03 92,1 [3060CD07] [3A54E895]
04 88,9 [62E64AA0] [E0C41E82]
05 93,9 [2D0E14D7] [55E5F8EF]
06 90,5 [7519DF88] [D50420B6]
07 89,5 [1B889C41] [EE1A9C90]
08 91,0 [A9BDB274] [758A60BD]
09 88,3 [4ED5E01A] [D38D322D]
10 89,7 [65BF41E5] [F560D343]
11 90,9 [E53622B3] [2E91C8FE]
12 93,6 [37D52054] [6AE9F04C]
13 96,1 [67999752] [E67C6B05]
14 86,5 [D65336B6] [A32A9D02]
15 86,7 [41EBE810] [7859290A]
16 87,4 [33A3E7BB] [E78A3B7F]
17 89,7 [3B37D339] [40DEA285]
18 88,8 [8C4AD229] [45B19973]
19 95,5 [8960B14A] [3EE46499]

foobar2000 1.2 / Dynamic Range Meter 1.1.1
log date: 2019-12-17 19:49:31

––––––––––––––––––––––––––––––––––––––––
Analyzed: Fleetwood Mac / The Complete Blue Horizon Sessions 1967-69 CD1: Peter Green's Fleetwood Maс
––––––––––––––––––––––––––––––––––––––––

DR Peak RMS Duration Track
––––––––––––––––––––––––––––––––––––––––
DR9 -0.45 dB -11.16 dB 3:33 01-My Heart Beat Like A Hammer
DR10 -1.16 dB -13.62 dB 4:20 02-Merry Go Round
DR10 -0.71 dB -12.37 dB 2:15 03-Long Grey Mare
DR12 -1.01 dB -16.63 dB 2:06 04-Hellhound On My Trail
DR9 -0.55 dB -10.36 dB 3:14 05-Shake Your Moneymaker
DR11 -0.86 dB -12.75 dB 2:52 06-Looking For Somebody
DR10 -0.96 dB -12.48 dB 3:21 07-No Place To Go
DR9 -0.82 dB -11.00 dB 2:51 08-My Baby's Good To Me
DR10 -1.08 dB -13.06 dB 2:56 09-I Loved Another Woman
DR9 -0.94 dB -10.95 dB 3:17 10-Cold Black Night
DR14 -0.82 dB -17.23 dB 2:29 11-The World Keep On Turning
DR9 -0.57 dB -11.03 dB 3:21 12-Got To Move
DR9 -0.34 dB -10.86 dB 3:43 13-My Heart Beat Like A Hammer (take 1)
DR12 -1.25 dB -14.84 dB 0:57 14-Merry Go Round (take 1)
DR11 -1.23 dB -14.91 dB 6:09 15-I Loved Another Woman (takes 1, 2, 3 & 4)
DR11 -1.16 dB -14.18 dB 5:10 16-I Loved Another Woman (takes 5 & 6)
DR10 -0.94 dB -13.69 dB 5:30 17-Cold Black Night (takes 1, 2, 3, 4, 5 & 6)
DR11 -1.02 dB -16.31 dB 3:07 18-You're So Evil (Previously Unissued)
DR9 -0.39 dB -10.90 dB 2:29 19-I'm Coming Home To Stay (Previously Unissued)
––––––––––––––––––––––––––––––––––––––––

Number of tracks: 19
Official DR value: DR10

Samplerate: 44100 Hz
Channels: 2
Bits per sample: 16
Bitrate: 818 kbps
Codec: FLAC
================================================================================




Fleetwood Mac - The Complete Blue Horizon Sessions: 1967-1969 (1999) 6CD Box Set [Re-Up]

CD2: Mr. Wonderful 1968 | Time: 00:56:25

Although it made number ten in the U.K., Fleetwood Mac's second album was a disappointment following their promising debut. So much of the record was routine blues that it could even be said that it represented something of a regression from the first LP, despite the enlistment of a horn section and pianist Christine Perfect (the future Christine McVie) to help on the sessions. In particular, the limits of Jeremy Spencer's potential for creative contribution were badly exposed, as the tracks that featured his songwriting and/or vocals were basic Elmore James covers or derivations. Peter Green, the band's major talent at this point, did not deliver original material on the level of the classic singles he would pen for the band in 1969, or even on the level of first-album standouts like "I Loved Another Woman." The best of the lot, perhaps, is "Love That Burns," with its mournful minor-key melody and sluggish, responsive horn lines. Mr. Wonderful, strangely, was not issued in the U.S., although about half the songs turned up on its stateside counterpart, English Rose, which was fleshed out with some standout late-'60s British singles and a few new tracks penned by Danny Kirwan (who joined the band after Mr. Wonderful was recorded).

Review by Richie Unterberger, Allmusic.com

Tracklist:

01. Stop Messin' Round (Take 4-Master Album Version With Studio Talk Remix) (02:35)
02. I've Lost My Baby (04:17)
03. Rollin' Man (02:53)
04. Dust My Broom (02:53)
05. Love That Burns (05:04)
06. Doctor Brown (03:46)
07. Need Your Love Tonight (03:28)
08. If You Be My Baby (03:53)
09. Evenin' Boogie (02:42)
10. Lazy Poker Blues (02:35)
11. Coming Home (02:41)
12. Trying So Hard To Forget (04:50)
13. Stop Messin' Round (Take 1-Previously Unissued False Start) (04:33)
14. Stop Messin' Round (Take 5-Master Single Version Remix) (02:50)
15. I Held My Baby Last Night (Previously Unissued) (04:27)
16. Mystery Boogie (Previously Unissued) (02:51)


Exact Audio Copy V0.99 prebeta 5 from 4. May 2009

EAC extraction logfile from 6. June 2009, 18:55

Fleetwood Mac / Mr. Wonderful (Blue Horizon Boxset Disc 2)

Used drive : PLEXTOR DVDR PX-810SA Adapter: 5 ID: 0

Read mode : Secure
Utilize accurate stream : Yes
Defeat audio cache : Yes
Make use of C2 pointers : No

Read offset correction : 48
Overread into Lead-In and Lead-Out : No
Fill up missing offset samples with silence : Yes
Delete leading and trailing silent blocks : No
Null samples used in CRC calculations : Yes
Used interface : Native Win32 interface for Win NT & 2000

Used output format : Internal WAV Routines
Sample format : 44.100 Hz; 16 Bit; Stereo


TOC of the extracted CD

Track | Start | Length | Start sector | End sector
––––––––––––––––––––––––––––-
1 | 0:00.00 | 2:35.72 | 0 | 11696
2 | 2:35.72 | 4:17.63 | 11697 | 31034
3 | 6:53.60 | 2:53.50 | 31035 | 44059
4 | 9:47.35 | 2:53.12 | 44060 | 57046
5 | 12:40.47 | 5:04.13 | 57047 | 79859
6 | 17:44.60 | 3:46.02 | 79860 | 96811
7 | 21:30.62 | 3:28.38 | 96812 | 112449
8 | 24:59.25 | 3:53.10 | 112450 | 129934
9 | 28:52.35 | 2:42.20 | 129935 | 142104
10 | 31:34.55 | 2:35.70 | 142105 | 153799
11 | 34:10.50 | 2:41.02 | 153800 | 165876
12 | 36:51.52 | 4:50.43 | 165877 | 187669
13 | 41:42.20 | 4:33.37 | 187670 | 208181
14 | 46:15.57 | 2:50.00 | 208182 | 220931
15 | 49:05.57 | 4:27.43 | 220932 | 240999
16 | 53:33.25 | 2:52.00 | 241000 | 253899


Range status and errors

Selected range

Filename O:\CD2Image.wav

Peak level 99.8 %
Range quality 100.0 %
Test CRC 63E5EF73
Copy CRC 63E5EF73
Copy OK

No errors occurred


AccurateRip summary

Track 1 accurately ripped (confidence 15) [189609C9]
Track 2 accurately ripped (confidence 15) [1AACC10C]
Track 3 accurately ripped (confidence 15) [B64445E9]
Track 4 accurately ripped (confidence 15) [08803146]
Track 5 accurately ripped (confidence 15) [7308BF76]
Track 6 accurately ripped (confidence 15) [CA10F10A]
Track 7 accurately ripped (confidence 15) [C9325465]
Track 8 accurately ripped (confidence 15) [0B1CA987]
Track 9 accurately ripped (confidence 15) [76FC9D99]
Track 10 accurately ripped (confidence 15) [BB6AA47D]
Track 11 accurately ripped (confidence 15) [77507D67]
Track 12 accurately ripped (confidence 15) [4418F944]
Track 13 accurately ripped (confidence 15) [07B3E8CF]
Track 14 accurately ripped (confidence 15) [3D766A33]
Track 15 accurately ripped (confidence 15) [A2E922D7]
Track 16 accurately ripped (confidence 15) [DA7F33B5]

All tracks accurately ripped

End of status report

[CUETools log; Date: 17.12.2019 19:24:48; Version: 2.1.4]
[AccurateRip ID: 0020992a-0188e122-db0d3910] found.
Track [ CRC | V2 ] Status
01 [189609c9|2ab0eac6] (023+053/161) Accurately ripped
02 [1aacc10c|8e1768fd] (023+054/163) Accurately ripped
03 [b64445e9|418b5c53] (023+054/163) Accurately ripped
04 [08803146|d953b8ca] (023+054/163) Accurately ripped
05 [7308bf76|91e7bd17] (023+054/163) Accurately ripped
06 [ca10f10a|f9331519] (023+054/163) Accurately ripped
07 [c9325465|7696a0cf] (023+054/162) Accurately ripped
08 [0b1ca987|ec13186b] (023+054/163) Accurately ripped
09 [76fc9d99|155a8f20] (023+054/163) Accurately ripped
10 [bb6aa47d|1b9c0a9b] (023+054/163) Accurately ripped
11 [77507d67|f887f5ec] (023+054/162) Accurately ripped
12 [4418f944|d964f63d] (023+054/162) Accurately ripped
13 [07b3e8cf|a3294f94] (023+052/161) Accurately ripped
14 [3d766a33|cf349e4b] (023+051/159) Accurately ripped
15 [a2e922d7|42605da1] (023+053/161) Accurately ripped
16 [da7f33b5|aaf57a30] (023+053/160) Accurately ripped
Offsetted by -647:
01 [7be6b6a6] (010/161) Accurately ripped
02 [cdbd073a] (010/163) Accurately ripped
03 [5febe049] (010/163) Accurately ripped
04 [2f2dd6d5] (010/163) Accurately ripped
05 [f2005c1f] (010/163) Accurately ripped
06 [b8aa1c81] (010/163) Accurately ripped
07 [4828ce4f] (009/162) Accurately ripped
08 [0c49e517] (010/163) Accurately ripped
09 [679953b3] (010/163) Accurately ripped
10 [24cca46e] (010/163) Accurately ripped
11 [0c15b802] (010/162) Accurately ripped
12 [807e258d] (010/162) Accurately ripped
13 [f02e5315] (010/161) Accurately ripped
14 [bfd5f375] (010/159) Accurately ripped
15 [3798ba0f] (010/161) Accurately ripped
16 [efee2079] (009/160) Accurately ripped
Offsetted by -625:
01 [ab96863b] (019/161) Accurately ripped
02 [b9d690c6] (020/163) Accurately ripped
03 [4e9c8f25] (020/163) Accurately ripped
04 [a576b7a7] (020/163) Accurately ripped
05 [fb5a978c] (020/163) Accurately ripped
06 [4ed82bf6] (020/163) Accurately ripped
07 [0f11f094] (020/162) Accurately ripped
08 [c060e2a6] (020/163) Accurately ripped
09 [e70d4610] (020/163) Accurately ripped
10 [df4247b5] (020/163) Accurately ripped
11 [8cce00c1] (019/162) Accurately ripped
12 [0702acb1] (019/162) Accurately ripped
13 [32bc7e05] (020/161) Accurately ripped
14 [08bebf17] (020/159) Accurately ripped
15 [5b0b3030] (020/161) Accurately ripped
16 [e6d96177] (020/160) Accurately ripped
Offsetted by -1261:
01 [23c0471a] (000/161) No match (V2 was not tested)
02 [bcf2a227] (000/163) No match (V2 was not tested)
03 [fe561e41] (000/163) No match (V2 was not tested)
04 [16961f49] (000/163) No match (V2 was not tested)
05 [7940ad85] (000/163) No match (V2 was not tested)
06 [08ffd79a] (000/163) No match (V2 was not tested)
07 [283602ce] (000/162) No match (V2 was not tested)
08 [0cc7bc6e] (000/163) No match (V2 was not tested)
09 [f99b88a0] (000/163) No match (V2 was not tested)
10 [a06b8ea9] (000/163) No match (V2 was not tested)
11 [cbf6f45c] (000/162) No match (V2 was not tested)
12 [b4eac9fa] (000/162) No match (V2 was not tested)
13 [7421bf2a] (000/161) No match (V2 was not tested)
14 [303a560e] (000/159) No match (V2 was not tested)
15 [6ec7ee35] (000/161) No match (V2 was not tested)
16 [a5f15188] (000/160) No match (V2 was not tested)
Offsetted by -1237:
01 [bb3b5fb9] (000/161) No match (V2 was not tested)
02 [8a182798] (000/163) No match (V2 was not tested)
03 [c56f07e6] (000/163) No match (V2 was not tested)
04 [0a05a64c] (000/163) No match (V2 was not tested)
05 [fdc12b5c] (000/163) No match (V2 was not tested)
06 [cbc60e2a] (000/163) No match (V2 was not tested)
07 [82558ef7] (000/162) No match (V2 was not tested)
08 [9aeaf6bc] (000/163) No match (V2 was not tested)
09 [91a70e79] (000/163) No match (V2 was not tested)
10 [086c7383] (000/163) No match (V2 was not tested)
11 [d423e6c4] (000/162) No match (V2 was not tested)
12 [7a8507cf] (000/162) No match (V2 was not tested)
13 [13a9a080] (000/161) No match (V2 was not tested)
14 [84f80168] (000/159) No match (V2 was not tested)
15 [c79dc713] (000/161) No match (V2 was not tested)
16 [f4ae39b8] (000/160) No match (V2 was not tested)
Offsetted by -635:
01 [53c8e76a] (000/161) No match (V2 was not tested)
02 [7429489f] (000/163) No match (V2 was not tested)
03 [c2598995] (000/163) No match (V2 was not tested)
04 [66c5a56f] (000/163) No match (V2 was not tested)
05 [e3ce49d4] (000/163) No match (V2 was not tested)
06 [4012d0cf] (000/163) No match (V2 was not tested)
07 [7468c5fb] (000/162) No match (V2 was not tested)
08 [5382f1e6] (000/163) No match (V2 was not tested)
09 [34759111] (000/163) No match (V2 was not tested)
10 [47bb7d5c] (000/163) No match (V2 was not tested)
11 [be1d0af2] (000/162) No match (V2 was not tested)
12 [e4b0d377] (000/162) No match (V2 was not tested)
13 [b0ed36bc] (000/161) No match (V2 was not tested)
14 [d0259323] (000/159) No match (V2 was not tested)
15 [d6041f73] (000/161) No match (V2 was not tested)
16 [49e146f1] (000/160) No match (V2 was not tested)

Track Peak [ CRC32 ] [W/O NULL] [ LOG ]
– 99,8 [63E5EF73] [8B82FEA9] CRC32
01 94,6 [E34A20B2] [8FEF585D]
02 90,2 [551F2CD8] [C79A2697]
03 88,0 [8071AC3A] [807243D9]
04 88,5 [F445E3CC] [E333A63E]
05 91,0 [536BFAD9] [66491326]
06 93,5 [E54F8430] [532657D6]
07 95,6 [14155221] [8BED68CC]
08 93,2 [C87030E0] [D9D3E07F]
09 91,3 [170635B6] [90658715]
10 92,9 [410D4136] [6EB55B0A]
11 95,4 [A170D485] [8C4A273A]
12 84,5 [16F851DC] [044EDAFA]
13 99,8 [D1CCCD60] [61FF7BA7]
14 99,6 [19B2E5AF] [F20D0DD3]
15 87,7 [317B0A61] [BA0AF02E]
16 82,9 [C95B1278] [D480C3B4]

foobar2000 1.2 / Dynamic Range Meter 1.1.1
log date: 2019-12-17 19:50:03

––––––––––––––––––––––––––––––––––––––––
Analyzed: Fleetwood Mac / The Complete Blue Horizon Sessions 1967-69 CD2: Mr. Wonderful
––––––––––––––––––––––––––––––––––––––––

DR Peak RMS Duration Track
––––––––––––––––––––––––––––––––––––––––
DR9 -0.47 dB -11.91 dB 2:36 01-Stop Messin' Round (Take 4-Master Album Version With Studio Talk Remix)
DR10 -0.90 dB -12.39 dB 4:18 02-I've Lost My Baby
DR9 -1.11 dB -11.71 dB 2:54 03-Rollin' Man
DR9 -1.06 dB -11.30 dB 2:53 04-Dust My Broom
DR12 -0.81 dB -15.21 dB 5:04 05-Love That Burns
DR9 -0.58 dB -10.06 dB 3:46 06-Doctor Brown
DR9 -0.39 dB -10.91 dB 3:29 07-Need Your Love Tonight
DR10 -0.61 dB -11.98 dB 3:53 08-If You Be My Baby
DR9 -0.78 dB -10.26 dB 2:42 09-Evenin' Boogie
DR9 -0.64 dB -10.48 dB 2:36 10-Lazy Poker Blues
DR9 -0.41 dB -10.47 dB 2:41 11-Coming Home
DR16 -1.45 dB -21.61 dB 4:51 12-Trying So Hard To Forget
DR9 -0.01 dB -11.74 dB 4:33 13-Stop Messin' Round (Take 1-Previously Unissued False Start)
DR9 -0.03 dB -11.00 dB 2:50 14-Stop Messin' Round (Take 5-Master Single Version Remix)
DR10 -1.13 dB -12.45 dB 4:28 15-I Held My Baby Last Night (Previously Unissued)
DR8 -1.62 dB -11.61 dB 2:52 16-Mystery Boogie (Previously Unissued)
––––––––––––––––––––––––––––––––––––––––

Number of tracks: 16
Official DR value: DR10

Samplerate: 44100 Hz
Channels: 2
Bits per sample: 16
Bitrate: 828 kbps
Codec: FLAC
================================================================================




Fleetwood Mac - The Complete Blue Horizon Sessions: 1967-1969 (1999) 6CD Box Set [Re-Up]

CD3: The Pious Bird Of Good Omen 1969 | Time: 01:04:20

With songs taken from Fleetwood Mac and Mr. Wonderful, Pious Bird of Good Omen serves as a worthy 12-track compilation of the band's early Peter Green days. Climbing to number 18 in the U.K., the album managed to catapult Fleetwood Mac's version of Little Willie John's "Need Your Love So Bad" into the English charts for the third time, resting at number 42. The album itself was released by Blue Horizon after the group's contract with them had expired, making it one of the best routes in which to explore their mingling of Chicago and British blues. "Albatross," "Black Magic Woman," and "I Believe My Time Ain't Long" are timeless Fleetwood Mac standards, representing some of the band's best pre-Rumours work. Anyone who isn't familiar with Fleetwood Mac's origins should use Pious Bird of Good Omen as a starting point in investigating the first wave of the band, which will almost certainly lead to further interests into albums such as English Rose, Then Play On, and Kiln House, and then into later albums like Bare Trees and Penguin, which reveal subtle yet effective changes in the band's blues sound. But even aside from its purpose as a collection, Pious Bird of Good Omen makes for a terrific laid-back stroll through some of the best British blues music ever made.

Review by Mike DeGagne, Allmusic.com

Tracklist:

01. Need Your Love So Bad (Version #2 (Remake), Take 2-Complete Version Remix) (06:57)
02. Rambling Pony (Complete Master Version Remix) (03:34)
03. I Believe My Time Ain't Long (Master Version With Studio Talk Remix) (03:03)
04. The Sun Is Shining (03:12)
05. Albatross (03:11)
06. Black Magic Woman (02:52)
07. Jigsaw Puzzle Blues (01:34)
08. Like Crying (Previously Unissued) (02:30)
09. Need Your Love So Bad (Version #1) (11:34)
10. Need Your Love So Bad (Version #2) (13:08)
11. Need Your Love So Bad (Take 3-Previously Unissued) (06:21)
12. Need Your Love So Bad (USA Version Previously Unissued) (06:19)


Exact Audio Copy V0.99 prebeta 5 from 4. May 2009

EAC extraction logfile from 6. June 2009, 19:01

Fleetwood Mac / The Pious Bird Of Good Omen (Blue Horizon box disc 3)

Used drive : PLEXTOR DVDR PX-810SA Adapter: 5 ID: 0

Read mode : Secure
Utilize accurate stream : Yes
Defeat audio cache : Yes
Make use of C2 pointers : No

Read offset correction : 48
Overread into Lead-In and Lead-Out : No
Fill up missing offset samples with silence : Yes
Delete leading and trailing silent blocks : No
Null samples used in CRC calculations : Yes
Used interface : Native Win32 interface for Win NT & 2000

Used output format : Internal WAV Routines
Sample format : 44.100 Hz; 16 Bit; Stereo


TOC of the extracted CD

Track | Start | Length | Start sector | End sector
––––––––––––––––––––––––––––-
1 | 0:00.00 | 6:57.50 | 0 | 31324
2 | 6:57.50 | 3:34.35 | 31325 | 47409
3 | 10:32.10 | 3:03.17 | 47410 | 61151
4 | 13:35.27 | 3:12.18 | 61152 | 75569
5 | 16:47.45 | 3:11.07 | 75570 | 89901
6 | 19:58.52 | 2:52.53 | 89902 | 102854
7 | 22:51.30 | 1:34.37 | 102855 | 109941
8 | 24:25.67 | 2:30.53 | 109942 | 121244
9 | 26:56.45 | 11:34.30 | 121245 | 173324
10 | 38:31.00 | 13:08.30 | 173325 | 232454
11 | 51:39.30 | 6:21.55 | 232455 | 261084
12 | 58:01.10 | 6:19.55 | 261085 | 289564


Range status and errors

Selected range

Filename O:\CD3Image.wav

Peak level 97.4 %
Range quality 100.0 %
Test CRC 272CCB41
Copy CRC 272CCB41
Copy OK

No errors occurred


AccurateRip summary

Track 1 accurately ripped (confidence 11) [0EB5CD46]
Track 2 accurately ripped (confidence 11) [4E363307]
Track 3 accurately ripped (confidence 11) [A46EF9B1]
Track 4 accurately ripped (confidence 11) [BD34E7F3]
Track 5 accurately ripped (confidence 12) [9FF1DF27]
Track 6 accurately ripped (confidence 12) [0AF3B41A]
Track 7 accurately ripped (confidence 11) [2601CD97]
Track 8 accurately ripped (confidence 11) [695E6A5C]
Track 9 accurately ripped (confidence 11) [D983232B]
Track 10 accurately ripped (confidence 10) [0D62DA4F]
Track 11 accurately ripped (confidence 11) [4CF68789]
Track 12 accurately ripped (confidence 11) [9A09B8B9]

All tracks accurately ripped

End of status report

[CUETools log; Date: 17.12.2019 19:25:52; Version: 2.1.4]
[AccurateRip ID: 001859b7-00e89f29-8a0f140c] found.
Track [ CRC | V2 ] Status
01 [0eb5cd46|71174296] (021+046/137) Accurately ripped
02 [4e363307|eb3a43eb] (021+045/137) Accurately ripped
03 [a46ef9b1|203a8ecb] (021+045/137) Accurately ripped
04 [bd34e7f3|e40f1001] (021+044/136) Accurately ripped
05 [9ff1df27|84c64693] (022+047/141) Accurately ripped
06 [0af3b41a|71ff3456] (021+045/138) Accurately ripped
07 [2601cd97|49c5cd08] (021+045/137) Accurately ripped
08 [695e6a5c|933fa0f1] (021+045/137) Accurately ripped
09 [d983232b|e4b438b3] (021+043/133) Accurately ripped
10 [0d62da4f|b0f140ff] (020+043/132) Accurately ripped
11 [4cf68789|545b1d1a] (021+043/132) Accurately ripped
12 [9a09b8b9|d79937cf] (021+043/130) Accurately ripped
Offsetted by -48:
01 [f75f0116] (013/137) Accurately ripped
02 [1d693d47] (013/137) Accurately ripped
03 [ad78d651] (013/137) Accurately ripped
04 [c5504203] (013/136) Accurately ripped
05 [a66fe207] (014/141) Accurately ripped
06 [37f7199a] (014/138) Accurately ripped
07 [a232bb97] (013/137) Accurately ripped
08 [214adf0c] (013/137) Accurately ripped
09 [b8ea7f5b] (013/133) Accurately ripped
10 [ad99e44f] (013/132) Accurately ripped
11 [9f8469c9] (012/132) Accurately ripped
12 [6d675e69] (012/130) Accurately ripped
Offsetted by 599:
01 [f74ba15d] (007/137) Accurately ripped
02 [f9de9873] (007/137) Accurately ripped
03 [f8f93dcf] (007/137) Accurately ripped
04 [580a3eb6] (007/136) Accurately ripped
05 [799805f1] (007/141) Accurately ripped
06 [43e3fc22] (007/138) Accurately ripped
07 [dd89de37] (007/137) Accurately ripped
08 [9227a4dd] (007/137) Accurately ripped
09 [c0494a14] (006/133) Accurately ripped
10 [5e09582f] (006/132) Accurately ripped
11 [76c14575] (006/132) Accurately ripped
12 [4c5e6a6a] (006/130) Accurately ripped
Offsetted by -684:
01 [0220ef9a] (000/137) No match (V2 was not tested)
02 [16cd8517] (000/137) No match (V2 was not tested)
03 [653b8199] (000/137) No match (V2 was not tested)
04 [30baab57] (000/136) No match (V2 was not tested)
05 [fc75881f] (000/141) No match (V2 was not tested)
06 [8c641a7a] (000/138) No match (V2 was not tested)
07 [4fbb0d17] (000/137) No match (V2 was not tested)
08 [2647e928] (000/137) No match (V2 was not tested)
09 [c90404d7] (000/133) No match (V2 was not tested)
10 [787328cf] (000/132) No match (V2 was not tested)
11 [255c5f99] (000/132) No match (V2 was not tested)
12 [5e0031c5] (000/130) No match (V2 was not tested)
Offsetted by -660:
01 [8dcc55b2] (000/137) No match (V2 was not tested)
02 [2f33fff7] (000/137) No match (V2 was not tested)
03 [e0b69349] (000/137) No match (V2 was not tested)
04 [2cacfe4f] (000/136) No match (V2 was not tested)
05 [f93686af] (000/141) No match (V2 was not tested)
06 [75e267ba] (000/138) No match (V2 was not tested)
07 [91a29617] (000/137) No match (V2 was not tested)
08 [ca51aed0] (000/137) No match (V2 was not tested)
09 [595056bf] (000/133) No match (V2 was not tested)
10 [2857a3cf] (000/132) No match (V2 was not tested)
11 [7c156e79] (000/132) No match (V2 was not tested)
12 [f4515eed] (000/130) No match (V2 was not tested)

Track Peak [ CRC32 ] [W/O NULL] [ LOG ]
– 97,4 [272CCB41] [D2699D38] CRC32
01 93,9 [BAEEBD49] [FB151B2F]
02 97,4 [65052BB5] [2589C7AF]
03 93,8 [3E634F5C] [2948E748]
04 87,0 [29AE3D62] [0A6D334B]
05 81,8 [8D59FBBA] [EEA3EFEE]
06 91,7 [39CF9067] [1DBD2264]
07 88,5 [3D7C3C66] [42D5FDA0]
08 86,2 [AB333AB9] [B74FF7CF]
09 89,1 [57DE6933] [3364FC93]
10 91,5 [5DBBB847] [9F25FBBD]
11 94,1 [E31E0A4C] [9C6FBDE7]
12 93,8 [BBA8DF31] [2197E9C9]

foobar2000 1.2 / Dynamic Range Meter 1.1.1
log date: 2019-12-17 19:50:36

––––––––––––––––––––––––––––––––––––––––
Analyzed: Fleetwood Mac / The Complete Blue Horizon Sessions 1967-69 CD3: The Pious Bird Of Good Omen
––––––––––––––––––––––––––––––––––––––––

DR Peak RMS Duration Track
––––––––––––––––––––––––––––––––––––––––
DR11 -0.54 dB -14.00 dB 6:58 01-Need Your Love So Bad (Version #2 (Remake), Take 2-Complete Version Remix)
DR10 -0.22 dB -13.74 dB 3:34 02-Rambling Pony (Complete Master Version Remix)
DR10 -0.55 dB -12.21 dB 3:03 03-I Believe My Time Ain't Long (Master Version With Studio Talk Remix)
DR10 -1.20 dB -12.49 dB 3:12 04-The Sun Is Shining
DR9 -1.74 dB -12.04 dB 3:11 05-Albatross
DR10 -0.75 dB -11.61 dB 2:53 06-Black Magic Woman
DR9 -1.05 dB -12.86 dB 1:34 07-Jigsaw Puzzle Blues
DR11 -1.29 dB -16.34 dB 2:31 08-Like Crying (Previously Unissued)
DR13 -1.00 dB -16.65 dB 11:34 09-Need Your Love So Bad (Version #1)
DR11 -0.76 dB -14.84 dB 13:08 10-Need Your Love So Bad (Version #2)
DR11 -0.52 dB -13.96 dB 6:22 11-Need Your Love So Bad (Take 3-Previously Unissued)
DR12 -0.55 dB -14.95 dB 6:20 12-Need Your Love So Bad (USA Version Previously Unissued)
––––––––––––––––––––––––––––––––––––––––

Number of tracks: 12
Official DR value: DR10

Samplerate: 44100 Hz
Channels: 2
Bits per sample: 16
Bitrate: 794 kbps
Codec: FLAC
================================================================================




Fleetwood Mac - The Complete Blue Horizon Sessions: 1967-1969 (1999) 6CD Box Set [Re-Up]

CD4: Blues Jam In Chicago 1969 Vol.1 | Time: 01:08:22

This set, recorded at Chess Record's Ter-Mar complex in Chicago, pairs Peter Green's Fleetwood Mac with some of the Windy City's blues legends including Willie Dixon, Otis Spann, Buddy Guy, and David "Honeyboy" Edwards. Put together on short notice, and recorded in one day, the sessions have something of a ramshackle feel, but the energy of the performances transcends any shortcomings on this date. Dixon oversaw the proceedings, and can be heard during the between-song banter giving directions and chastising Walter "Shakey" Horton for missing his cues.

Since the Peter Green-led Fleetwood Mac was so directly influenced by Chicago blues, the session acts as a kind of stylistic homecoming for the band. Bassist John McVie and drummer Mick Fleetwood contribute driving rhythms while guitarists Danny Kirwan and Jeremy Spencer lend both rhythms and the occasional lead. Green's stunningly fluid guitar work is at the fore, as usual. But the real treat is picking out the Chess players–Otis Spann's piano on "I Got the Blues," J.T. Brown's tenor sax on Elmore James's "I Can't Hold Out," or Guy and Edwards, who go toe-to-toe with Green on "Red Hot Jam," one of the session's indisputable highlights.

Review by Allmusic.com

Tracklist:

01. Watch Out (04:20)
02. Ooh Baby (04:05)
03. South Indiana-Take 1 (03:21)
04. South Indiana-Take 2 (03:46)
05. Last Night (05:01)
06. Red Hot Jam (Take 1-Previously Unissued With Studio Talk) (05:55)
07. Red Hot Jam (06:02)
08. I'm Worried (03:46)
09. I Held My Baby Last Night (05:16)
10. Madison Blues (04:55)
11. I Can't Hold Out (04:48)
12. Bobby's Rock (Previously Unissued) (03:59)
13. I Need Your Love (Take 2-Master Version) (04:31)
14. Horton's Boogie Woogie (Take 1-Previously Unissued) (03:37)
15. I Got The Blues (Master Version With Previously Unissued False Start) (04:54)


Exact Audio Copy V0.99 prebeta 5 from 4. May 2009

EAC extraction logfile from 6. June 2009, 19:04

Fleetwood Mac / Blues Jam In Chicago Volume 1 (Blue Horizon Boxset Disc 4)

Used drive : PLEXTOR DVDR PX-810SA Adapter: 5 ID: 0

Read mode : Secure
Utilize accurate stream : Yes
Defeat audio cache : Yes
Make use of C2 pointers : No

Read offset correction : 48
Overread into Lead-In and Lead-Out : No
Fill up missing offset samples with silence : Yes
Delete leading and trailing silent blocks : No
Null samples used in CRC calculations : Yes
Used interface : Native Win32 interface for Win NT & 2000

Used output format : Internal WAV Routines
Sample format : 44.100 Hz; 16 Bit; Stereo


TOC of the extracted CD

Track | Start | Length | Start sector | End sector
––––––––––––––––––––––––––––-
1 | 0:00.00 | 4:20.00 | 0 | 19499
2 | 4:20.00 | 4:05.35 | 19500 | 37909
3 | 8:25.35 | 3:21.00 | 37910 | 52984
4 | 11:46.35 | 3:46.67 | 52985 | 70001
5 | 15:33.27 | 5:01.18 | 70002 | 92594
6 | 20:34.45 | 5:55.12 | 92595 | 119231
7 | 26:29.57 | 6:02.28 | 119232 | 146409
8 | 32:32.10 | 3:46.55 | 146410 | 163414
9 | 36:18.65 | 5:16.00 | 163415 | 187114
10 | 41:34.65 | 4:55.37 | 187115 | 209276
11 | 46:30.27 | 4:48.68 | 209277 | 230944
12 | 51:19.20 | 3:59.42 | 230945 | 248911
13 | 55:18.62 | 4:31.58 | 248912 | 269294
14 | 59:50.45 | 3:37.22 | 269295 | 285591
15 | 63:27.67 | 4:54.70 | 285592 | 307711


Range status and errors

Selected range

Filename O:\CD4Image.wav

Peak level 96.6 %
Range quality 100.0 %
Test CRC 20EFD7D8
Copy CRC 20EFD7D8
Copy OK

No errors occurred


AccurateRip summary

Track 1 accurately ripped (confidence 9) [F7EA823C]
Track 2 accurately ripped (confidence 9) [8A673137]
Track 3 accurately ripped (confidence 9) [5D2541EC]
Track 4 accurately ripped (confidence 9) [7B9D5F20]
Track 5 accurately ripped (confidence 9) [C95EEC4A]
Track 6 accurately ripped (confidence 9) [091B9835]
Track 7 accurately ripped (confidence 9) [E9BA77D3]
Track 8 accurately ripped (confidence 9) [FA0E38E5]
Track 9 accurately ripped (confidence 9) [DEE65B93]
Track 10 accurately ripped (confidence 9) [C320D4FF]
Track 11 accurately ripped (confidence 9) [17718C23]
Track 12 accurately ripped (confidence 9) [F5734CE3]
Track 13 accurately ripped (confidence 9) [0DDF054B]
Track 14 accurately ripped (confidence 9) [35781201]
Track 15 accurately ripped (confidence 9) [40B09C02]

All tracks accurately ripped

End of status report

[CUETools log; Date: 17.12.2019 19:26:58; Version: 2.1.4]
[AccurateRip ID: 00253ec1-01a9caad-d610060f] found.
Track [ CRC | V2 ] Status
01 [f7ea823c|3fa2fa7e] (016+036/111) Accurately ripped
02 [8a673137|5d20746d] (016+036/112) Accurately ripped
03 [5d2541ec|0507ef8b] (016+036/112) Accurately ripped
04 [7b9d5f20|f90e7d11] (016+036/112) Accurately ripped
05 [c95eec4a|6cd89d6a] (016+036/112) Accurately ripped
06 [091b9835|dd244f03] (016+035/111) Accurately ripped
07 [e9ba77d3|aaa79387] (016+036/112) Accurately ripped
08 [fa0e38e5|8a3068d2] (016+036/112) Accurately ripped
09 [dee65b93|179e0e66] (016+036/112) Accurately ripped
10 [c320d4ff|43f74cc8] (016+036/112) Accurately ripped
11 [17718c23|b35d32a6] (016+036/112) Accurately ripped
12 [f5734ce3|fc21ff73] (016+035/111) Accurately ripped
13 [0ddf054b|de401dc4] (016+036/112) Accurately ripped
14 [35781201|8dc826d3] (016+035/111) Accurately ripped
15 [40b09c02|5f4dd9eb] (016+035/111) Accurately ripped
Offsetted by -26:
01 [f51b9881] (017/111) Accurately ripped
02 [26f963ac] (018/112) Accurately ripped
03 [97725218] (018/112) Accurately ripped
04 [b36cf1f3] (018/112) Accurately ripped
05 [a83e8542] (018/112) Accurately ripped
06 [b86c14e1] (018/111) Accurately ripped
07 [53b822e4] (018/112) Accurately ripped
08 [fc3366fc] (018/112) Accurately ripped
09 [9f81b018] (018/112) Accurately ripped
10 [3c11ec9e] (018/112) Accurately ripped
11 [d1ce27fa] (018/112) Accurately ripped
12 [54720567] (018/111) Accurately ripped
13 [bfbb59a3] (018/112) Accurately ripped
14 [9d50cf07] (018/111) Accurately ripped
15 [f59c5e28] (018/111) Accurately ripped
Offsetted by -662:
01 [bbe12bf2] (000/111) No match (V2 was not tested)
02 [f0c71125] (000/112) No match (V2 was not tested)
03 [4e50b285] (000/112) No match (V2 was not tested)
04 [f3d242de] (000/112) No match (V2 was not tested)
05 [d105aed0] (000/112) No match (V2 was not tested)
06 [4dda1198] (000/111) No match (V2 was not tested)
07 [270d6f00] (000/112) No match (V2 was not tested)
08 [979e3d3b] (000/112) No match (V2 was not tested)
09 [c171dffe] (000/112) No match (V2 was not tested)
10 [1721b11f] (000/112) No match (V2 was not tested)
11 [0ab1372e] (000/112) No match (V2 was not tested)
12 [0d995369] (000/111) No match (V2 was not tested)
13 [d5b76b85] (000/112) No match (V2 was not tested)
14 [7704aad4] (000/111) No match (V2 was not tested)
15 [3e050b40] (000/111) No match (V2 was not tested)
Offsetted by -638:
01 [756f3449] (000/111) No match (V2 was not tested)
02 [095d8746] (000/112) No match (V2 was not tested)
03 [8d25677e] (000/112) No match (V2 was not tested)
04 [50407cfc] (000/112) No match (V2 was not tested)
05 [0340eb4c] (000/112) No match (V2 was not tested)
06 [a6b1b399] (000/111) No match (V2 was not tested)
07 [4411fdbd] (000/112) No match (V2 was not tested)
08 [3ea28769] (000/112) No match (V2 was not tested)
09 [a342f7d0] (000/112) No match (V2 was not tested)
10 [25cd3c41] (000/112) No match (V2 was not tested)
11 [9f5c4510] (000/112) No match (V2 was not tested)
12 [d44ef6f6] (000/111) No match (V2 was not tested)
13 [ddcf410a] (000/112) No match (V2 was not tested)
14 [53345a44] (000/111) No match (V2 was not tested)
15 [19cdae16] (000/111) No match (V2 was not tested)

Track Peak [ CRC32 ] [W/O NULL] [ LOG ]
– 96,6 [20EFD7D8] [7ADF1BFB] CRC32
01 95,2 [9F850D0F] [45316777]
02 96,0 [B2B59DF1] [C5EF4B1E]
03 92,7 [98B8BA62] [E97DEC39]
04 89,6 [AE75DDD6] [8AB2D51D]
05 95,2 [3DADEA3F] [B54924C4]
06 93,7 [1249C853] [7929FB21]
07 96,6 [7F06E12F] [966D479B]
08 93,3 [F2C2176D] [BABA749F]
09 89,2 [2CD9D8A0] [22D34FB6]
10 95,6 [B835AD06] [73A54B02]
11 90,7 [BCE48765] [5B231538]
12 90,7 [E8A5ADA0] [05C6C3AA]
13 91,7 [B6FF24E1] [52C617E7]
14 86,8 [8C3865FC] [DE88103C]
15 91,3 [F6D61D1A] [0585DBE6]

foobar2000 1.2 / Dynamic Range Meter 1.1.1
log date: 2019-12-17 19:56:52

––––––––––––––––––––––––––––––––––––––––
Analyzed: Fleetwood Mac / The Complete Blue Horizon Sessions 1967-69 CD4: Blues Jam In Chicago Vol.1
––––––––––––––––––––––––––––––––––––––––

DR Peak RMS Duration Track
––––––––––––––––––––––––––––––––––––––––
DR10 -0.42 dB -12.32 dB 4:20 01-Watch Out
DR10 -0.35 dB -12.36 dB 4:05 02-Ooh Baby
DR9 -0.65 dB -11.45 dB 3:21 03-South Indiana-Take 1
DR9 -0.95 dB -13.12 dB 3:47 04-South Indiana-Take 2
DR10 -0.43 dB -13.70 dB 5:01 05-Last Night
DR9 -0.56 dB -13.05 dB 5:55 06-Red Hot Jam (Take 1-Previously Unissued With Studio Talk)
DR10 -0.29 dB -12.59 dB 6:02 07-Red Hot Jam
DR10 -0.60 dB -12.16 dB 3:47 08-I'm Worried
DR12 -0.99 dB -15.53 dB 5:16 09-I Held My Baby Last Night
DR10 -0.39 dB -12.26 dB 4:55 10-Madison Blues
DR10 -0.84 dB -13.32 dB 4:49 11-I Can't Hold Out
DR11 -0.84 dB -13.51 dB 4:00 12-Bobby's Rock (Previously Unissued)
DR9 -0.75 dB -12.81 dB 4:32 13-I Need Your Love (Take 2-Master Version)
DR9 -1.23 dB -13.25 dB 3:37 14-Horton's Boogie Woogie (Take 1-Previously Unissued)
DR9 -0.79 dB -12.87 dB 4:55 15-I Got The Blues (Master Version With Previously Unissued False Start)
––––––––––––––––––––––––––––––––––––––––

Number of tracks: 15
Official DR value: DR10

Samplerate: 44100 Hz
Channels: 2
Bits per sample: 16
Bitrate: 836 kbps
Codec: FLAC
================================================================================




Fleetwood Mac - The Complete Blue Horizon Sessions: 1967-1969 (1999) 6CD Box Set [Re-Up]

CD5: Blues Jam In Chicago 1969 Vol.2 | Time: 01:15:50


Tracklist:

01. World's In A Tangle (05:25)
02. Talk WIth You (03:27)
03. Like It This Way (04:24)
04. Someday Soon Baby (07:36)
05. Hungry Country Girl (05:46)
06. Black Jack Blues (05:08)
07. Everyday I Have The Blues (04:54)
08. Rockin' Boogie (03:57)
09. My Baby's Gone (04:04)
10. Sugar Mama (Take 1-Previously Unissued Incomplete) (00:49)
11. Sugar Mama (06:08)
12. Homework (03:20)
13. Honey Boy Blues (Previously Unissued Incomplete) (02:19)
14. I Need Your Love (Take 1-Previously Unissued Incomplete) (02:15)
15. Horton's Boogie Woogie (Take 2-Previously Unissued) (03:39)
16. Have A Good Time (Previously Unissued) (04:54)
17. That's Wrong (Previously Unissued) (04:12)
18. Rock Me Baby (Previously Unissued) (03:24)


Exact Audio Copy V0.99 prebeta 5 from 4. May 2009

EAC extraction logfile from 6. June 2009, 19:07

Fleetwood Mac / Blues Jam In Chicago Volume 2 (Blue Horizon Boxset Disc 5)

Used drive : PLEXTOR DVDR PX-810SA Adapter: 5 ID: 0

Read mode : Secure
Utilize accurate stream : Yes
Defeat audio cache : Yes
Make use of C2 pointers : No

Read offset correction : 48
Overread into Lead-In and Lead-Out : No
Fill up missing offset samples with silence : Yes
Delete leading and trailing silent blocks : No
Null samples used in CRC calculations : Yes
Used interface : Native Win32 interface for Win NT & 2000

Used output format : Internal WAV Routines
Sample format : 44.100 Hz; 16 Bit; Stereo


TOC of the extracted CD

Track | Start | Length | Start sector | End sector
––––––––––––––––––––––––––––-
1 | 0:00.00 | 5:25.52 | 0 | 24426
2 | 5:25.52 | 3:27.65 | 24427 | 40016
3 | 8:53.42 | 4:24.45 | 40017 | 59861
4 | 13:18.12 | 7:36.40 | 59862 | 94101
5 | 20:54.52 | 5:46.33 | 94102 | 120084
6 | 26:41.10 | 5:08.20 | 120085 | 143204
7 | 31:49.30 | 4:54.50 | 143205 | 165304
8 | 36:44.05 | 3:57.62 | 165305 | 183141
9 | 40:41.67 | 4:04.03 | 183142 | 201444
10 | 44:45.70 | 0:49.17 | 201445 | 205136
11 | 45:35.12 | 6:08.18 | 205137 | 232754
12 | 51:43.30 | 3:20.35 | 232755 | 247789
13 | 55:03.65 | 2:19.57 | 247790 | 258271
14 | 57:23.47 | 2:15.00 | 258272 | 268396
15 | 59:38.47 | 3:39.73 | 268397 | 284894
16 | 63:18.45 | 4:54.42 | 284895 | 306986
17 | 68:13.12 | 4:12.43 | 306987 | 325929
18 | 72:25.55 | 3:24.35 | 325930 | 341264


Range status and errors

Selected range

Filename O:\CD5Image.wav

Peak level 92.2 %
Range quality 100.0 %
Test CRC 9A84BB73
Copy CRC 9A84BB73
Copy OK

No errors occurred


AccurateRip summary

Track 1 accurately ripped (confidence 7) [4D738A87]
Track 2 accurately ripped (confidence 7) [DBC5F123]
Track 3 accurately ripped (confidence 7) [95AC6559]
Track 4 accurately ripped (confidence 7) [ADA23DFD]
Track 5 accurately ripped (confidence 7) [305CD116]
Track 6 accurately ripped (confidence 7) [9E6BFAD8]
Track 7 accurately ripped (confidence 7) [E4B8EDC2]
Track 8 accurately ripped (confidence 7) [C834982C]
Track 9 accurately ripped (confidence 7) [852046F1]
Track 10 accurately ripped (confidence 7) [1CC30C40]
Track 11 accurately ripped (confidence 7) [CACD4428]
Track 12 accurately ripped (confidence 7) [187B0CA9]
Track 13 accurately ripped (confidence 7) [26DD5D15]
Track 14 accurately ripped (confidence 7) [98610BF3]
Track 15 accurately ripped (confidence 7) [DAB0D430]
Track 16 accurately ripped (confidence 7) [F6A40507]
Track 17 accurately ripped (confidence 6) [2E09B6C2]
Track 18 accurately ripped (confidence 6) [A3F777B2]

All tracks accurately ripped

End of status report

[CUETools log; Date: 17.12.2019 19:28:06; Version: 2.1.4]
[AccurateRip ID: 003573aa-02b8383b-eb11c612] found.
Track [ CRC | V2 ] Status
01 [4d738a87|503cb843] (019+042/101) Accurately ripped
02 [dbc5f123|3cf31bbc] (019+042/101) Accurately ripped
03 [95ac6559|a6dfa100] (019+042/101) Accurately ripped
04 [ada23dfd|d8c512c6] (019+042/101) Accurately ripped
05 [305cd116|a7fbbb69] (019+042/101) Accurately ripped
06 [9e6bfad8|7f321dae] (019+042/101) Accurately ripped
07 [e4b8edc2|b7649d8d] (019+042/101) Accurately ripped
08 [c834982c|577da747] (019+042/101) Accurately ripped
09 [852046f1|3ab7a814] (019+042/101) Accurately ripped
10 [1cc30c40|511fd428] (019+042/100) Accurately ripped
11 [cacd4428|71d2ca02] (019+042/101) Accurately ripped
12 [187b0ca9|9b655c41] (019+042/101) Accurately ripped
13 [26dd5d15|a3666e78] (019+042/100) Accurately ripped
14 [98610bf3|cf0ba8fa] (019+042/100) Accurately ripped
15 [dab0d430|9166808e] (019+042/100) Accurately ripped
16 [f6a40507|2088a2aa] (019+041/099) Accurately ripped
17 [2e09b6c2|25fdc1e4] (018+041/098) Accurately ripped
18 [a3f777b2|18e115c1] (018+040/096) Accurately ripped
Offsetted by 48:
01 [33a4dca9] (009/101) Accurately ripped
02 [406dea0d] (009/101) Accurately ripped
03 [1ccd7209] (009/101) Accurately ripped
04 [76ef6bf1] (009/101) Accurately ripped
05 [18801a8d] (009/101) Accurately ripped
06 [da8964d2] (009/101) Accurately ripped
07 [f770acd0] (009/101) Accurately ripped
08 [7d12d376] (009/101) Accurately ripped
09 [69f398d5] (009/101) Accurately ripped
10 [fedb8a89] (009/100) Accurately ripped
11 [00c8a905] (009/101) Accurately ripped
12 [474e71e9] (009/101) Accurately ripped
13 [b7fc25fc] (009/100) Accurately ripped
14 [6bb26b21] (009/100) Accurately ripped
15 [8024835b] (009/100) Accurately ripped
16 [710841ea] (009/099) Accurately ripped
17 [cc0f0cbb] (009/098) Accurately ripped
18 [e8f9af63] (009/096) Accurately ripped
Offsetted by -636:
01 [4dee51f5] (000/101) No match (V2 was not tested)
02 [d96137aa] (000/101) No match (V2 was not tested)
03 [d3f422a3] (000/101) No match (V2 was not tested)
04 [7701d062] (000/101) No match (V2 was not tested)
05 [0552d76f] (000/101) No match (V2 was not tested)
06 [5606c27e] (000/101) No match (V2 was not tested)
07 [94f13d2a] (000/101) No match (V2 was not tested)
08 [6ed635cb] (000/101) No match (V2 was not tested)
09 [c34fc2e3] (000/101) No match (V2 was not tested)
10 [a631cebb] (000/100) No match (V2 was not tested)
11 [bad5f55f] (000/101) No match (V2 was not tested)
12 [19fa475e] (000/101) No match (V2 was not tested)
13 [e06e48d3] (000/100) No match (V2 was not tested)
14 [db785a90] (000/100) No match (V2 was not tested)
15 [406d35d6] (000/100) No match (V2 was not tested)
16 [4927e74b] (000/099) No match (V2 was not tested)
17 [d7f9b140] (000/098) No match (V2 was not tested)
18 [9971c0fe] (000/096) No match (V2 was not tested)
Offsetted by -612:
01 [5bbedf69] (000/101) No match (V2 was not tested)
02 [62e25b71] (000/101) No match (V2 was not tested)
03 [8bc26710] (000/101) No match (V2 was not tested)
04 [e2c8d9d8] (000/101) No match (V2 was not tested)
05 [03eeb26a] (000/101) No match (V2 was not tested)
06 [177bb0b9] (000/101) No match (V2 was not tested)
07 [9bf87f0d] (000/101) No match (V2 was not tested)
08 [25b69710] (000/101) No match (V2 was not tested)
09 [f0189442] (000/101) No match (V2 was not tested)
10 [2059534b] (000/100) No match (V2 was not tested)
11 [b27c2858] (000/101) No match (V2 was not tested)
12 [b9cdebc0] (000/101) No match (V2 was not tested)
13 [3ea73d36] (000/100) No match (V2 was not tested)
14 [27fc9b59] (000/100) No match (V2 was not tested)
15 [4f476f86] (000/100) No match (V2 was not tested)
16 [6cff0492] (000/099) No match (V2 was not tested)
17 [dc2f0f92] (000/098) No match (V2 was not tested)
18 [409f1fb7] (000/096) No match (V2 was not tested)

Track Peak [ CRC32 ] [W/O NULL] [ LOG ]
– 92,2 [9A84BB73] [D5F59A98] CRC32
01 90,6 [5F1D2BFA] [6E6D0322]
02 89,9 [6151FB12] [B2277EB7]
03 92,2 [5D381582] [3AA5DA89]
04 88,0 [A2EAF227] [8BCF2AE6]
05 90,8 [D21C843A] [9464B20C]
06 87,0 [41C4D693] [50D43635]
07 90,2 [919407F4] [4AB25D8F]
08 88,9 [6478A955] [0B3103E4]
09 87,0 [F87A117C] [210CA5E8]
10 87,0 [35AEC7C5] [D71E62B9]
11 88,1 [CE68C5C6] [E39FCEFE]
12 87,7 [C18551F5] [49B0F83F]
13 85,5 [E94D8BD7] [02B60156]
14 89,4 [B1E965D7] [0476CDBD]
15 86,3 [DF134007] [C5A55BF5]
16 87,6 [92A77BEA] [F5676DC7]
17 90,0 [A29F0014] [A6A2CC7C]
18 89,1 [DF74D0D3] [B76F0B04]

foobar2000 1.2 / Dynamic Range Meter 1.1.1
log date: 2019-12-17 19:51:12

––––––––––––––––––––––––––––––––––––––––
Analyzed: Fleetwood Mac / The Complete Blue Horizon Sessions 1967-69 CD5: Blues Jam In Chicago Vol.2
––––––––––––––––––––––––––––––––––––––––

DR Peak RMS Duration Track
––––––––––––––––––––––––––––––––––––––––
DR10 -0.85 dB -13.11 dB 5:26 01-World's In A Tangle
DR9 -0.92 dB -11.96 dB 3:28 02-Talk WIth You
DR9 -0.70 dB -11.79 dB 4:25 03-Like It This Way
DR13 -1.11 dB -18.84 dB 7:37 04-Someday Soon Baby
DR12 -0.83 dB -14.89 dB 5:46 05-Hungry Country Girl
DR12 -1.21 dB -15.19 dB 5:08 06-Black Jack Blues
DR10 -0.89 dB -13.02 dB 4:55 07-Everyday I Have The Blues
DR9 -1.01 dB -11.88 dB 3:58 08-Rockin' Boogie
DR11 -1.20 dB -15.05 dB 4:04 09-My Baby's Gone
DR10 -1.20 dB -15.76 dB 0:49 10-Sugar Mama (Take 1-Previously Unissued Incomplete)
DR11 -1.09 dB -15.39 dB 6:08 11-Sugar Mama
DR10 -1.14 dB -13.74 dB 3:20 12-Homework
DR11 -1.36 dB -15.89 dB 2:20 13-Honey Boy Blues (Previously Unissued Incomplete)
DR9 -0.96 dB -12.34 dB 2:15 14-I Need Your Love (Take 1-Previously Unissued Incomplete)
DR9 -1.28 dB -12.75 dB 3:40 15-Horton's Boogie Woogie (Take 2-Previously Unissued)
DR10 -1.15 dB -13.66 dB 4:55 16-Have A Good Time (Previously Unissued)
DR10 -0.91 dB -13.45 dB 4:13 17-That's Wrong (Previously Unissued)
DR10 -1.00 dB -14.94 dB 3:24 18-Rock Me Baby (Previously Unissued)
––––––––––––––––––––––––––––––––––––––––

Number of tracks: 18
Official DR value: DR10

Samplerate: 44100 Hz
Channels: 2
Bits per sample: 16
Bitrate: 809 kbps
Codec: FLAC
================================================================================




Fleetwood Mac - The Complete Blue Horizon Sessions: 1967-1969 (1999) 6CD Box Set [Re-Up]

CD6: The Original Fleetwood Mac | Time: 01:15:29

As far as odds and ends packages go, Original Fleetwood Mac (1971) is an undeniably strong collection culled primarily from the band's first incarnation, featuring John McVie (bass/guitar), Mick Fleetwood (drums), Peter Green (guitar/vocals), and Jeremy Spencer (guitar/piano/vocals). As evidenced by the material, this quartet are an unmistakably blues-based combo. Early on they distinguished themselves as not only interpreters of traditional fare, but skilled composers, especially Green, who penned the vast majority of these selections. While their entire output during this era can be found on the six-disc Complete Blue Horizon Sessions: 1967-1969 (1999), the best of those secondary sides are contained within this disc. Green's total envelopment of the blues, coupled with equally inspired guitar craft, illuminate the traditional "Drifting" and "First Train Home," as well as an adventurous, hopped-up cover of Muddy Waters' "Rollin' and Tumblin'," titled "Rambling Pony No. 2." "Watch Out" reveals Fleetwood Mac's decidedly jazzier visage. While the driving upbeat rhythm is deeply rooted in a Chicago-style delivery, Green's fretwork is undeniably fresh, giving the outing fuel for the combo's fiery contributions. "A Fool No More" is another notable variation and possible harbinger of their later psychedelic ventures. The instrumental "Fleetwood Mac" sounds as if it may have been taken from a jam session already in progress. The adaptation of Arthur "Big Boy" Crudup's "Mean Old Fireman" offers an acoustic pseudo-slide lead from Green, but ultimately it fails to truly ignite. B.B. King's "Worried Dream" is an interesting choice that would show up later in the band's concurrent concert repertoire.

Review by Lindsay Planer, Allmusic.com

Tracklist:

01. Drifting (03:32)
02. Leaving Town Blues (Take 5-Master Version Remix) (03:11)
03. Watch Out (Take 2-Complete Master Version Remix) (04:47)
04. A Fool No More (Take 1-Previously Unissued False Start… (08:00)
05. Mean Old Fireman (Take 1-Previously Unissued False Start… (04:08)
06. Can't Afford To Do It (02:04)
07. Fleetwood Mac (Mono) (03:55)
08. Worried Dream (Take 1-Master Version Remix) (06:56)
09. Love That Woman (Alternative Original Mix) (02:33)
10. Allow Me One More Show (Alternative Original Mix) (03:00)
11. First Train Home (Mono) (04:06)
12. Rambling Pony No.2 (Alternative Original Mix) (02:55)
13. Watch Out (Take 1-Previously Unissued Incomplete) (03:08)
14. Something Inside Of Me (03:56)
15. Something Inside Of Me (Take 2-Previously Unissued) (04:06)
16. Something Inside Of Me (Take 3-Previously Unissued) (04:17)
17. One Sunny Day (Master Version Remix) (03:12)
18. Without You (04:32)
19. Coming Your Way (Take 6-Previously Unissued) (03:01)


Exact Audio Copy V0.99 prebeta 5 from 4. May 2009

EAC extraction logfile from 6. June 2009, 19:09

Fleetwood Mac / The Original Fleetwood Mac (Blue Horizon Boxset Disc 6)

Used drive : PLEXTOR DVDR PX-810SA Adapter: 5 ID: 0

Read mode : Secure
Utilize accurate stream : Yes
Defeat audio cache : Yes
Make use of C2 pointers : No

Read offset correction : 48
Overread into Lead-In and Lead-Out : No
Fill up missing offset samples with silence : Yes
Delete leading and trailing silent blocks : No
Null samples used in CRC calculations : Yes
Used interface : Native Win32 interface for Win NT & 2000

Used output format : Internal WAV Routines
Sample format : 44.100 Hz; 16 Bit; Stereo


TOC of the extracted CD

Track | Start | Length | Start sector | End sector
––––––––––––––––––––––––––––-
1 | 0:00.00 | 3:32.32 | 0 | 15931
2 | 3:32.32 | 3:11.05 | 15932 | 30261
3 | 6:43.37 | 4:47.48 | 30262 | 51834
4 | 11:31.10 | 8:00.72 | 51835 | 87906
5 | 19:32.07 | 4:08.10 | 87907 | 106516
6 | 23:40.17 | 2:04.15 | 106517 | 115831
7 | 25:44.32 | 3:55.60 | 115832 | 133516
8 | 29:40.17 | 6:56.63 | 133517 | 164779
9 | 36:37.05 | 2:33.55 | 164780 | 176309
10 | 39:10.60 | 3:00.47 | 176310 | 189856
11 | 42:11.32 | 4:06.25 | 189857 | 208331
12 | 46:17.57 | 2:55.23 | 208332 | 221479
13 | 49:13.05 | 3:08.70 | 221480 | 235649
14 | 52:22.00 | 3:56.47 | 235650 | 253396
15 | 56:18.47 | 4:06.70 | 253397 | 271916
16 | 60:25.42 | 4:17.13 | 271917 | 291204
17 | 64:42.55 | 3:12.65 | 291205 | 305669
18 | 67:55.45 | 4:32.40 | 305670 | 326109
19 | 72:28.10 | 3:01.15 | 326110 | 339699


Range status and errors

Selected range

Filename O:\CD6Image.wav

Peak level 99.8 %
Range quality 99.9 %
Test CRC 77B94C72
Copy CRC 77B94C72
Copy OK

No errors occurred


AccurateRip summary

Track 1 accurately ripped (confidence 6) [3DE2AB7F]
Track 2 accurately ripped (confidence 6) [D4063CC5]
Track 3 accurately ripped (confidence 6) [22D66062]
Track 4 accurately ripped (confidence 6) [1982B982]
Track 5 accurately ripped (confidence 6) [74A96B7B]
Track 6 accurately ripped (confidence 6) [9377FCC3]
Track 7 accurately ripped (confidence 6) [9156D984]
Track 8 accurately ripped (confidence 6) [4379D2B0]
Track 9 accurately ripped (confidence 6) [16C17C96]
Track 10 accurately ripped (confidence 6) [2A54F063]
Track 11 accurately ripped (confidence 6) [C0D80842]
Track 12 accurately ripped (confidence 6) [4822D440]
Track 13 accurately ripped (confidence 6) [A24BD98E]
Track 14 accurately ripped (confidence 6) [E5DA1001]
Track 15 accurately ripped (confidence 6) [5FCF1167]
Track 16 accurately ripped (confidence 6) [A0B29F2A]
Track 17 accurately ripped (confidence 6) [FE269896]
Track 18 accurately ripped (confidence 6) [7952AF0A]
Track 19 accurately ripped (confidence 6) [241949B4]

All tracks accurately ripped

End of status report

[CUETools log; Date: 17.12.2019 19:29:09; Version: 2.1.4]
[AccurateRip ID: 0035ce42-02ea1301-1a11b113] found.
Track [ CRC | V2 ] Status
01 [3de2ab7f|5a015737] (18+42/72) Accurately ripped
02 [d4063cc5|7ef3fcc9] (18+42/72) Accurately ripped
03 [22d66062|5e46651d] (18+42/71) Accurately ripped
04 [1982b982|8f8bcfd8] (18+42/71) Accurately ripped
05 [74a96b7b|b7beceb0] (18+42/71) Accurately ripped
06 [9377fcc3|8dd04e2d] (18+42/71) Accurately ripped
07 [9156d984|12f7767d] (18+42/71) Accurately ripped
08 [4379d2b0|d4714147] (18+42/71) Accurately ripped
09 [16c17c96|dc598c44] (18+42/71) Accurately ripped
10 [2a54f063|a47d9525] (18+42/71) Accurately ripped
11 [c0d80842|1b0aa1ce] (18+42/71) Accurately ripped
12 [4822d440|43a992a9] (18+42/71) Accurately ripped
13 [a24bd98e|54465365] (18+42/71) Accurately ripped
14 [e5da1001|96b6ae15] (18+42/71) Accurately ripped
15 [5fcf1167|553e5631] (18+41/70) Accurately ripped
16 [a0b29f2a|b2627329] (18+41/70) Accurately ripped
17 [fe269896|4a9d8e8d] (18+41/70) Accurately ripped
18 [7952af0a|95bb816c] (18+42/71) Accurately ripped
19 [241949b4|0fb3b3cf] (18+42/71) Accurately ripped
Offsetted by 647:
01 [ed5a7b56] (03/72) Accurately ripped
02 [711cfd45] (03/72) Accurately ripped
03 [6fb07837] (02/71) Accurately ripped
04 [8633f55f] (02/71) Accurately ripped
05 [a48bdc4e] (02/71) Accurately ripped
06 [f997d2c9] (02/71) Accurately ripped
07 [9e52d4f5] (02/71) Accurately ripped
08 [b9dcd027] (02/71) Accurately ripped
09 [d9bc41d7] (02/71) Accurately ripped
10 [6897a2d0] (02/71) Accurately ripped
11 [f78fd61b] (02/71) Accurately ripped
12 [482620cf] (02/71) Accurately ripped
13 [cb35c327] (02/71) Accurately ripped
14 [f156cad3] (02/71) Accurately ripped
15 [89da755a] (02/70) Accurately ripped
16 [fcfba050] (02/70) Accurately ripped
17 [9f9fac2f] (02/70) Accurately ripped
18 [30d1fc11] (02/71) Accurately ripped
19 [42026e7e] (02/71) Accurately ripped
Offsetted by -636:
01 [ccc061c3] (00/72) No match (V2 was not tested)
02 [42b4eac5] (00/72) No match (V2 was not tested)
03 [4284efee] (00/71) No match (V2 was not tested)
04 [975253ee] (00/71) No match (V2 was not tested)
05 [9389f04f] (00/71) No match (V2 was not tested)
06 [5575f8eb] (00/71) No match (V2 was not tested)
07 [317c0920] (00/71) No match (V2 was not tested)
08 [ceb4ce74] (00/71) No match (V2 was not tested)
09 [577ca2f2] (00/71) No match (V2 was not tested)
10 [50d6d68f] (00/71) No match (V2 was not tested)
11 [fb080d3e] (00/71) No match (V2 was not tested)
12 [559384a4] (00/71) No match (V2 was not tested)
13 [2fb1178a] (00/71) No match (V2 was not tested)
14 [475ea979] (00/71) No match (V2 was not tested)
15 [335055bb] (00/70) No match (V2 was not tested)
16 [640d7ad2] (00/70) No match (V2 was not tested)
17 [597cee92] (00/70) No match (V2 was not tested)
18 [9c30f28e] (00/71) No match (V2 was not tested)
19 [316de04c] (00/71) No match (V2 was not tested)
Offsetted by -612:
01 [f7a9865b] (00/72) No match (V2 was not tested)
02 [73a97ec5] (00/72) No match (V2 was not tested)
03 [d23aba36] (00/71) No match (V2 was not tested)
04 [0b542776] (00/71) No match (V2 was not tested)
05 [281c0847] (00/71) No match (V2 was not tested)
06 [7e7137db] (00/71) No match (V2 was not tested)
07 [65674fc8] (00/71) No match (V2 was not tested)
08 [baf6340c] (00/71) No match (V2 was not tested)
09 [76db021a] (00/71) No match (V2 was not tested)
10 [156c8097] (00/71) No match (V2 was not tested)
11 [ab8d7c26] (00/71) No match (V2 was not tested)
12 [8a337dfc] (00/71) No match (V2 was not tested)
13 [77a39c72] (00/71) No match (V2 was not tested)
14 [35330449] (00/71) No match (V2 was not tested)
15 [73c90ab3] (00/70) No match (V2 was not tested)
16 [91d016c2] (00/70) No match (V2 was not tested)
17 [f570037a] (00/70) No match (V2 was not tested)
18 [ecfd16a6] (00/71) No match (V2 was not tested)
19 [613a61dc] (00/71) No match (V2 was not tested)
Offsetted by 48:
01 [93b4f4af] (00/72) No match (V2 was not tested)
02 [35ef64c5] (00/72) No match (V2 was not tested)
03 [4241f4f2] (00/71) No match (V2 was not tested)
04 [01866092] (00/71) No match (V2 was not tested)
05 [9dcd9b6b] (00/71) No match (V2 was not tested)
06 [e56e7aa3] (00/71) No match (V2 was not tested)
07 [f92d66d4] (00/71) No match (V2 was not tested)
08 [1bfc9de0] (00/71) No match (V2 was not tested)
09 [557e3ae6] (00/71) No match (V2 was not tested)
10 [b3804473] (00/71) No match (V2 was not tested)
11 [21e2e612] (00/71) No match (V2 was not tested)
12 [b162c6f0] (00/71) No match (V2 was not tested)
13 [3230e35e] (00/71) No match (V2 was not tested)
14 [c182c5a1] (00/71) No match (V2 was not tested)
15 [e0c07b57] (00/70) No match (V2 was not tested)
16 [fc37d70a] (00/70) No match (V2 was not tested)
17 [360cc266] (00/70) No match (V2 was not tested)
18 [1aeaf73a] (00/71) No match (V2 was not tested)
19 [83b24cd4] (00/71) No match (V2 was not tested)

Track Peak [ CRC32 ] [W/O NULL] [ LOG ]
– 99,8 [77B94C72] [440E90B4] CRC32
01 87,1 [24DEA94F] [554137FC]
02 86,9 [B610DB35] [A115C7DD]
03 92,7 [E40EF7E5] [A2454EF7]
04 88,9 [B8D4EC36] [423A8C19]
05 68,0 [A75A8324] [B4677033]
06 99,8 [3706F68F] [AE5BECC9]
07 82,1 [1886F092] [DAD86AEB]
08 88,4 [A2470E0F] [E7FD5448]
09 90,1 [042FDF66] [62D56786]
10 66,1 [EE9B93E7] [0E4DA684]
11 73,3 [A3D8A63C] [A48769E3]
12 93,9 [3EF7AB86] [2CB2FDE6]
13 91,2 [1345636C] [D90D97B1]
14 96,7 [1B8BD8C7] [852966F5]
15 95,4 [AC32C74C] [2B160F7E]
16 99,3 [75A00F20] [37622141]
17 95,3 [267C46B4] [1A2DA3D7]
18 88,2 [C75A6EE5] [5829B6BD]
19 93,0 [EA645229] [4AE787A1]

foobar2000 1.2 / Dynamic Range Meter 1.1.1
log date: 2019-12-17 19:51:46

––––––––––––––––––––––––––––––––––––––––
Analyzed: Fleetwood Mac / The Complete Blue Horizon Sessions 1967-69 CD6: The Original Fleetwood Mac
––––––––––––––––––––––––––––––––––––––––

DR Peak RMS Duration Track
––––––––––––––––––––––––––––––––––––––––
DR11 -1.19 dB -13.85 dB 3:32 01-Drifting
DR11 -1.21 dB -14.72 dB 3:11 02-Leaving Town Blues (Take 5-Master Version Remix)
DR9 -0.65 dB -11.12 dB 4:48 03-Watch Out (Take 2-Complete Master Version Remix)
DR10 -1.02 dB -15.24 dB 8:01 04-A Fool No More (Take 1-Previously Unissued; False Start…)
DR14 -3.34 dB -21.81 dB 4:08 05-Mean Old Fireman (Take 1-Previously Unissued; False Start…)
DR9 -0.01 dB -10.85 dB 2:04 06-Can't Afford To Do It
DR8 -1.70 dB -10.41 dB 3:56 07-Fleetwood Mac (Mono)
DR13 -1.07 dB -17.67 dB 6:57 08-Worried Dream (Take 1-Master Version Remix)
DR8 -0.90 dB -10.83 dB 2:34 09-Love That Woman (Alternative Original Mix)
DR12 -3.60 dB -19.59 dB 3:01 10-Allow Me One More Show (Alternative Original Mix)
DR10 -2.69 dB -14.89 dB 4:06 11-First Train Home (Mono)
DR10 -0.54 dB -11.82 dB 2:55 12-Rambling Pony No.2 (Alternative Original Mix)
DR10 -0.79 dB -12.16 dB 3:09 13-Watch Out (Take 1-Previously Unissued Incomplete)
DR9 -0.29 dB -11.05 dB 3:57 14-Something Inside Of Me
DR9 -0.40 dB -11.51 dB 4:07 15-Something Inside Of Me (Take 2-Previously Unissued)
DR10 -0.06 dB -13.17 dB 4:17 16-Something Inside Of Me (Take 3-Previously Unissued)
DR9 -0.42 dB -10.45 dB 3:13 17-One Sunny Day (Master Version Remix)
DR11 -1.08 dB -13.91 dB 4:33 18-Without You
DR10 -0.62 dB -13.04 dB 3:01 19-Coming Your Way (Take 6-Previously Unissued)
––––––––––––––––––––––––––––––––––––––––

Number of tracks: 19
Official DR value: DR10

Samplerate: 44100 Hz
Channels: 2
Bits per sample: 16
Bitrate: 756 kbps
Codec: FLAC
================================================================================




All thanks to original releaser - mistermac

More interesting music in My Blog