Subcategories

Freddie King - Burglar (1974) Reissue 1992

Posted By: Designol
Freddie King - Burglar (1974) Reissue 1992

Freddie King - Burglar (1974) Reissue 1992
EAC | FLAC | Tracks (Cue&Log) ~ 251 Mb | Mp3 (CBR320) ~ 112 Mb | Scans included | 00:37:51
Modern Electric Blues, Texas Blues, Blues-Rock, Funk | Label: Polydor | # 831 815-2

Produced in part by Mike Vernon, who worked on The Legendary Christine Perfect Album, this is an entertaining and concise package of ten songs performed by the late Freddie King and a slew of guests. Opening with Gonzalez Chandler's "Pack It Up," featuring the Gonzalez Horn Section, the youthful legend was only 40 years of age when he cut this career LP two years before his death. Though no songs went up the charts like his Top Five hit in 1961, "Hide Away," Burglar is one of those gems that journeymen can put together in their sleep. Tom Dowd produced "Sugar Sweet" at Criteria Studios in Miami, FL, featuring Jamie Oldaker on drums, Carl Radle on bass, and guitarists Eric Clapton and George Terry, which, of course, makes this album highly collectable in the Clapton circles. The sound doesn't deviate much from the rest of the disc's Mike Vernon production work; it is pure Freddy King, like on the final track, E. King's "Come On (Let the Good Times Roll)," where his guitar bursts through the horns and party atmosphere, creating a fusion of the pure blues found on "Sugar Sweet" and the rock that fans of Grand Funk grooved to when he opened for that group and was immortalized in their 1973 number one hit "We're an American Band" a year after this record's release. Sylistically, Freddie King is from the same school as Buddy Guy, two men instrumental in bringing this art form to a mass audience. King stretches those sounds with great fervor on the Hayes/Porter number "I Had a Dream," containing the strength Mark Farner said the blues artist displayed in concert, which could snap a guitar neck. The voice of Freddie King is what drives J.J. Cale's "I Got the Same Old Blues," the horns and the guitar battling between verses and uniting to ooze under the guitarist's vocal expression. Rhythm guitarist Bob Tench, producer Mike Vernon, bassist DeLisle Harper, drummer Steve Ferrone, and pianist Roy Davies all co-write "Texas Flyer" with Freddie King, a prime example of the modern blues this artist was developing. With Brian Auger and Pete Wingfield contributing to the title track, Jerry Ragovoy's "She's a Burglar," this project stands as a solid representation of an important musician which is as enjoyable as it is historic.

Review by Joe Viglione, Allmusic.com

Freddie King - Burglar (1974) Reissue 1992



Tracklist:

01. Pack It Up (4:10)
02. My Credit Didn't Go Through (4:10)
03. I Got The Same Old Blues (3:25)
04. Only Getting Second Best (3:50)
05. Texas Flyer (3:48)
06. Pulp Wood (3:13)
07. She's A Burglar (3:52)
08. Sugar Sweet (2:53)
09. I Had A Dream (5:02)
10. Let The Good Times Roll (3:30)


Exact Audio Copy V1.3 from 2. September 2016

EAC extraction logfile from 3. November 2017, 19:25

Freddie King / Burglar

Used drive : ATAPI iHAS124 C Adapter: 1 ID: 0

Read mode : Secure
Utilize accurate stream : Yes
Defeat audio cache : Yes
Make use of C2 pointers : No

Read offset correction : 6
Overread into Lead-In and Lead-Out : No
Fill up missing offset samples with silence : Yes
Delete leading and trailing silent blocks : No
Null samples used in CRC calculations : Yes
Used interface : Native Win32 interface for Win NT & 2000
Gap handling : Appended to previous track

Used output format : User Defined Encoder
Selected bitrate : 256 kBit/s
Quality : High
Add ID3 tag : No
Command line compressor : C:\Program Files\FLAC\flac.exe
Additional command line options : -8 -V -T "ARTIST=%artist%" -T "TITLE=%title%" -T "ALBUM=%albumtitle%" -T "DATE=%year%" -T "TRACKNUMBER=%tracknr%" -T "TOTALTRACKS=%numtracks%" -T "GENRE=%genre%" -T "ALBUMARTIST=%albumartist%" -T "ALBUM ARTIST=%albumartist%" -T "COMMENT=EAC Secure Mode, Test & Copy, AccurateRip, FLAC -8" %source%


TOC of the extracted CD

Track | Start | Length | Start sector | End sector
––––––––––––––––––––––––––––-
1 | 0:00.00 | 4:09.57 | 0 | 18731
2 | 4:09.57 | 4:10.33 | 18732 | 37514
3 | 8:20.15 | 3:24.55 | 37515 | 52869
4 | 11:44.70 | 3:49.65 | 52870 | 70109
5 | 15:34.60 | 3:47.67 | 70110 | 87201
6 | 19:22.52 | 3:12.68 | 87202 | 101669
7 | 22:35.45 | 3:51.72 | 101670 | 119066
8 | 26:27.42 | 2:52.50 | 119067 | 132016
9 | 29:20.17 | 5:01.50 | 132017 | 154641
10 | 34:21.67 | 3:29.70 | 154642 | 170386


Track 1

Filename D:\Temp\01 - Pack It Up.wav

Pre-gap length 0:00:02.00

Peak level 91.5 %
Extraction speed 5.9 X
Track quality 100.0 %
Test CRC 98494431
Copy CRC 98494431
Accurately ripped (confidence 33) [8CF18536] (AR v2)
Copy OK

Track 2

Filename D:\Temp\02 - My Credit Didn't Go Through.wav

Pre-gap length 0:00:03.05

Peak level 83.9 %
Extraction speed 6.4 X
Track quality 100.0 %
Test CRC A0CB2F8D
Copy CRC A0CB2F8D
Accurately ripped (confidence 33) [0A94A257] (AR v2)
Copy OK

Track 3

Filename D:\Temp\03 - I Got The Same Old Blues.wav

Pre-gap length 0:00:03.60

Peak level 90.6 %
Extraction speed 6.7 X
Track quality 100.0 %
Test CRC ECA29C1F
Copy CRC ECA29C1F
Accurately ripped (confidence 33) [5B7FC240] (AR v2)
Copy OK

Track 4

Filename D:\Temp\04 - Only Getting Second Best.wav

Pre-gap length 0:00:03.50

Peak level 95.2 %
Extraction speed 7.2 X
Track quality 100.0 %
Test CRC 2D4A6638
Copy CRC 2D4A6638
Accurately ripped (confidence 33) [D24A7A8B] (AR v2)
Copy OK

Track 5

Filename D:\Temp\05 - Texas Flyer.wav

Pre-gap length 0:00:03.08

Peak level 93.4 %
Extraction speed 7.6 X
Track quality 100.0 %
Test CRC 590F394D
Copy CRC 590F394D
Accurately ripped (confidence 33) [4AD83E40] (AR v2)
Copy OK

Track 6

Filename D:\Temp\06 - Pulp Wood.wav

Pre-gap length 0:00:03.17

Peak level 87.9 %
Extraction speed 6.1 X
Track quality 99.9 %
Test CRC A50BD041
Copy CRC A50BD041
Accurately ripped (confidence 33) [5474DDED] (AR v2)
Copy OK

Track 7

Filename D:\Temp\07 - She's A Burglar.wav

Pre-gap length 0:00:04.13

Peak level 78.2 %
Extraction speed 8.3 X
Track quality 100.0 %
Test CRC 3B33F578
Copy CRC 3B33F578
Accurately ripped (confidence 33) [6E403AB8] (AR v2)
Copy OK

Track 8

Filename D:\Temp\08 - Sugar Sweet.wav

Pre-gap length 0:00:03.47

Peak level 100.0 %
Extraction speed 8.3 X
Track quality 100.0 %
Test CRC 0A078750
Copy CRC 0A078750
Accurately ripped (confidence 33) [9CE7830B] (AR v2)
Copy OK

Track 9

Filename D:\Temp\09 - I Had A Dream.wav

Pre-gap length 0:00:04.12

Peak level 79.8 %
Extraction speed 9.3 X
Track quality 100.0 %
Test CRC 06190774
Copy CRC 06190774
Accurately ripped (confidence 33) [84284B68] (AR v2)
Copy OK

Track 10

Filename D:\Temp\10 - Let The Good Times Roll.wav

Pre-gap length 0:00:04.25

Peak level 79.9 %
Extraction speed 9.2 X
Track quality 100.0 %
Test CRC FE0449B0
Copy CRC FE0449B0
Accurately ripped (confidence 33) [08B3B9B5] (AR v2)
Copy OK


All tracks accurately ripped

No errors occurred

End of status report

–– CUETools DB Plugin V2.1.6

[CTDB TOCID: ZPBbe2PCp55sOk8CDP5ANQiK2YY-] found
Submit result: ZPBbe2PCp55sOk8CDP5ANQiK2YY- has been confirmed
Track | CTDB Status
1 | (42/42) Accurately ripped
2 | (42/42) Accurately ripped
3 | (42/42) Accurately ripped
4 | (42/42) Accurately ripped
5 | (42/42) Accurately ripped
6 | (42/42) Accurately ripped
7 | (42/42) Accurately ripped
8 | (42/42) Accurately ripped
9 | (42/42) Accurately ripped
10 | (42/42) Accurately ripped


==== Log checksum 0DFC73AA3437B4091640DDE9BE97CA116BA02B0D864C224997B79498B86C4D8C ====

foobar2000 1.2 / Dynamic Range Meter 1.1.1
log date: 2017-11-12 01:15:41

––––––––––––––––––––––––––––––––––––––––
Analyzed: Freddie King / Burglar
––––––––––––––––––––––––––––––––––––––––

DR Peak RMS Duration Track
––––––––––––––––––––––––––––––––––––––––
DR13 -0.77 dB -15.38 dB 4:10 01-Pack It Up
DR13 -1.52 dB -16.46 dB 4:10 02-My Credit Didn't Go Through
DR13 -0.85 dB -17.64 dB 3:25 03-I Got The Same Old Blues
DR12 -0.42 dB -16.41 dB 3:50 04-Only Getting Second Best
DR12 -0.59 dB -14.92 dB 3:48 05-Texas Flyer
DR13 -1.12 dB -15.60 dB 3:13 06-Pulp Wood
DR11 -2.13 dB -16.36 dB 3:52 07-She's A Burglar
DR15 0.00 dB -17.04 dB 2:53 08-Sugar Sweet
DR12 -1.96 dB -16.47 dB 5:02 09-I Had A Dream
DR11 -1.94 dB -15.29 dB 3:30 10-Let The Good Times Roll
––––––––––––––––––––––––––––––––––––––––

Number of tracks: 10
Official DR value: DR12

Samplerate: 44100 Hz
Channels: 2
Bits per sample: 16
Bitrate: 847 kbps
Codec: FLAC
================================================================================

Freddie King - Burglar (1974) Reissue 1992

Freddie King - Burglar (1974) Reissue 1992