Subcategories

Gipsy Kings - Compas (1997) [Re-Up]

Posted By: Designol
Gipsy Kings - Compas (1997) [Re-Up]

Gipsy Kings - Compas (1997)
EAC | FLAC | Image (Cue&Log) ~ 416 Mb | Mp3 (CBR320) ~ 155 Mb | Scans ~ 197 Mb
Flamenco, Rumba Catalana, World | Label: Sony/Columbia | # 487993 2 | Time: 01:07:38

The Gipsy Kings' main strength is their consistency. Throughout their career, they have managed to craft an accessible, pop-oriented version of flamenco and gypsy music that also pushes boundaries. During it all, they recorded classy, satisfying albums like Compas. There's not much different about Compas, but since the album is so well made and enchanting, that isn't a curse; it's a blessing.

Review by Thom Owens, Allmusic.com

Gipsy Kings at Allmusic
Gipsy Kings at Wiki

Tracklist:

01. Solo Por Ti (Amiwawa) (04:02)
02. Una Rumba Por Aqui (04:24)
03. Mira La Itana Mora (06:54)
04. Recuerdo Apasionado (04:03)
05. La Fiesta Comenza (03:03)
06. Sueno De Noche (05:56)
07. Que Si Que No (Funiculi Funicula) (03:17)
08. Canto A Brazil (04:14)
09. Obsesion De Amor (05:08)
10. Mi Nino (03:16)
11. Di Me (05:38)
12. Lo Mal Y Lo Bien (03:03)
13. Amor Gitano (07:28)
14. Salsa De Noche (03:28)
15. Solo Por Ti (Amiwawa) Remix (03:37)


Exact Audio Copy V1.0 beta 3 from 29. August 2011

EAC extraction logfile from 27. February 2012, 20:02

Gipsy Kings / Compas (487993 2)

Used drive : HL-DT-STDVDRW GSA-S10N Adapter: 0 ID: 1

Read mode : Secure
Utilize accurate stream : Yes
Defeat audio cache : Yes
Make use of C2 pointers : No

Read offset correction : 667
Overread into Lead-In and Lead-Out : No
Fill up missing offset samples with silence : Yes
Delete leading and trailing silent blocks : No
Null samples used in CRC calculations : Yes
Used interface : Native Win32 interface for Win NT & 2000

Used output format : User Defined Encoder
Selected bitrate : 768 kBit/s
Quality : High
Add ID3 tag : No
Command line compressor : C:\Program Files\Exact Audio Copy 1\Flac\flac.exe
Additional command line options : -V -8 %source%


TOC of the extracted CD

Track | Start | Length | Start sector | End sector
––––––––––––––––––––––––––––-
1 | 0:00.00 | 4:02.42 | 0 | 18191
2 | 4:02.42 | 4:24.08 | 18192 | 37999
3 | 8:26.50 | 6:54.27 | 38000 | 69076
4 | 15:21.02 | 4:03.55 | 69077 | 87356
5 | 19:24.57 | 3:03.03 | 87357 | 101084
6 | 22:27.60 | 5:56.50 | 101085 | 127834
7 | 28:24.35 | 3:17.62 | 127835 | 142671
8 | 31:42.22 | 4:14.38 | 142672 | 161759
9 | 35:56.60 | 5:08.50 | 161760 | 184909
10 | 41:05.35 | 3:16.20 | 184910 | 199629
11 | 44:21.55 | 5:38.35 | 199630 | 225014
12 | 50:00.15 | 3:03.20 | 225015 | 238759
13 | 53:03.35 | 7:28.67 | 238760 | 272426
14 | 60:32.27 | 3:28.40 | 272427 | 288066
15 | 64:00.67 | 3:37.53 | 288067 | 304394


Range status and errors

Selected range

Filename C:\Olaf der Weisse\Gipsy Kings . 1997 . Compas (487993 2)\Gipsy Kings - Compas (487993 2).wav

Peak level 99.6 %
Extraction speed 2.4 X
Range quality 100.0 %
Test CRC 188A4920
Copy CRC 188A4920
Copy OK

No errors occurred


AccurateRip summary

Track 1 accurately ripped (confidence 8) [29CF1A2C] (AR v1)
Track 2 accurately ripped (confidence 8) [E0623714] (AR v1)
Track 3 accurately ripped (confidence 8) [FA94AF1B] (AR v1)
Track 4 accurately ripped (confidence 8) [57D1AF1B] (AR v1)
Track 5 accurately ripped (confidence 8) [1CA7BCB3] (AR v1)
Track 6 accurately ripped (confidence 8) [760D5900] (AR v1)
Track 7 accurately ripped (confidence 8) [4E3C5FEF] (AR v1)
Track 8 accurately ripped (confidence 8) [280AC2C2] (AR v1)
Track 9 accurately ripped (confidence 8) [701CC39A] (AR v1)
Track 10 accurately ripped (confidence 8) [648569E7] (AR v1)
Track 11 accurately ripped (confidence 8) [52D3C3F7] (AR v1)
Track 12 accurately ripped (confidence 8) [16899100] (AR v1)
Track 13 accurately ripped (confidence 8) [738DB8FF] (AR v1)
Track 14 accurately ripped (confidence 8) [9015CDF5] (AR v1)
Track 15 accurately ripped (confidence 8) [771C1862] (AR v1)

All tracks accurately ripped

End of status report

==== Log checksum DF6EA8343E1A80CE27C6CF52D0653188A60C3E6EAEBD59BCD2A16ED0EB22E98B ====

foobar2000 1.2.1 / Dynamic Range Meter 1.1.1
log date: 2013-01-29 21:39:30

––––––––––––––––––––––––––––––––––––––––
Analyzed: Gipsy Kings / Compas (487993 2)
––––––––––––––––––––––––––––––––––––––––

DR Peak RMS Duration Track
––––––––––––––––––––––––––––––––––––––––
DR10 -0.03 dB -11.18 dB 4:03 01-Solo Por Ti (Amiwawa)
DR9 -0.64 dB -11.04 dB 4:24 02-Una Rumba Por Aqui
DR9 -0.64 dB -11.02 dB 6:54 03-Mira La Itana Mora
DR10 -0.64 dB -12.14 dB 4:04 04-Recuerdo Apasionado
DR9 -0.04 dB -11.06 dB 3:03 05-La Fiesta Comenza
DR10 -0.04 dB -12.04 dB 5:57 06-Sueno De Noche
DR9 -0.08 dB -13.18 dB 3:18 07-Que Si Que No (Funiculi Funicula)
DR9 -0.04 dB -10.05 dB 4:15 08-Canto A Brazil
DR9 -0.64 dB -11.42 dB 5:09 09-Obsesion De Amor
DR9 -0.04 dB -10.74 dB 3:16 10-Mi Nino
DR10 -0.64 dB -12.14 dB 5:38 11-Di Me
DR9 -0.64 dB -11.46 dB 3:03 12-Lo Mal Y Lo Bien
DR11 -0.76 dB -14.78 dB 7:29 13-Amor Gitano
DR10 -0.64 dB -12.59 dB 3:29 14-Salsa De Noche
DR9 -0.06 dB -11.00 dB 3:38 15-Solo Por Ti (Amiwawa) Remix
––––––––––––––––––––––––––––––––––––––––

Number of tracks: 15
Official DR value: DR9

Samplerate: 44100 Hz
Channels: 2
Bits per sample: 16
Bitrate: 861 kbps
Codec: FLAC
================================================================================

Gipsy Kings - Compas (1997) [Re-Up]

Gipsy Kings - Compas (1997) [Re-Up]

All thanks to original releaser - Olaf der Weisse

More interesting music in My Blog