Subcategories

Gipsy Kings - Love and Liberté (1993)

Posted By: Designol
Gipsy Kings - Love and Liberté (1993)

Gipsy Kings - Love and Liberté (1993)
EAC | FLAC | Image (Cue&Log) ~ 398 Mb (incl 5%) | Mp3 (CBR320/Stereo) ~ 148 Mb (incl 5%) | Scans included
Genre: Flamenco, Rumba Catalana, World Fusion | Label: Columbia | # 474950 2 | Time: 00:54:11

After their internationally successful 1988 self-titled debut, few have followed the the Gypsy Kings' noteworthy fusion of their distinctive flamenco-inflected pop with other international influences. Love & Liberte, a 1994 Elektra Records release, is one of their few compilations of all-new material, one that demonstrates this growth perhaps more than any of their other projects. One of their more extravagant songs, "No Vivire" implements a prominent bassline and strong brass accents in the chorus. Equally pleasant but slightly less authentic, "Escucha Me" crosses their Spanish guitar sound with a full reggae ensemble. The album's zenith hits with two instrumental tracks, "Guitarra Negra" and "Love and Liberte." "Guitarra Negra" shows off castanets with bongos. Every few bars, the intensity seems to reach a peak, only to retreat and regroup for another charge. The title track evolves slowly, with a gradual guitar and bass crescendo highlighted by a series of sparse piano chords on selected downbeats for emphasis. Though not as energetic as their best work, Love and Liberte is still an easy album for a Gypsy Kings fan to appreciate.

Review by Kieran McCarthy, Allmusic.com
Biography
Wiki
Website


Tracklist:

01. Pedir A Tu Corazon (04:39)
02. Escucha Me (04:39)
03. Ritmo De La Noche (03:31)
04. Montaña (05:23)
05. Navidad (03:28)
06. Queda Te Aqui (04:43)
07. Michaël (04:04)
08. Madre Mia (03:53)
09. No Viviré (04:09)
10. Guitarra Negra (03:42)
11. Campaña (04:14)
12. Love and Liberté (03:55)
13. La Quiero (03:46)


Exact Audio Copy V0.99 prebeta 4 from 23. January 2008

Отчёт EAC об извлечении, выполненном 1. июня 2008, 1:38

Gipsy Kings / Love & Libertй

Дисковод: ASUS DRW-1608P2 Adapter: 0 ID: 0

Режим чтения : Достоверность
Использование точного потока : Да
Отключение кэша аудио : Да
Использование указателей C2 : Нет

Коррекция смещения при чтении : 48
Способность читать области Lead-in и Lead-out : Нет
Заполнение пропущенных сэмплов тишиной : Да
Удаление блоков с тишиной в начале и конце : Нет
При вычислениях CRC использовались нулевые сэмплы : Да
Интерфейс : Встроенный Win32-интерфейс для Win NT/2000

Выходной формат : Пользовательский кодировщик
Выбранный битрейт : 768 kBit/s
Качество : Высокий
Добавление ID3-тэга : Нет
Утилита сжатия : C:\Program Files\Exact Audio Copy\FLAC\FLAC.EXE
Дополнительные параметры : -6 -V -T "ARTIST=%a" -T "TITLE=%t" -T "ALBUM=%g" -T "DATE=%y" -T "TRACKNUMBER=%n" -T "GENRE=%m" -T "COMMENT=%e" %s -o %d


TOC извлечённого CD

Трек | Старт | Длительность | Начальный сектор | Конечный сектор
––––––––––––––––––––––––––––––––––-
1 | 0:00.00 | 4:39.10 | 0 | 20934
2 | 4:39.10 | 4:39.22 | 20935 | 41881
3 | 9:18.32 | 3:31.10 | 41882 | 57716
4 | 12:49.42 | 5:23.18 | 57717 | 81959
5 | 18:12.60 | 3:28.67 | 81960 | 97626
6 | 21:41.52 | 4:43.55 | 97627 | 118906
7 | 26:25.32 | 4:04.45 | 118907 | 137251
8 | 30:30.02 | 3:53.65 | 137252 | 154791
9 | 34:23.67 | 4:09.25 | 154792 | 173491
10 | 38:33.17 | 3:42.18 | 173492 | 190159
11 | 42:15.35 | 4:14.32 | 190160 | 209241
12 | 46:29.67 | 3:55.68 | 209242 | 226934
13 | 50:25.60 | 3:46.15 | 226935 | 243899


Характеристики диапазона извлечения и сообщения об ошибках

Выбранный диапазон

Имя файла E:\МУЗИКА\GIPSY KINGS LOVE & LIBERTE\Gipsy Kings - Love & Libertй.wav

Пиковый уровень 100.0 %
Качество диапазона 100.0 %
CRC теста 92352E19
CRC копии 92352E19
Копирование… OK

Ошибок не произошло


AccurateRip: сводка

Трек 1 нет в базе данных
Трек 2 нет в базе данных
Трек 3 нет в базе данных
Трек 4 нет в базе данных
Трек 5 нет в базе данных
Трек 6 нет в базе данных
Трек 7 нет в базе данных
Трек 8 нет в базе данных
Трек 9 нет в базе данных
Трек 10 нет в базе данных
Трек 11 нет в базе данных
Трек 12 нет в базе данных
Трек 13 нет в базе данных

Ни одного трека нет в базе AccurateRip

Конец отчёта

foobar2000 1.2.1 / Dynamic Range Meter 1.1.1
log date: 2013-02-06 22:03:06

––––––––––––––––––––––––––––––––––––––––
Analyzed: Gipsy Kings / Love & Liberte
––––––––––––––––––––––––––––––––––––––––

DR Peak RMS Duration Track
––––––––––––––––––––––––––––––––––––––––
DR10 -0.18 dB -12.13 dB 4:39 01-Pedir A Tu Corazon
DR11 -0.40 dB -12.12 dB 4:39 02-Escucha Me
DR11 -0.20 dB -12.55 dB 3:31 03-Ritmo De La Noche
DR9 -0.19 dB -11.19 dB 5:23 04-Montana
DR10 0.00 dB -11.40 dB 3:29 05-Navidad
DR10 -0.20 dB -12.37 dB 4:44 06-Queda Te Aqui
DR11 -0.20 dB -13.12 dB 4:05 07-Michael
DR10 0.00 dB -13.04 dB 3:54 08-Madre Mia
DR11 -0.12 dB -12.19 dB 4:09 09-No Vivire
DR11 -0.18 dB -12.80 dB 3:42 10-Guitarra Negra
DR9 -0.20 dB -11.54 dB 4:14 11-Campana
DR12 -0.20 dB -14.45 dB 3:56 12-Love & Liberte
DR11 -0.20 dB -12.66 dB 3:46 13-La Quiero
––––––––––––––––––––––––––––––––––––––––

Number of tracks: 13
Official DR value: DR11

Samplerate: 44100 Hz
Channels: 2
Bits per sample: 16
Bitrate: 932 kbps
Codec: FLAC
================================================================================

Gipsy Kings - Love and Liberté (1993)

Gipsy Kings - Love and Liberté (1993)