Tags
Language
Tags

Go West - The Very Best Of Go West [2CD] (2012)

Posted By: BlondStyle
Go West - The Very Best Of Go West [2CD] (2012)

Go West - The Very Best Of Go West [2CD] (2012)
Pop/Rock, Dance-Pop/Rock, Electronic | EAC Rip | FLAC, Tracks+CUE+LOG+Scans (JPEG) | 02:33:13 | 1,09 Gb
Label: EMI/Music Club Deluxe (UK & Europe) | Cat.# MCDLX153 | Released: 2012-03-12
Go West - The Very Best Of Go West [2CD] (2012)

Pop music is studded with memorable partnerships, from the Righteous and Everly Brothers in the 60s to the 80s with Blancmange, Soft Cell, Yazoo and Wham! But Go West proved longer-lasting than much of the competition. As well as featuring a track from their 2011 album 3D and six hard-to-find remixes, this 32-track compilation includes every chart entry from their near-decade as international hitmakers. Go West is an English pop duo, formed in 1982 by lead vocalist Peter Cox and rhythm guitarist and backup vocalist Richard Drummie. The outfit enjoyed their peak of popularity between the mid 1980s and the early 1990s and are best known for the international top 10 hits "We Close Our Eyes", "Call Me" and "King of Wishful Thinking". They were named Best British Newcomer at the 1986 Brit Awards.
Go West - The Very Best Of Go West [2CD] (2012)

Go West - The Very Best Of Go West [2CD] (2012)

Go West - The Very Best Of Go West [2CD] (2012)




Release of this CD-Set: 2012, March, 12 [CD EMI/Music Club Deluxe (UK & Europe), Cat.# MCDLX153 / UPC: 5014797671539]
This compilation ℗&© 2012 Demon Music Group Ltd. / EMI Records Ltd.
Music Club Deluxe is a division of Demon Music Group Ltd.
Demon Music Group Ltd. is a BBC Worldwide Company.
Manufactured in the EU

Tracklist:

Disc 1:

01. We Close Our Eyes (03:54)
02. Call Me (04:12)
03. Don't Look Down (The Sequel) (04:21)
04. Innocence (The Desperation Mix) (05:52)
05. The King Of Wishful Thinking (04:02)
06. Faithful (04:24)
07. One Of Us (04:22)
08. I Want To Hear It From You (03:42)
09. SOS (Perpendicular Mix) (05:08)
10. The Man In My Mirror (04:21)
11. True Colours (03:55)
12. She Lights Me Up (04:36)
13. Missing Persons (05:26)
14. Never Let Them See You Sweat (04:23)
15. Ball Of Confusion (Live) (06:53)
16. Call Me (Indiscriminate Mix) (06:39)

Disc 2:

01. Goodbye Girl (04:34)
02. Eye To Eye (05:10)
03. What You Won't Do For Love (04:25)
04. Tracks Of My Tears (03:50)
05. The King Is Dead (04:28)
06. One Way Street (From Rocky IV) (04:35)
07. Chinese Whispers (04:14)
08. Crossfire (04:32)
09. From Baltimore To Paris (05:47)
10. I Want You Back (04:19)
11. Tell Me (04:18)
12. Still In Love (04:50)
13. The Sun And The Moon (04:55)
14. Healing Hands (The Monitor Mix) (04:47)
15. Don't Look Down (Stratospheric Mix) (06:07)
16. We Close Our Eyes (Total Overhang Mix) (05:57)

Exact Audio Copy V1.0 beta 6 from 9. April 2015

EAC extraction logfile from 11. June 2015, 19:57

Go West / The Very Best Of [CD1]

Used drive : TSSTcorpCDDVDW SE-208DB Adapter: 1 ID: 0

Read mode : Secure
Utilize accurate stream : Yes
Defeat audio cache : Yes
Make use of C2 pointers : No

Read offset correction : 6
Overread into Lead-In and Lead-Out : No
Fill up missing offset samples with silence : Yes
Delete leading and trailing silent blocks : No
Null samples used in CRC calculations : Yes
Used interface : Native Win32 interface for Win NT & 2000
Gap handling : Appended to previous track

Used output format : User Defined Encoder
Selected bitrate : 1024 kBit/s
Quality : High
Add ID3 tag : No
Command line compressor : C:\Program Files (x86)\Exact Audio Copy\Flac\flac.exe
Additional command line options : -8 -V -T "ARTIST=%artist%" -T "TITLE=%title%" -T "ALBUM=%albumtitle%" -T "DATE=%year%" -T "TRACKNUMBER=%tracknr%" -T "GENRE=%genre%" -T "PERFORMER=%albuminterpret%" -T "COMPOSER=%composer%" %haslyrics%–tag-from-file=LYRICS="%lyricsfile%"%haslyrics% -T "ALBUMARTIST=%albumartist%" -T "ALBUM ARTIST=%albumartist%" -T "DISCNUMBER=%cdnumber%" -T "TOTALDISCS=%totalcds%" -T "TOTALTRACKS=%numtracks%" -T "COMMENT=EAC V1.0 beta 6, Secure Mode, Test & Copy, AccurateRip, FLAC - 8 - bsw" %source%


TOC of the extracted CD

Track | Start | Length | Start sector | End sector
––––––––––––––––––––––––––––-
1 | 0:00.00 | 3:54.61 | 0 | 17610
2 | 3:54.61 | 4:11.64 | 17611 | 36499
3 | 8:06.50 | 4:21.29 | 36500 | 56103
4 | 12:28.04 | 5:52.00 | 56104 | 82503
5 | 18:20.04 | 4:02.68 | 82504 | 100721
6 | 22:22.72 | 4:24.69 | 100722 | 120590
7 | 26:47.66 | 4:22.38 | 120591 | 140278
8 | 31:10.29 | 3:42.30 | 140279 | 156958
9 | 34:52.59 | 5:08.21 | 156959 | 180079
10 | 40:01.05 | 4:21.65 | 180080 | 199719
11 | 44:22.70 | 3:55.52 | 199720 | 217396
12 | 48:18.47 | 4:36.38 | 217397 | 238134
13 | 52:55.10 | 5:26.07 | 238135 | 262591
14 | 58:21.17 | 4:23.29 | 262592 | 282345
15 | 62:44.46 | 6:53.16 | 282346 | 313336
16 | 69:37.62 | 6:39.59 | 313337 | 343320


Track 1

Filename C:\EAC\01 - We Close Our Eyes.wav

Pre-gap length 0:00:02.00

Peak level 94.3 %
Extraction speed 2.6 X
Track quality 100.0 %
Test CRC B50836ED
Copy CRC B50836ED
Accurately ripped (confidence 14) [79DC89EB] (AR v2)
Copy OK

Track 2

Filename C:\EAC\02 - Call Me.wav

Pre-gap length 0:00:01.00

Peak level 95.7 %
Extraction speed 3.0 X
Track quality 100.0 %
Test CRC C8F89ACC
Copy CRC C8F89ACC
Accurately ripped (confidence 14) [68A8A061] (AR v2)
Copy OK

Track 3

Filename C:\EAC\03 - Don't Look Down (The Sequel).wav

Pre-gap length 0:00:02.00

Peak level 88.3 %
Extraction speed 3.3 X
Track quality 100.0 %
Test CRC 4A3D7BFA
Copy CRC 4A3D7BFA
Accurately ripped (confidence 14) [39945B3A] (AR v2)
Copy OK

Track 4

Filename C:\EAC\04 - Innocence (The Desperation Mix).wav

Pre-gap length 0:00:02.00

Peak level 89.1 %
Extraction speed 3.7 X
Track quality 100.0 %
Test CRC E94DC56F
Copy CRC E94DC56F
Accurately ripped (confidence 14) [69D62B57] (AR v2)
Copy OK

Track 5

Filename C:\EAC\05 - The King Of Wishful Thinking.wav

Pre-gap length 0:00:01.15

Peak level 87.9 %
Extraction speed 3.7 X
Track quality 100.0 %
Test CRC 01113E5B
Copy CRC 01113E5B
Accurately ripped (confidence 14) [3293D1D4] (AR v2)
Copy OK

Track 6

Filename C:\EAC\06 - Faithful.wav

Pre-gap length 0:00:02.00

Peak level 84.0 %
Extraction speed 3.3 X
Track quality 99.9 %
Test CRC D7B38550
Copy CRC D7B38550
Accurately ripped (confidence 14) [696859D2] (AR v2)
Copy OK

Track 7

Filename C:\EAC\07 - One Of Us.wav

Pre-gap length 0:00:02.00

Peak level 80.7 %
Extraction speed 4.1 X
Track quality 100.0 %
Test CRC 94F5C255
Copy CRC 94F5C255
Accurately ripped (confidence 14) [D90733FB] (AR v2)
Copy OK

Track 8

Filename C:\EAC\08 - I Want To Hear It From You.wav

Pre-gap length 0:00:02.00

Peak level 87.4 %
Extraction speed 3.4 X
Track quality 99.9 %
Test CRC 1D5545AE
Copy CRC 1D5545AE
Accurately ripped (confidence 14) [8D8CBCCA] (AR v2)
Copy OK

Track 9

Filename C:\EAC\09 - SOS (Perpendicular Mix).wav

Pre-gap length 0:00:02.00

Peak level 100.0 %
Extraction speed 4.5 X
Track quality 100.0 %
Test CRC 14026BC7
Copy CRC 14026BC7
Accurately ripped (confidence 14) [5EC15DD1] (AR v2)
Copy OK

Track 10

Filename C:\EAC\10 - The Man In My Mirror.wav

Pre-gap length 0:00:01.00

Peak level 100.0 %
Extraction speed 4.6 X
Track quality 100.0 %
Test CRC F9ABDED5
Copy CRC F9ABDED5
Accurately ripped (confidence 14) [6C49C0AA] (AR v2)
Copy OK

Track 11

Filename C:\EAC\11 - True Colours.wav

Pre-gap length 0:00:00.29

Peak level 91.6 %
Extraction speed 3.8 X
Track quality 99.9 %
Test CRC 742606EE
Copy CRC 742606EE
Accurately ripped (confidence 14) [55326252] (AR v2)
Copy OK

Track 12

Filename C:\EAC\12 - She Lights Me Up.wav

Pre-gap length 0:00:02.07

Peak level 97.6 %
Extraction speed 4.9 X
Track quality 100.0 %
Test CRC 2E5F1B56
Copy CRC 2E5F1B56
Accurately ripped (confidence 14) [35A915CD] (AR v2)
Copy OK

Track 13

Filename C:\EAC\13 - Missing Persons.wav

Pre-gap length 0:00:01.74

Peak level 98.8 %
Extraction speed 5.1 X
Track quality 100.0 %
Test CRC 2E43F32C
Copy CRC 2E43F32C
Accurately ripped (confidence 14) [90A3B489] (AR v2)
Copy OK

Track 14

Filename C:\EAC\14 - Never Let Them See You Sweat.wav

Pre-gap length 0:00:01.25

Peak level 81.0 %
Extraction speed 5.1 X
Track quality 100.0 %
Test CRC 39F4524D
Copy CRC 39F4524D
Accurately ripped (confidence 14) [04DCB307] (AR v2)
Copy OK

Track 15

Filename C:\EAC\15 - Ball Of Confusion (Live).wav

Pre-gap length 0:00:01.74

Peak level 100.0 %
Extraction speed 5.6 X
Track quality 100.0 %
Test CRC 0DC95091
Copy CRC 0DC95091
Accurately ripped (confidence 14) [4666CFDB] (AR v2)
Copy OK

Track 16

Filename C:\EAC\16 - Call Me (Indiscriminate Mix).wav

Pre-gap length 0:00:00.72

Peak level 94.3 %
Extraction speed 5.7 X
Track quality 100.0 %
Test CRC 856E2419
Copy CRC 856E2419
Accurately ripped (confidence 14) [A42A8429] (AR v2)
Copy OK


All tracks accurately ripped

No errors occurred

End of status report

–– CUETools DB Plugin V2.1.6

[CTDB TOCID: pYWPkaHkNPDoe_rwGcRz.YZZm.s-] found
Submit result: pYWPkaHkNPDoe_rwGcRz.YZZm.s- has been confirmed
Track | CTDB Status
1 | (3/3) Accurately ripped
2 | (3/3) Accurately ripped
3 | (3/3) Accurately ripped
4 | (3/3) Accurately ripped
5 | (3/3) Accurately ripped
6 | (3/3) Accurately ripped
7 | (3/3) Accurately ripped
8 | (3/3) Accurately ripped
9 | (3/3) Accurately ripped
10 | (3/3) Accurately ripped
11 | (3/3) Accurately ripped
12 | (3/3) Accurately ripped
13 | (3/3) Accurately ripped
14 | (3/3) Accurately ripped
15 | (3/3) Accurately ripped
16 | (3/3) Accurately ripped


==== Log checksum DBA3808897A662BA81293FBDEF180D8AFE58F37EEDDF173D6B71A1EDC9AD2431 ====

Exact Audio Copy V1.0 beta 6 from 9. April 2015

EAC extraction logfile from 11. June 2015, 20:44

Go West / The Very Best Of [CD2]

Used drive : TSSTcorpCDDVDW SE-208DB Adapter: 1 ID: 0

Read mode : Secure
Utilize accurate stream : Yes
Defeat audio cache : Yes
Make use of C2 pointers : No

Read offset correction : 6
Overread into Lead-In and Lead-Out : No
Fill up missing offset samples with silence : Yes
Delete leading and trailing silent blocks : No
Null samples used in CRC calculations : Yes
Used interface : Native Win32 interface for Win NT & 2000
Gap handling : Appended to previous track

Used output format : User Defined Encoder
Selected bitrate : 1024 kBit/s
Quality : High
Add ID3 tag : No
Command line compressor : C:\Program Files (x86)\Exact Audio Copy\Flac\flac.exe
Additional command line options : -8 -V -T "ARTIST=%artist%" -T "TITLE=%title%" -T "ALBUM=%albumtitle%" -T "DATE=%year%" -T "TRACKNUMBER=%tracknr%" -T "GENRE=%genre%" -T "PERFORMER=%albuminterpret%" -T "COMPOSER=%composer%" %haslyrics%–tag-from-file=LYRICS="%lyricsfile%"%haslyrics% -T "ALBUMARTIST=%albumartist%" -T "ALBUM ARTIST=%albumartist%" -T "DISCNUMBER=%cdnumber%" -T "TOTALDISCS=%totalcds%" -T "TOTALTRACKS=%numtracks%" -T "COMMENT=EAC V1.0 beta 6, Secure Mode, Test & Copy, AccurateRip, FLAC - 8 - bsw" %source%


TOC of the extracted CD

Track | Start | Length | Start sector | End sector
––––––––––––––––––––––––––––-
1 | 0:00.00 | 4:34.57 | 0 | 20606
2 | 4:34.57 | 5:10.58 | 20607 | 43914
3 | 9:45.40 | 4:25.48 | 43915 | 63837
4 | 14:11.13 | 3:50.03 | 63838 | 81090
5 | 18:01.16 | 4:28.22 | 81091 | 101212
6 | 22:29.38 | 4:35.58 | 101213 | 121895
7 | 27:05.21 | 4:14.52 | 121896 | 140997
8 | 31:19.73 | 4:32.16 | 140998 | 161413
9 | 35:52.14 | 5:47.26 | 161414 | 187464
10 | 41:39.40 | 4:19.08 | 187465 | 206897
11 | 45:58.48 | 4:18.05 | 206898 | 226252
12 | 50:16.53 | 4:50.09 | 226253 | 248011
13 | 55:06.62 | 4:55.64 | 248012 | 270200
14 | 60:02.51 | 4:47.02 | 270201 | 291727
15 | 64:49.53 | 6:07.21 | 291728 | 319273
16 | 70:56.74 | 5:57.71 | 319274 | 346119


Track 1

Filename C:\EAC\01 - Goodbye Girl.wav

Pre-gap length 0:00:02.00

Peak level 93.2 %
Extraction speed 2.9 X
Track quality 100.0 %
Test CRC 083BBF7A
Copy CRC 083BBF7A
Accurately ripped (confidence 13) [3C135889] (AR v2)
Copy OK

Track 2

Filename C:\EAC\02 - Eye To Eye.wav

Pre-gap length 0:00:01.09

Peak level 86.0 %
Extraction speed 2.7 X
Track quality 99.9 %
Test CRC A0C9F0E1
Copy CRC A0C9F0E1
Accurately ripped (confidence 14) [D8C130E9] (AR v2)
Copy OK

Track 3

Filename C:\EAC\03 - What You Won't Do For Love.wav

Pre-gap length 0:00:02.00

Peak level 77.5 %
Extraction speed 3.4 X
Track quality 100.0 %
Test CRC 8350C766
Copy CRC 8350C766
Accurately ripped (confidence 14) [D061AA45] (AR v2)
Copy OK

Track 4

Filename C:\EAC\04 - Tracks Of My Tears.wav

Pre-gap length 0:00:02.00

Peak level 84.9 %
Extraction speed 2.9 X
Track quality 99.9 %
Test CRC 3B87D5EB
Copy CRC 3B87D5EB
Accurately ripped (confidence 14) [B15385B7] (AR v2)
Copy OK

Track 5

Filename C:\EAC\05 - The King Is Dead.wav

Pre-gap length 0:00:02.00

Peak level 92.5 %
Extraction speed 3.8 X
Track quality 100.0 %
Test CRC 3B7CA5EE
Copy CRC 3B7CA5EE
Accurately ripped (confidence 14) [A3E2FBD0] (AR v2)
Copy OK

Track 6

Filename C:\EAC\06 - One Way Street (From Rocky IV).wav

Pre-gap length 0:00:02.00

Peak level 86.4 %
Extraction speed 4.0 X
Track quality 100.0 %
Test CRC C09BAF73
Copy CRC C09BAF73
Accurately ripped (confidence 14) [9F66C0DC] (AR v2)
Copy OK

Track 7

Filename C:\EAC\07 - Chinese Whispers.wav

Pre-gap length 0:00:02.00

Peak level 95.5 %
Extraction speed 4.1 X
Track quality 100.0 %
Test CRC EB259BF4
Copy CRC EB259BF4
Accurately ripped (confidence 14) [A9F1DB18] (AR v2)
Copy OK

Track 8

Filename C:\EAC\08 - Crossfire.wav

Pre-gap length 0:00:02.00

Peak level 100.0 %
Extraction speed 3.6 X
Track quality 99.9 %
Test CRC EF5944B4
Copy CRC EF5944B4
Accurately ripped (confidence 14) [FE733B9C] (AR v2)
Copy OK

Track 9

Filename C:\EAC\09 - From Baltimore To Paris.wav

Pre-gap length 0:00:01.00

Peak level 100.0 %
Extraction speed 4.6 X
Track quality 100.0 %
Test CRC 834364D9
Copy CRC 834364D9
Accurately ripped (confidence 14) [4A51F3B4] (AR v2)
Copy OK

Track 10

Filename C:\EAC\10 - I Want You Back.wav

Pre-gap length 0:00:02.00

Peak level 81.0 %
Extraction speed 4.7 X
Track quality 100.0 %
Test CRC D629B231
Copy CRC D629B231
Accurately ripped (confidence 14) [46390686] (AR v2)
Copy OK

Track 11

Filename C:\EAC\11 - Tell Me.wav

Pre-gap length 0:00:02.00

Peak level 87.7 %
Extraction speed 4.8 X
Track quality 100.0 %
Test CRC C7DBAAF8
Copy CRC C7DBAAF8
Accurately ripped (confidence 14) [7D01984B] (AR v2)
Copy OK

Track 12

Filename C:\EAC\12 - Still In Love.wav

Pre-gap length 0:00:02.00

Peak level 86.9 %
Extraction speed 5.0 X
Track quality 100.0 %
Test CRC 25DF26A9
Copy CRC 25DF26A9
Accurately ripped (confidence 14) [45FFAB66] (AR v2)
Copy OK

Track 13

Filename C:\EAC\13 - The Sun And The Moon.wav

Pre-gap length 0:00:03.13

Peak level 91.6 %
Extraction speed 5.0 X
Track quality 100.0 %
Test CRC DBB0A364
Copy CRC DBB0A364
Accurately ripped (confidence 13) [188C972C] (AR v2)
Copy OK

Track 14

Filename C:\EAC\14 - Healing Hands (The Monitor Mix).wav

Pre-gap length 0:00:02.00

Peak level 85.1 %
Extraction speed 5.2 X
Track quality 100.0 %
Test CRC 6EA6C261
Copy CRC 6EA6C261
Accurately ripped (confidence 13) [66AD083F] (AR v2)
Copy OK

Track 15

Filename C:\EAC\15 - Don't Look Down (Stratospheric Mix).wav

Pre-gap length 0:00:02.00

Peak level 92.1 %
Extraction speed 5.6 X
Track quality 100.0 %
Test CRC 49B37900
Copy CRC 49B37900
Accurately ripped (confidence 13) [22B2ED4A] (AR v2)
Copy OK

Track 16

Filename C:\EAC\16 - We Close Our Eyes (Total Overhang Mix).wav

Pre-gap length 0:00:02.00

Peak level 100.0 %
Extraction speed 5.5 X
Track quality 100.0 %
Test CRC DCCF6C94
Copy CRC DCCF6C94
Accurately ripped (confidence 13) [3D3CBBFC] (AR v2)
Copy OK


All tracks accurately ripped

No errors occurred

End of status report

–– CUETools DB Plugin V2.1.6

[CTDB TOCID: a_vT7Rk7V4iLLaSxNK4TS5TY2oc-] found
Submit result: a_vT7Rk7V4iLLaSxNK4TS5TY2oc- has been confirmed
Track | CTDB Status
1 | (3/3) Accurately ripped
2 | (3/3) Accurately ripped
3 | (3/3) Accurately ripped
4 | (3/3) Accurately ripped
5 | (3/3) Accurately ripped
6 | (3/3) Accurately ripped
7 | (3/3) Accurately ripped
8 | (3/3) Accurately ripped
9 | (3/3) Accurately ripped
10 | (3/3) Accurately ripped
11 | (3/3) Accurately ripped
12 | (3/3) Accurately ripped
13 | (3/3) Accurately ripped
14 | (3/3) Accurately ripped
15 | (3/3) Accurately ripped
16 | (3/3) Accurately ripped


==== Log checksum 33A70C6181EC9E0F7B5E1C24C0121A07C4B7F5B29C7CDF4C332BAB16C9F3C747 ====

––––––––––––––––––––––––––––––––––––––––
Analyzed: Go West / The Very Best Of [CD1]
––––––––––––––––––––––––––––––––––––––––

DR Peak RMS Duration Track
––––––––––––––––––––––––––––––––––––––––
DR10 -0.50 dB -12.60 dB 3:55 01-We Close Our Eyes
DR11 -0.38 dB -13.15 dB 4:12 02-Call Me
DR10 -1.08 dB -12.47 dB 4:21 03-Don't Look Down (The Sequel)
DR11 -1.00 dB -14.04 dB 5:52 04-Innocence (The Desperation Mix)
DR11 -1.11 dB -14.19 dB 4:03 05-The King Of Wishful Thinking
DR10 -1.51 dB -13.36 dB 4:25 06-Faithful
DR10 -1.86 dB -13.98 dB 4:23 07-One Of Us
DR9 -1.17 dB -11.56 dB 3:42 08-I Want To Hear It From You
DR12 0.00 dB -14.59 dB 5:08 09-SOS (Perpendicular Mix)
DR12 0.00 dB -14.36 dB 4:22 10-The Man In My Mirror
DR10 -0.76 dB -12.45 dB 3:56 11-True Colours
DR11 -0.21 dB -12.44 dB 4:37 12-She Lights Me Up
DR11 -0.10 dB -14.12 dB 5:26 13-Missing Persons
DR11 -1.82 dB -13.82 dB 4:23 14-Never Let Them See You Sweat
DR12 0.00 dB -14.63 dB 6:53 15-Ball Of Confusion (Live)
DR12 -0.51 dB -14.88 dB 6:40 16-Call Me (Indiscriminate Mix)
––––––––––––––––––––––––––––––––––––––––

Number of tracks: 16
Official DR value: DR11

Samplerate: 44100 Hz
Channels: 2
Bits per sample: 16
Bitrate: 950 kbps
Codec: FLAC
================================================================================

––––––––––––––––––––––––––––––––––––––––
Analyzed: Go West / The Very Best Of [CD2]
––––––––––––––––––––––––––––––––––––––––

DR Peak RMS Duration Track
––––––––––––––––––––––––––––––––––––––––
DR11 -0.61 dB -13.19 dB 4:35 01-Goodbye Girl
DR12 -1.30 dB -14.88 dB 5:11 02-Eye To Eye
DR10 -2.21 dB -13.50 dB 4:26 03-What You Won't Do For Love
DR10 -1.42 dB -15.26 dB 3:50 04-Tracks Of My Tears
DR10 -0.67 dB -15.05 dB 4:28 05-The King Is Dead
DR11 -1.27 dB -14.26 dB 4:36 06-One Way Street (From Rocky IV)
DR12 -0.40 dB -15.11 dB 4:15 07-Chinese Whispers
DR12 0.00 dB -14.73 dB 4:32 08-Crossfire
DR12 0.00 dB -14.67 dB 5:47 09-From Baltimore To Paris
DR12 -1.83 dB -15.63 dB 4:19 10-I Want You Back
DR11 -1.14 dB -14.24 dB 4:18 11-Tell Me
DR11 -1.21 dB -14.42 dB 4:50 12-Still In Love
DR12 -0.76 dB -15.49 dB 4:56 13-The Sun And The Moon
DR10 -1.40 dB -12.91 dB 4:47 14-Healing Hands (The Monitor Mix)
DR12 -0.71 dB -14.63 dB 6:07 15-Don't Look Down (Stratospheric Mix)
DR14 0.00 dB -15.24 dB 5:58 16-We Close Our Eyes (Total Overhang Mix)
––––––––––––––––––––––––––––––––––––––––

Number of tracks: 16
Official DR value: DR11

Samplerate: 44100 Hz
Channels: 2
Bits per sample: 16
Bitrate: 914 kbps
Codec: FLAC
================================================================================

Thanks to bigsimonwilde

See also:
Go West - Go West (1985)
Go West - Aces And Kings: The Best Of Go West (1993)

♫~Welcome To My Blog~♫

password: BlondStyle