Grant Green - Grantstand (1961) [Analogue Productions, Remastered 2011] Audio CD Layer

Posted By: Designol
Grant Green - Grantstand (1961) [Analogue Productions, Remastered 2011] Audio CD Layer

Grant Green - Grantstand (1961) [Remastered 2011]
Mastered by Kevin Gray and Steve Hoffman at AcousTech Mastering
XLD | FLAC | Tracks (Cue&Log) ~ 236 Mb | Mp3 (CBR320) ~ 107 Mb | Scans included | 00:42:56
Hard Bop, Soul Jazz, Guitar Jazz | Label: Analogue Productions, Blue Note | # CBNJ 84086 SA

Grant Green's third album to be released, Grantstand teams the clear-toned guitarist with an unlikely backing group of musicians who rarely appeared with Blue Note otherwise: tenor saxophonist Yusef Lateef (who doubles on flute), organist Brother Jack McDuff, and drummer Al Harewood. Although Lateef was beginning to delve deeply into Eastern tonalities and instruments around the same time, his playing here is pretty straightforward and swinging, fitting the relaxed, bop-tinged soul-jazz that makes up most of the session. For his part, McDuff is mellower than his usual ferocious self, laying back and swinging with a blissful ease. Green contributes two bluesy originals, the nine-minute title track and the 15-minute "Blues in Maude's Flat," which are turned into loose, loping jams that rank as some of the best examples of Green's ability to work an extended groove. (The CD bonus track, "Green's Greenery," is in much the same vein, though not as long.) Elsewhere, Green leads a delicate, sensitive exploration of "My Funny Valentine" that ended up as his greatest standard performance to date, setting the stage for a great deal more work in this vein that was soon to be forthcoming (including his brilliant sessions with Sonny Clark). Still, the groove is what reigns supreme for most of the album; if you're looking for Green the soul-jazz groovemaster, Grantstand is an excellent place to find him.

Review by Steve Huey, Allmusic.com

Grant Green - Grantstand (1961) [Analogue Productions, Remastered 2011] Audio CD Layer



Grant Green - guitar
Yusef Lateef - tenor saxophone, flute
Jack McDuff - organ
Al Harewood - drums

Tracklist:

01. Grantstand (9:09)
02. My Funny Valentine (9:10)
03. Blues in Maude's Flat (15:05)
04. Old Folks (4:14)
05. Green's Greenery (5:18)


X Lossless Decoder version 20111015 (136.4)

XLD extraction logfile from 2011-10-27 22:23:58 +1100

Grant Green / Grantstand

Used drive : HL-DT-ST DVD-RW GH41N (revision PQ05)

Ripper mode : XLD Secure Ripper
Disable audio cache : OK for the drive with a cache less than 1375KiB
Make use of C2 pointers : NO
Read offset correction : 667
Max retry count : 100
Gap status : Analyzed, Appended (except HTOA)

TOC of the extracted CD
Track | Start | Length | Start sector | End sector
––––––––––––––––––––––––––––-
1 | 00:00:00 | 09:08:48 | 0 | 41147
2 | 09:08:48 | 09:09:69 | 41148 | 82391
3 | 18:18:42 | 15:05:09 | 82392 | 150275
4 | 33:23:51 | 04:14:03 | 150276 | 169328
5 | 37:37:54 | 05:18:13 | 169329 | 193191

AccurateRip Summary
Track 01 : OK (AR2, confidence 1)
Track 02 : OK (AR2, confidence 1)
Track 03 : OK (AR2, confidence 1)
Track 04 : OK (AR2, confidence 1)
Track 05 : OK (AR2, confidence 1)
->All tracks accurately ripped.

All Tracks
Album gain : -1.99 dB
Peak : 0.999969
Statistics
Read error : 0
Jitter error (maybe fixed) : 0
Retry sector count : 0
Damaged sector count : 0

Track 01
Filename : /Users/carl 1/Desktop/Grantstand/01 - Grantstand.flac
Pre-gap length : 00:02:00

Track gain : -3.10 dB
Peak : 0.999969
CRC32 hash (test run) : 194F4971
CRC32 hash : 194F4971
CRC32 hash (skip zero) : 7FA5C70B
AccurateRip signature : 7B1D5204
->Accurately ripped! (AR2, confidence 1)
Statistics
Read error : 0
Jitter error (maybe fixed) : 0
Retry sector count : 0
Damaged sector count : 0

Track 02
Filename : /Users/carl 1/Desktop/Grantstand/02 - My Funny Valentine.flac
Pre-gap length : 00:01:52

Track gain : -0.38 dB
Peak : 0.629944
CRC32 hash (test run) : 09CA1FD4
CRC32 hash : 09CA1FD4
CRC32 hash (skip zero) : 052A2FD3
AccurateRip signature : A7D515F9
->Accurately ripped! (AR2, confidence 1)
Statistics
Read error : 0
Jitter error (maybe fixed) : 0
Retry sector count : 0
Damaged sector count : 0

Track 03
Filename : /Users/carl 1/Desktop/Grantstand/03 - Blues in Maude's Flat.flac
Pre-gap length : 00:02:16

Track gain : -1.30 dB
Peak : 0.922302
CRC32 hash (test run) : C54AC5E5
CRC32 hash : C54AC5E5
CRC32 hash (skip zero) : 335472B8
AccurateRip signature : FBD93ED3
->Accurately ripped! (AR2, confidence 1)
Statistics
Read error : 0
Jitter error (maybe fixed) : 0
Retry sector count : 0
Damaged sector count : 0

Track 04
Filename : /Users/carl 1/Desktop/Grantstand/04 - Old Folks.flac
Pre-gap length : 00:01:13

Track gain : -1.00 dB
Peak : 0.999969
CRC32 hash (test run) : E88747DB
CRC32 hash : E88747DB
CRC32 hash (skip zero) : 9CEF9684
AccurateRip signature : 352EA920
->Accurately ripped! (AR2, confidence 1)
Statistics
Read error : 0
Jitter error (maybe fixed) : 0
Retry sector count : 0
Damaged sector count : 0

Track 05
Filename : /Users/carl 1/Desktop/Grantstand/05 - Green's Greenery.flac
Pre-gap length : 00:03:19

Track gain : -3.07 dB
Peak : 0.999969
CRC32 hash (test run) : D9953A6D
CRC32 hash : D9953A6D
CRC32 hash (skip zero) : 5D6E9B50
AccurateRip signature : 0564AB45
->Accurately ripped! (AR2, confidence 1)
Statistics
Read error : 0
Jitter error (maybe fixed) : 0
Retry sector count : 0
Damaged sector count : 0

No errors occurred

End of status report

[CUETools log; Date: 27.08.2017 22:24:30; Version: 2.1.4]
[CTDB TOCID: E0jdHGbGZM7Ag8T7A4SwajaHg.g-] found.
Track | CTDB Status
1 | (7/8) Accurately ripped
2 | (7/8) Accurately ripped
3 | (7/8) Accurately ripped
4 | (7/8) Accurately ripped
5 | (7/8) Accurately ripped
[AccurateRip ID: 0009b5b1-002cce36-270a0f05] found.
Track [ CRC | V2 ] Status
01 [659fbbe1|7b1d5204] (00+13/13) Accurately ripped
02 [1932e609|a7d515f9] (00+13/13) Accurately ripped
03 [db29b70c|fbd93ed3] (00+13/13) Accurately ripped
04 [ad382005|352ea920] (00+13/13) Accurately ripped
05 [e89c8126|0564ab45] (00+13/13) Accurately ripped

Track Peak [ CRC32 ] [W/O NULL]
– 100,0 [72355F3C] [103695BC]
01 100,0 [194F4971] [7FA5C70B]
02 62,9 [09CA1FD4] [052A2FD3]
03 92,2 [C54AC5E5] [335472B8]
04 100,0 [E88747DB] [9CEF9684]
05 100,0 [D9953A6D] [5D6E9B50]

foobar2000 1.2 / Dynamic Range Meter 1.1.1
log date: 2017-08-27 23:19:52

––––––––––––––––––––––––––––––––––––––––
Analyzed: Grant Green / Grantstand
––––––––––––––––––––––––––––––––––––––––

DR Peak RMS Duration Track
––––––––––––––––––––––––––––––––––––––––
DR12 0.00 dB -16.26 dB 9:09 01-Grantstand
DR11 -4.01 dB -19.96 dB 9:10 02-My Funny Valentine
DR12 -0.70 dB -18.32 dB 15:05 03-Blues in Maude's Flat
DR12 0.00 dB -17.64 dB 4:14 04-Old Folks
DR12 0.00 dB -16.85 dB 5:18 05-Green's Greenery
––––––––––––––––––––––––––––––––––––––––

Number of tracks: 5
Official DR value: DR12

Samplerate: 44100 Hz
Channels: 2
Bits per sample: 16
Bitrate: 798 kbps
Codec: FLAC
================================================================================

Grant Green - Grantstand (1961) [Analogue Productions, Remastered 2011] Audio CD Layer

Grant Green - Grantstand (1961) [Analogue Productions, Remastered 2011] Audio CD Layer

All thanks to original releaser - Squirter

More interesting music in My Blog