Tags
Language
Tags
April 2024
Su Mo Tu We Th Fr Sa
31 1 2 3 4 5 6
7 8 9 10 11 12 13
14 15 16 17 18 19 20
21 22 23 24 25 26 27
28 29 30 1 2 3 4

Gregorian - Masters of Chant: The Platinum Collection [5CD Box Set] (2017)

Posted By: gribovar
Gregorian - Masters of Chant: The Platinum Collection [5CD Box Set] (2017)

Gregorian - Masters of Chant: The Platinum Collection [5CD Box Set] (2017)
EAC Rip | FLAC (tracks+.cue+log) - 2,47 GB | MP3 CBR 320 kbps (LAME 3.93) - 885 MB | Covers - 27 MB
Genre: New Age, Enigmatic, Ambientpop | RAR 3% Rec. | Label: Telamo Musik (405380420483)

You can expect a successful mix of great rock and pop hits in a new guise. Breathtaking! In Gregorian, everything fits together, forms a unity and abducts the listener with famous melodies in a completely new sound in the timeless world of Gregorian chant. Experience the audio-visual spectacle of your live shows now at home! The Platinum Collection by Gregorian featuring: Nothing Else Matters, Tears In Heaven, Close My Eyes Forever, Brothers In Arms, Blue Monday etc.
CD 1 Tracklist:
01. Brothers in Arms (5:03)
02. Scarborough Fair (4:11)
03. When a Man Loves a Woman (3:45)
04. Nothing Else Matters (5:35)
05. Still Haven't Found What I'm Looking For (4:05)
06. Hymn (5:02)
07. Moment of Peace (3:57)
08. Join Me (4:12)
09. Be (5:16)
10. Only You (3:50)
11. Sacrifice (4:44)
12. Fields of Gold (3:24)
13. Clocks (4:26)
14. The Gift (4:21)
15. Angels (4:43)
16. For No One (2:41)
17. Babylon (3:05)

Total time: 01:12:19

CD 2 Tracklist:
01. Kashmir (6:38)
02. Sebastian (3:08)
03. Bonny Portmore (3:41)
04. The Carpet Crawlers (5:31)
05. One (5:02)
06. Molly Ban (4:24)
07. Silent Lucidity (5:28)
08. Stop Crying Your Heart Out (4:21)
09. The Circle (4:12)
10. Boulevard of Broken Dreams (4:37)
11. Giide Me God (4:10)
12. One of Us (4:24)
13. A Weakened Soul (4:07)
14. Believe In Me (4:36)
15. Hide And Seek (4:37)
16. Vienna (4:25)
17. Greensleeves (4:06)

Total time: 01:17:24

CD 3 Tracklist:
01. Child in Time (4:15)
02. Before the Dawn (4:06)
03. Evening Falls (4:13)
04. Arrival (3:09)
05. Mercy Street (4:30)
06. Missing (4:17)
07. Forever Young (4:33)
08. Sweet Child of Mine (5:07)
09. Running Up that Hill (4:45)
10. Who Wants to Live Forever (3:54)
11. It Will Be Forgiven (4:24)
12. Crazy Crazy Nights (3:52)
13. Lucky Man (4:24)
14. Maid of Orleans (4:12)
15. Blue Monday (3:22)
16. I'll Find My Way Home (5:02)
17. Everybody Gotta Learn Sometimes (4:47)

Total time: 01:12:50

CD 4 Tracklist:
01. Tears in Heaven (4:37)
02. The First Time Ever I Saw Your Face (5:00)
03. Heaven Can Wait (5:06)
04. Still I'm Sad (4:05)
05. Wicked Game (4:52)
06. Wish You Were Here (4:23)
07. Imagine (4:04)
08. I Won't Hold You Back (4:41)
09. World (3:20)
10. Out of the Cold (3:50)
11. We Love You (3:49)
12. The Time Has Come (3:24)
13. Ordinary World (6:00)
14. In the Air Tonight (4:42)
15. Losing My Religion (5:01)
16. Mad World (4:27)
17. Don't Give Up (5:19)

Total time: 01:16:37

CD 5 Tracklist:
01. Bridge Over Troubled Water (4:48)
02. Heroes (4:45)
03. Lady in Black (4:57)
04. With or Without You (5:36)
05. The Forest (4:09)
06. Crying in the Rain (4:44)
07. Fix You (5:01)
08. Miracle of Love (4:36)
09. Dreams (4:21)
10. Meadows of Heaven (5:49)
11. A Whiter Shade of Pale (4:08)
12. Chasing Cars (4:28)
13. A Face in the Crowd (3:39)
14. The Sound of Silence (3:36)
15. Blaspemous Rumors (3:50)
16. Lady D'Arbanville (3:42)
17. Sadness Pt. 1 (4:05)

Total time: 01:16:13

Exact Audio Copy V1.3 from 2. September 2016

EAC extraction logfile from 5. October 2019, 21:17

Gregorian / Masters of Chant: The Platinum Collection

Used drive : ASUS DRW-24F1ST a Adapter: 1 ID: 0

Read mode : Secure
Utilize accurate stream : Yes
Defeat audio cache : Yes
Make use of C2 pointers : No

Read offset correction : 6
Overread into Lead-In and Lead-Out : No
Fill up missing offset samples with silence : Yes
Delete leading and trailing silent blocks : No
Null samples used in CRC calculations : Yes
Used interface : Native Win32 interface for Win NT & 2000
Gap handling : Appended to previous track

Used output format : User Defined Encoder
Selected bitrate : 896 kBit/s
Quality : High
Add ID3 tag : No
Command line compressor : C:\Program Files (x86)\Exact Audio Copy\Flac\flac.exe
Additional command line options : -8 -V -T "COMMENT=ripped by DrStandBy special for new-team.org" -T "ARTIST=%artist%" -T "TITLE=%title%" -T "ALBUM=%albumtitle%" -T "DATE=%year%" -T "TRACKNUMBER=%tracknr%" -T "GENRE=%genre%" %source%


TOC of the extracted CD

Track | Start | Length | Start sector | End sector
––––––––––––––––––––––––––––-
1 | 0:00.00 | 5:02.67 | 0 | 22716
2 | 5:02.67 | 4:10.42 | 22717 | 41508
3 | 9:13.34 | 3:45.05 | 41509 | 58388
4 | 12:58.39 | 5:35.05 | 58389 | 83518
5 | 18:33.44 | 4:04.42 | 83519 | 101860
6 | 22:38.11 | 5:02.05 | 101861 | 124515
7 | 27:40.16 | 3:57.11 | 124516 | 142301
8 | 31:37.27 | 4:11.72 | 142302 | 161198
9 | 35:49.24 | 5:15.65 | 161199 | 184888
10 | 41:05.14 | 3:50.05 | 184889 | 202143
11 | 44:55.19 | 4:44.05 | 202144 | 223448
12 | 49:39.24 | 3:24.28 | 223449 | 238776
13 | 53:03.52 | 4:26.04 | 238777 | 258730
14 | 57:29.56 | 4:20.54 | 258731 | 278284
15 | 61:50.35 | 4:42.48 | 278285 | 299482
16 | 66:33.08 | 2:40.71 | 299483 | 311553
17 | 69:14.04 | 3:05.05 | 311554 | 325433


Track 1

Filename I:\2017 - Gregorian - Masters Of Chant- The Platinum Collection (Shop24direct - EXKLUSIV Box-set)\1-01. Gregorian - Brothers in Arms.wav

Pre-gap length 0:00:02.00

Peak level 82.1 %
Extraction speed 1.9 X
Track quality 100.0 %
Test CRC B516F294
Copy CRC B516F294
Track not present in AccurateRip database
Copy OK

Track 2

Filename I:\2017 - Gregorian - Masters Of Chant- The Platinum Collection (Shop24direct - EXKLUSIV Box-set)\1-02. Gregorian - Scarborough Fair.wav

Pre-gap length 0:00:02.00

Peak level 68.1 %
Extraction speed 2.1 X
Track quality 100.0 %
Test CRC 467DE0DF
Copy CRC 467DE0DF
Track not present in AccurateRip database
Copy OK

Track 3

Filename I:\2017 - Gregorian - Masters Of Chant- The Platinum Collection (Shop24direct - EXKLUSIV Box-set)\1-03. Gregorian - When a Man Loves a Woman.wav

Pre-gap length 0:00:02.00

Peak level 63.0 %
Extraction speed 1.8 X
Track quality 99.9 %
Test CRC DBF67276
Copy CRC DBF67276
Track not present in AccurateRip database
Copy OK

Track 4

Filename I:\2017 - Gregorian - Masters Of Chant- The Platinum Collection (Shop24direct - EXKLUSIV Box-set)\1-04. Gregorian - Nothing Else Matters.wav

Pre-gap length 0:00:02.00

Peak level 94.3 %
Extraction speed 2.5 X
Track quality 100.0 %
Test CRC 5B88EABF
Copy CRC 5B88EABF
Track not present in AccurateRip database
Copy OK

Track 5

Filename I:\2017 - Gregorian - Masters Of Chant- The Platinum Collection (Shop24direct - EXKLUSIV Box-set)\1-05. Gregorian - Still Haven't Found What I'm Looking For.wav

Pre-gap length 0:00:02.00

Peak level 80.9 %
Extraction speed 2.5 X
Track quality 100.0 %
Test CRC 5F17F876
Copy CRC 5F17F876
Track not present in AccurateRip database
Copy OK

Track 6

Filename I:\2017 - Gregorian - Masters Of Chant- The Platinum Collection (Shop24direct - EXKLUSIV Box-set)\1-06. Gregorian - Hymn.wav

Pre-gap length 0:00:02.00

Peak level 69.9 %
Extraction speed 2.8 X
Track quality 100.0 %
Test CRC 1602C3E2
Copy CRC 1602C3E2
Track not present in AccurateRip database
Copy OK

Track 7

Filename I:\2017 - Gregorian - Masters Of Chant- The Platinum Collection (Shop24direct - EXKLUSIV Box-set)\1-07. Gregorian - Moment of Peace.wav

Pre-gap length 0:00:02.00

Peak level 55.7 %
Extraction speed 2.8 X
Track quality 100.0 %
Test CRC F866FB72
Copy CRC F866FB72
Track not present in AccurateRip database
Copy OK

Track 8

Filename I:\2017 - Gregorian - Masters Of Chant- The Platinum Collection (Shop24direct - EXKLUSIV Box-set)\1-08. Gregorian - Join Me.wav

Pre-gap length 0:00:02.00

Peak level 57.8 %
Extraction speed 2.4 X
Track quality 99.9 %
Test CRC F8EBD371
Copy CRC F8EBD371
Track not present in AccurateRip database
Copy OK

Track 9

Filename I:\2017 - Gregorian - Masters Of Chant- The Platinum Collection (Shop24direct - EXKLUSIV Box-set)\1-09. Gregorian - Be.wav

Pre-gap length 0:00:02.00

Peak level 70.7 %
Extraction speed 3.2 X
Track quality 100.0 %
Test CRC E76286E4
Copy CRC E76286E4
Track not present in AccurateRip database
Copy OK

Track 10

Filename I:\2017 - Gregorian - Masters Of Chant- The Platinum Collection (Shop24direct - EXKLUSIV Box-set)\1-10. Gregorian - Only You.wav

Pre-gap length 0:00:02.00

Peak level 68.3 %
Extraction speed 2.4 X
Track quality 99.9 %
Test CRC 431E4A5A
Copy CRC 431E4A5A
Track not present in AccurateRip database
Copy OK

Track 11

Filename I:\2017 - Gregorian - Masters Of Chant- The Platinum Collection (Shop24direct - EXKLUSIV Box-set)\1-11. Gregorian - Sacrifice.wav

Pre-gap length 0:00:02.00

Peak level 79.4 %
Extraction speed 3.4 X
Track quality 100.0 %
Test CRC 7B8E3DE6
Copy CRC 7B8E3DE6
Track not present in AccurateRip database
Copy OK

Track 12

Filename I:\2017 - Gregorian - Masters Of Chant- The Platinum Collection (Shop24direct - EXKLUSIV Box-set)\1-12. Gregorian - Fields of Gold.wav

Pre-gap length 0:00:02.00

Peak level 63.8 %
Extraction speed 3.3 X
Track quality 100.0 %
Test CRC 4C447B17
Copy CRC 4C447B17
Track not present in AccurateRip database
Copy OK

Track 13

Filename I:\2017 - Gregorian - Masters Of Chant- The Platinum Collection (Shop24direct - EXKLUSIV Box-set)\1-13. Gregorian - Clocks.wav

Pre-gap length 0:00:02.00

Peak level 58.2 %
Extraction speed 3.5 X
Track quality 100.0 %
Test CRC 5F782A32
Copy CRC 5F782A32
Track not present in AccurateRip database
Copy OK

Track 14

Filename I:\2017 - Gregorian - Masters Of Chant- The Platinum Collection (Shop24direct - EXKLUSIV Box-set)\1-14. Gregorian - The Gift.wav

Pre-gap length 0:00:02.00

Peak level 65.3 %
Extraction speed 3.6 X
Track quality 100.0 %
Test CRC D40BE851
Copy CRC D40BE851
Track not present in AccurateRip database
Copy OK

Track 15

Filename I:\2017 - Gregorian - Masters Of Chant- The Platinum Collection (Shop24direct - EXKLUSIV Box-set)\1-15. Gregorian - Angels.wav

Pre-gap length 0:00:02.00

Peak level 83.1 %
Extraction speed 3.7 X
Track quality 100.0 %
Test CRC F104D57A
Copy CRC F104D57A
Track not present in AccurateRip database
Copy OK

Track 16

Filename I:\2017 - Gregorian - Masters Of Chant- The Platinum Collection (Shop24direct - EXKLUSIV Box-set)\1-16. Gregorian - For No One.wav

Pre-gap length 0:00:02.00

Peak level 80.3 %
Extraction speed 3.5 X
Track quality 100.0 %
Test CRC ADE198FB
Copy CRC ADE198FB
Track not present in AccurateRip database
Copy OK

Track 17

Filename I:\2017 - Gregorian - Masters Of Chant- The Platinum Collection (Shop24direct - EXKLUSIV Box-set)\1-17. Gregorian - Babylon.wav

Pre-gap length 0:00:02.00

Peak level 73.1 %
Extraction speed 3.6 X
Track quality 100.0 %
Test CRC C48D1981
Copy CRC C48D1981
Track not present in AccurateRip database
Copy OK


None of the tracks are present in the AccurateRip database

No errors occurred

End of status report

–– CUETools DB Plugin V2.1.6

[CTDB TOCID: 02S4USr4930CD._L_L7FcNf8IHA-] found
Submit result: already submitted
Track | CTDB Status
1 | (6/6) Accurately ripped
2 | (6/6) Accurately ripped
3 | (6/6) Accurately ripped
4 | (6/6) Accurately ripped
5 | (6/6) Accurately ripped
6 | (6/6) Accurately ripped
7 | (6/6) Accurately ripped
8 | (6/6) Accurately ripped
9 | (6/6) Accurately ripped
10 | (6/6) Accurately ripped
11 | (6/6) Accurately ripped
12 | (6/6) Accurately ripped
13 | (6/6) Accurately ripped
14 | (6/6) Accurately ripped
15 | (6/6) Accurately ripped
16 | (6/6) Accurately ripped
17 | (6/6) Accurately ripped


==== Log checksum 193BA5EE4626BD5114967ED134E6632DE7664C97396DBBFA54B90472FC4A4C75 ====

[CUETools log; Date: 18.10.2019 20:15:46; Version: 2.1.4]
[CTDB TOCID: 02S4USr4930CD._L_L7FcNf8IHA-] found.
Track | CTDB Status
1 | (6/6) Accurately ripped
2 | (6/6) Accurately ripped
3 | (6/6) Accurately ripped
4 | (6/6) Accurately ripped
5 | (6/6) Accurately ripped
6 | (6/6) Accurately ripped
7 | (6/6) Accurately ripped
8 | (6/6) Accurately ripped
9 | (6/6) Accurately ripped
10 | (6/6) Accurately ripped
11 | (6/6) Accurately ripped
12 | (6/6) Accurately ripped
13 | (6/6) Accurately ripped
14 | (6/6) Accurately ripped
15 | (6/6) Accurately ripped
16 | (6/6) Accurately ripped
17 | (6/6) Accurately ripped
[AccurateRip ID: 002eac46-024b5d58-0110f311] disk not present in database.

Track Peak [ CRC32 ] [W/O NULL] [ LOG ]
– 94,3 [38243755] [A25DBD48]
01 82,1 [B516F294] [CD741746] CRC32
02 68,1 [467DE0DF] [CF0D1457] CRC32
03 63,0 [DBF67276] [33E811F7] CRC32
04 94,3 [5B88EABF] [4142DC48] CRC32
05 80,9 [5F17F876] [569E1A01] CRC32
06 69,9 [1602C3E2] [2F7E0183] CRC32
07 55,7 [F866FB72] [0417135F] CRC32
08 57,8 [F8EBD371] [864ABCE3] CRC32
09 70,7 [E76286E4] [3029F4A6] CRC32
10 68,3 [431E4A5A] [CC96F831] CRC32
11 79,4 [7B8E3DE6] [DD370B48] CRC32
12 63,8 [4C447B17] [3336A3F6] CRC32
13 58,2 [5F782A32] [4E29D0C8] CRC32
14 65,3 [D40BE851] [2FEB47C8] CRC32
15 83,1 [F104D57A] [31E301E6] CRC32
16 80,3 [ADE198FB] [81C1BEFD] CRC32
17 73,1 [C48D1981] [84897408] CRC32

Exact Audio Copy V1.3 from 2. September 2016

EAC extraction logfile from 5. October 2019, 22:42

Gregorian / Masters of Chant: The Platinum Collection

Used drive : ASUS DRW-24F1ST a Adapter: 1 ID: 0

Read mode : Secure
Utilize accurate stream : Yes
Defeat audio cache : Yes
Make use of C2 pointers : No

Read offset correction : 6
Overread into Lead-In and Lead-Out : No
Fill up missing offset samples with silence : Yes
Delete leading and trailing silent blocks : No
Null samples used in CRC calculations : Yes
Used interface : Native Win32 interface for Win NT & 2000
Gap handling : Appended to previous track

Used output format : User Defined Encoder
Selected bitrate : 896 kBit/s
Quality : High
Add ID3 tag : No
Command line compressor : C:\Program Files (x86)\Exact Audio Copy\Flac\flac.exe
Additional command line options : -8 -V -T "COMMENT=ripped by DrStandBy special for new-team.org" -T "ARTIST=%artist%" -T "TITLE=%title%" -T "ALBUM=%albumtitle%" -T "DATE=%year%" -T "TRACKNUMBER=%tracknr%" -T "GENRE=%genre%" %source%


TOC of the extracted CD

Track | Start | Length | Start sector | End sector
––––––––––––––––––––––––––––-
1 | 0:00.00 | 6:37.74 | 0 | 29848
2 | 6:37.74 | 3:07.42 | 29849 | 43915
3 | 9:45.41 | 3:40.42 | 43916 | 60457
4 | 13:26.08 | 5:30.43 | 60458 | 85250
5 | 18:56.51 | 5:01.39 | 85251 | 107864
6 | 23:58.15 | 4:24.21 | 107865 | 127685
7 | 28:22.36 | 5:28.21 | 127686 | 152306
8 | 33:50.57 | 4:20.69 | 152307 | 171875
9 | 38:11.51 | 4:12.15 | 171876 | 190790
10 | 42:23.66 | 4:36.48 | 190791 | 211538
11 | 47:00.39 | 4:09.61 | 211539 | 230274
12 | 51:10.25 | 4:24.05 | 230275 | 250079
13 | 55:34.30 | 4:07.02 | 250080 | 268606
14 | 59:41.32 | 4:35.53 | 268607 | 289284
15 | 64:17.10 | 4:36.65 | 289285 | 310049
16 | 68:54.00 | 4:24.51 | 310050 | 329900
17 | 73:18.51 | 4:05.52 | 329901 | 348327


Track 1

Filename I:\2017 - Gregorian - Masters Of Chant- The Platinum Collection (Shop24direct - EXKLUSIV Box-set)\2-01. Gregorian - Kashmir.wav

Pre-gap length 0:00:02.00

Peak level 51.0 %
Extraction speed 2.1 X
Track quality 100.0 %
Test CRC E93C51FB
Copy CRC E93C51FB
Track not present in AccurateRip database
Copy OK

Track 2

Filename I:\2017 - Gregorian - Masters Of Chant- The Platinum Collection (Shop24direct - EXKLUSIV Box-set)\2-02. Gregorian - Sebastian.wav

Pre-gap length 0:00:02.00

Peak level 95.9 %
Extraction speed 1.7 X
Track quality 99.9 %
Test CRC 38FE8DE1
Copy CRC 38FE8DE1
Track not present in AccurateRip database
Copy OK

Track 3

Filename I:\2017 - Gregorian - Masters Of Chant- The Platinum Collection (Shop24direct - EXKLUSIV Box-set)\2-03. Gregorian - Bonny Portmore.wav

Pre-gap length 0:00:02.00

Peak level 69.1 %
Extraction speed 2.3 X
Track quality 100.0 %
Test CRC 692F9FDD
Copy CRC 692F9FDD
Track not present in AccurateRip database
Copy OK

Track 4

Filename I:\2017 - Gregorian - Masters Of Chant- The Platinum Collection (Shop24direct - EXKLUSIV Box-set)\2-04. Gregorian - The Carpet Crawlers.wav

Pre-gap length 0:00:02.00

Peak level 58.6 %
Extraction speed 2.6 X
Track quality 100.0 %
Test CRC 1F4A1FA5
Copy CRC 1F4A1FA5
Track not present in AccurateRip database
Copy OK

Track 5

Filename I:\2017 - Gregorian - Masters Of Chant- The Platinum Collection (Shop24direct - EXKLUSIV Box-set)\2-05. Gregorian - One.wav

Pre-gap length 0:00:02.00

Peak level 59.6 %
Extraction speed 2.8 X
Track quality 100.0 %
Test CRC AF615F0D
Copy CRC AF615F0D
Track not present in AccurateRip database
Copy OK

Track 6

Filename I:\2017 - Gregorian - Masters Of Chant- The Platinum Collection (Shop24direct - EXKLUSIV Box-set)\2-06. Gregorian - Molly Ban.wav

Pre-gap length 0:00:02.00

Peak level 67.8 %
Extraction speed 2.3 X
Track quality 99.9 %
Test CRC 7A35E3F5
Copy CRC 7A35E3F5
Track not present in AccurateRip database
Copy OK

Track 7

Filename I:\2017 - Gregorian - Masters Of Chant- The Platinum Collection (Shop24direct - EXKLUSIV Box-set)\2-07. Gregorian - Silent Lucidity.wav

Pre-gap length 0:00:02.00

Peak level 67.1 %
Extraction speed 3.1 X
Track quality 100.0 %
Test CRC 0B7ED19B
Copy CRC 0B7ED19B
Track not present in AccurateRip database
Copy OK

Track 8

Filename I:\2017 - Gregorian - Masters Of Chant- The Platinum Collection (Shop24direct - EXKLUSIV Box-set)\2-08. Gregorian - Stop Crying Your Heart Out.wav

Pre-gap length 0:00:02.00

Peak level 70.6 %
Extraction speed 2.5 X
Track quality 99.9 %
Test CRC 3AE8921B
Copy CRC 3AE8921B
Track not present in AccurateRip database
Copy OK

Track 9

Filename I:\2017 - Gregorian - Masters Of Chant- The Platinum Collection (Shop24direct - EXKLUSIV Box-set)\2-09. Gregorian - The Circle.wav

Pre-gap length 0:00:02.00

Peak level 63.0 %
Extraction speed 3.2 X
Track quality 100.0 %
Test CRC 6C672761
Copy CRC 6C672761
Track not present in AccurateRip database
Copy OK

Track 10

Filename I:\2017 - Gregorian - Masters Of Chant- The Platinum Collection (Shop24direct - EXKLUSIV Box-set)\2-10. Gregorian - Boulevard of Broken Dreams.wav

Pre-gap length 0:00:02.00

Peak level 63.6 %
Extraction speed 3.4 X
Track quality 100.0 %
Test CRC 7E1A4256
Copy CRC 7E1A4256
Track not present in AccurateRip database
Copy OK

Track 11

Filename I:\2017 - Gregorian - Masters Of Chant- The Platinum Collection (Shop24direct - EXKLUSIV Box-set)\2-11. Gregorian - Giide Me God.wav

Pre-gap length 0:00:02.00

Peak level 62.3 %
Extraction speed 3.5 X
Track quality 100.0 %
Test CRC 14D95773
Copy CRC 14D95773
Track not present in AccurateRip database
Copy OK

Track 12

Filename I:\2017 - Gregorian - Masters Of Chant- The Platinum Collection (Shop24direct - EXKLUSIV Box-set)\2-12. Gregorian - One of Us.wav

Pre-gap length 0:00:02.00

Peak level 63.0 %
Extraction speed 3.6 X
Track quality 100.0 %
Test CRC F3EE17D4
Copy CRC F3EE17D4
Track not present in AccurateRip database
Copy OK

Track 13

Filename I:\2017 - Gregorian - Masters Of Chant- The Platinum Collection (Shop24direct - EXKLUSIV Box-set)\2-13. Gregorian - A Weakened Soul.wav

Pre-gap length 0:00:02.00

Peak level 75.8 %
Extraction speed 3.6 X
Track quality 100.0 %
Test CRC B05D0BE2
Copy CRC B05D0BE2
Track not present in AccurateRip database
Copy OK

Track 14

Filename I:\2017 - Gregorian - Masters Of Chant- The Platinum Collection (Shop24direct - EXKLUSIV Box-set)\2-14. Gregorian - Believe In Me.wav

Pre-gap length 0:00:02.00

Peak level 67.6 %
Extraction speed 3.8 X
Track quality 100.0 %
Test CRC 2EFFF251
Copy CRC 2EFFF251
Track not present in AccurateRip database
Copy OK

Track 15

Filename I:\2017 - Gregorian - Masters Of Chant- The Platinum Collection (Shop24direct - EXKLUSIV Box-set)\2-15. Gregorian - Hide And Seek.wav

Pre-gap length 0:00:02.00

Peak level 76.7 %
Extraction speed 2.9 X
Track quality 99.9 %
Test CRC 981E02A9
Copy CRC 981E02A9
Track not present in AccurateRip database
Copy OK

Track 16

Filename I:\2017 - Gregorian - Masters Of Chant- The Platinum Collection (Shop24direct - EXKLUSIV Box-set)\2-16. Gregorian - Vienna.wav

Pre-gap length 0:00:02.00

Peak level 86.9 %
Extraction speed 4.0 X
Track quality 100.0 %
Test CRC 1F674599
Copy CRC 1F674599
Track not present in AccurateRip database
Copy OK

Track 17

Filename I:\2017 - Gregorian - Masters Of Chant- The Platinum Collection (Shop24direct - EXKLUSIV Box-set)\2-17. Gregorian - Greensleeves.wav

Pre-gap length 0:00:02.00

Peak level 83.1 %
Extraction speed 2.8 X
Track quality 99.9 %
Test CRC 19E070A4
Copy CRC 19E070A4
Track not present in AccurateRip database
Copy OK


None of the tracks are present in the AccurateRip database

No errors occurred

End of status report

–– CUETools DB Plugin V2.1.6

[CTDB TOCID: cSmx4jiLPOEeApNb.XReI9tJpDk-] found
Submit result: cSmx4jiLPOEeApNb.XReI9tJpDk- has been confirmed
Track | CTDB Status
1 | (5/5) Accurately ripped
2 | (5/5) Accurately ripped
3 | (5/5) Accurately ripped
4 | (5/5) Accurately ripped
5 | (5/5) Accurately ripped
6 | (5/5) Accurately ripped
7 | (5/5) Accurately ripped
8 | (5/5) Accurately ripped
9 | (5/5) Accurately ripped
10 | (5/5) Accurately ripped
11 | (5/5) Accurately ripped
12 | (5/5) Accurately ripped
13 | (5/5) Accurately ripped
14 | (5/5) Accurately ripped
15 | (5/5) Accurately ripped
16 | (5/5) Accurately ripped
17 | (5/5) Accurately ripped


==== Log checksum F8E0ACE059AE0E69F3F16B2FB18E109CDFDD91813879A2E2C048AFD8A737313C ====

[CUETools log; Date: 18.10.2019 20:16:16; Version: 2.1.4]
[CTDB TOCID: cSmx4jiLPOEeApNb.XReI9tJpDk-] found.
Track | CTDB Status
1 | (6/6) Accurately ripped
2 | (6/6) Accurately ripped
3 | (6/6) Accurately ripped
4 | (6/6) Accurately ripped
5 | (6/6) Accurately ripped
6 | (6/6) Accurately ripped
7 | (6/6) Accurately ripped
8 | (6/6) Accurately ripped
9 | (6/6) Accurately ripped
10 | (6/6) Accurately ripped
11 | (6/6) Accurately ripped
12 | (6/6) Accurately ripped
13 | (6/6) Accurately ripped
14 | (6/6) Accurately ripped
15 | (6/6) Accurately ripped
16 | (6/6) Accurately ripped
17 | (6/6) Accurately ripped
[AccurateRip ID: 0030f380-0267c02f-ef122411] disk not present in database.

Track Peak [ CRC32 ] [W/O NULL] [ LOG ]
– 95,9 [5743ED00] [6931F81F]
01 51,0 [E93C51FB] [BCDC07AB] CRC32
02 95,9 [38FE8DE1] [AF42BF47] CRC32
03 69,1 [692F9FDD] [85348F06] CRC32
04 58,6 [1F4A1FA5] [9C1416B8] CRC32
05 59,6 [AF615F0D] [3A6024C9] CRC32
06 67,8 [7A35E3F5] [DA47AB7A] CRC32
07 67,1 [0B7ED19B] [27D9D8F7] CRC32
08 70,6 [3AE8921B] [DFD878C4] CRC32
09 63,0 [6C672761] [488B7BB0] CRC32
10 63,6 [7E1A4256] [16498E82] CRC32
11 62,3 [14D95773] [547DA4D9] CRC32
12 63,0 [F3EE17D4] [41161B11] CRC32
13 75,8 [B05D0BE2] [BC223508] CRC32
14 67,6 [2EFFF251] [28EE40C2] CRC32
15 76,7 [981E02A9] [2C8DEE45] CRC32
16 86,9 [1F674599] [1DCDA23B] CRC32
17 83,1 [19E070A4] [DA3364F7] CRC32

Exact Audio Copy V1.3 from 2. September 2016

EAC extraction logfile from 6. October 2019, 19:02

Gregorian / Masters of Chant: The Platinum Collection

Used drive : ASUS DRW-24F1ST a Adapter: 1 ID: 0

Read mode : Secure
Utilize accurate stream : Yes
Defeat audio cache : Yes
Make use of C2 pointers : No

Read offset correction : 6
Overread into Lead-In and Lead-Out : No
Fill up missing offset samples with silence : Yes
Delete leading and trailing silent blocks : No
Null samples used in CRC calculations : Yes
Used interface : Native Win32 interface for Win NT & 2000
Gap handling : Appended to previous track

Used output format : User Defined Encoder
Selected bitrate : 896 kBit/s
Quality : High
Add ID3 tag : No
Command line compressor : C:\Program Files (x86)\Exact Audio Copy\Flac\flac.exe
Additional command line options : -8 -V -T "COMMENT=ripped by DrStandBy special for new-team.org" -T "ARTIST=%artist%" -T "TITLE=%title%" -T "ALBUM=%albumtitle%" -T "DATE=%year%" -T "TRACKNUMBER=%tracknr%" -T "GENRE=%genre%" %source%


TOC of the extracted CD

Track | Start | Length | Start sector | End sector
––––––––––––––––––––––––––––-
1 | 0:00.00 | 4:15.23 | 0 | 19147
2 | 4:15.23 | 4:05.42 | 19148 | 37564
3 | 8:20.65 | 4:12.40 | 37565 | 56504
4 | 12:33.30 | 3:08.44 | 56505 | 70648
5 | 15:41.74 | 4:30.14 | 70649 | 90912
6 | 20:12.13 | 4:17.36 | 90913 | 110223
7 | 24:29.49 | 4:32.47 | 110224 | 130670
8 | 29:02.21 | 5:06.40 | 130671 | 153660
9 | 34:08.61 | 4:45.37 | 153661 | 175072
10 | 38:54.23 | 3:53.70 | 175073 | 192617
11 | 42:48.18 | 4:23.58 | 192618 | 212400
12 | 47:12.01 | 3:51.49 | 212401 | 229774
13 | 51:03.50 | 4:24.06 | 229775 | 249580
14 | 55:27.56 | 4:12.05 | 249581 | 268485
15 | 59:39.61 | 3:22.05 | 268486 | 283640
16 | 63:01.66 | 5:01.49 | 283641 | 306264
17 | 68:03.40 | 4:47.05 | 306265 | 327794


Track 1

Filename I:\2017 - Gregorian - Masters Of Chant- The Platinum Collection (Shop24direct - EXKLUSIV Box-set)\3-01. Gregorian - Child in Time.wav

Pre-gap length 0:00:02.00

Peak level 72.4 %
Extraction speed 1.6 X
Track quality 99.9 %
Test CRC 5D37F3E1
Copy CRC 5D37F3E1
Track not present in AccurateRip database
Copy OK

Track 2

Filename I:\2017 - Gregorian - Masters Of Chant- The Platinum Collection (Shop24direct - EXKLUSIV Box-set)\3-02. Gregorian - Before the Dawn.wav

Pre-gap length 0:00:02.00

Peak level 81.2 %
Extraction speed 2.0 X
Track quality 100.0 %
Test CRC 131B9D1B
Copy CRC 131B9D1B
Track not present in AccurateRip database
Copy OK

Track 3

Filename I:\2017 - Gregorian - Masters Of Chant- The Platinum Collection (Shop24direct - EXKLUSIV Box-set)\3-03. Gregorian - Evening Falls.wav

Pre-gap length 0:00:02.00

Peak level 89.1 %
Extraction speed 2.2 X
Track quality 100.0 %
Test CRC A3271ADA
Copy CRC A3271ADA
Track not present in AccurateRip database
Copy OK

Track 4

Filename I:\2017 - Gregorian - Masters Of Chant- The Platinum Collection (Shop24direct - EXKLUSIV Box-set)\3-04. Gregorian - Arrival.wav

Pre-gap length 0:00:02.00

Peak level 77.4 %
Extraction speed 1.8 X
Track quality 99.9 %
Test CRC 549E2786
Copy CRC 549E2786
Track not present in AccurateRip database
Copy OK

Track 5

Filename I:\2017 - Gregorian - Masters Of Chant- The Platinum Collection (Shop24direct - EXKLUSIV Box-set)\3-05. Gregorian - Mercy Street.wav

Pre-gap length 0:00:02.00

Peak level 80.7 %
Extraction speed 2.5 X
Track quality 100.0 %
Test CRC C918F893
Copy CRC C918F893
Track not present in AccurateRip database
Copy OK

Track 6

Filename I:\2017 - Gregorian - Masters Of Chant- The Platinum Collection (Shop24direct - EXKLUSIV Box-set)\3-06. Gregorian - Missing.wav

Pre-gap length 0:00:02.00

Peak level 81.6 %
Extraction speed 2.6 X
Track quality 100.0 %
Test CRC EB4A8DCB
Copy CRC EB4A8DCB
Track not present in AccurateRip database
Copy OK

Track 7

Filename I:\2017 - Gregorian - Masters Of Chant- The Platinum Collection (Shop24direct - EXKLUSIV Box-set)\3-07. Gregorian - Forever Young.wav

Pre-gap length 0:00:02.00

Peak level 84.5 %
Extraction speed 2.8 X
Track quality 100.0 %
Test CRC F278EA1D
Copy CRC F278EA1D
Track not present in AccurateRip database
Copy OK

Track 8

Filename I:\2017 - Gregorian - Masters Of Chant- The Platinum Collection (Shop24direct - EXKLUSIV Box-set)\3-08. Gregorian - Sweet Child of Mine.wav

Pre-gap length 0:00:02.00

Peak level 74.5 %
Extraction speed 2.9 X
Track quality 100.0 %
Test CRC C8C97B3B
Copy CRC C8C97B3B
Track not present in AccurateRip database
Copy OK

Track 9

Filename I:\2017 - Gregorian - Masters Of Chant- The Platinum Collection (Shop24direct - EXKLUSIV Box-set)\3-09. Gregorian - Running Up that Hill.wav

Pre-gap length 0:00:02.00

Peak level 77.2 %
Extraction speed 2.5 X
Track quality 99.9 %
Test CRC 2D8A81CF
Copy CRC 2D8A81CF
Track not present in AccurateRip database
Copy OK

Track 10

Filename I:\2017 - Gregorian - Masters Of Chant- The Platinum Collection (Shop24direct - EXKLUSIV Box-set)\3-10. Gregorian - Who Wants to Live Forever.wav

Pre-gap length 0:00:02.00

Peak level 95.3 %
Extraction speed 3.1 X
Track quality 100.0 %
Test CRC B001C532
Copy CRC B001C532
Track not present in AccurateRip database
Copy OK

Track 11

Filename I:\2017 - Gregorian - Masters Of Chant- The Platinum Collection (Shop24direct - EXKLUSIV Box-set)\3-11. Gregorian - It Will Be Forgiven.wav

Pre-gap length 0:00:02.00

Peak level 69.3 %
Extraction speed 3.3 X
Track quality 100.0 %
Test CRC 3A8DE7A5
Copy CRC 3A8DE7A5
Track not present in AccurateRip database
Copy OK

Track 12

Filename I:\2017 - Gregorian - Masters Of Chant- The Platinum Collection (Shop24direct - EXKLUSIV Box-set)\3-12. Gregorian - Crazy Crazy Nights.wav

Pre-gap length 0:00:02.00

Peak level 82.7 %
Extraction speed 3.3 X
Track quality 100.0 %
Test CRC 50703198
Copy CRC 50703198
Track not present in AccurateRip database
Copy OK

Track 13

Filename I:\2017 - Gregorian - Masters Of Chant- The Platinum Collection (Shop24direct - EXKLUSIV Box-set)\3-13. Gregorian - Lucky Man.wav

Pre-gap length 0:00:02.00

Peak level 86.1 %
Extraction speed 3.5 X
Track quality 100.0 %
Test CRC BDBDAEDA
Copy CRC BDBDAEDA
Track not present in AccurateRip database
Copy OK

Track 14

Filename I:\2017 - Gregorian - Masters Of Chant- The Platinum Collection (Shop24direct - EXKLUSIV Box-set)\3-14. Gregorian - Maid of Orleans.wav

Pre-gap length 0:00:02.00

Peak level 92.2 %
Extraction speed 3.6 X
Track quality 100.0 %
Test CRC 8DCC9223
Copy CRC 8DCC9223
Track not present in AccurateRip database
Copy OK

Track 15

Filename I:\2017 - Gregorian - Masters Of Chant- The Platinum Collection (Shop24direct - EXKLUSIV Box-set)\3-15. Gregorian - Blue Monday.wav

Pre-gap length 0:00:02.00

Peak level 98.8 %
Extraction speed 3.5 X
Track quality 100.0 %
Test CRC 8C6136C2
Copy CRC 8C6136C2
Track not present in AccurateRip database
Copy OK

Track 16

Filename I:\2017 - Gregorian - Masters Of Chant- The Platinum Collection (Shop24direct - EXKLUSIV Box-set)\3-16. Gregorian - I'll Find My Way Home.wav

Pre-gap length 0:00:02.00

Peak level 85.1 %
Extraction speed 3.8 X
Track quality 100.0 %
Test CRC 91B4E1D3
Copy CRC 91B4E1D3
Track not present in AccurateRip database
Copy OK

Track 17

Filename I:\2017 - Gregorian - Masters Of Chant- The Platinum Collection (Shop24direct - EXKLUSIV Box-set)\3-17. Gregorian - Everybody Gotta Learn Sometimes.wav

Pre-gap length 0:00:02.00

Peak level 77.6 %
Extraction speed 3.9 X
Track quality 100.0 %
Test CRC E8CA7FB7
Copy CRC E8CA7FB7
Track not present in AccurateRip database
Copy OK


None of the tracks are present in the AccurateRip database

No errors occurred

End of status report

–– CUETools DB Plugin V2.1.6

[CTDB TOCID: r76ppDP7vAwDHs1s0uP_RPNMVcE-] found
Submit result: r76ppDP7vAwDHs1s0uP_RPNMVcE- has been confirmed
Track | CTDB Status
1 | (3/3) Accurately ripped
2 | (3/3) Accurately ripped
3 | (3/3) Accurately ripped
4 | (3/3) Accurately ripped
5 | (3/3) Accurately ripped
6 | (3/3) Accurately ripped
7 | (3/3) Accurately ripped
8 | (3/3) Accurately ripped
9 | (3/3) Accurately ripped
10 | (3/3) Accurately ripped
11 | (3/3) Accurately ripped
12 | (3/3) Accurately ripped
13 | (3/3) Accurately ripped
14 | (3/3) Accurately ripped
15 | (3/3) Accurately ripped
16 | (3/3) Accurately ripped
17 | (3/3) Accurately ripped


==== Log checksum 8D531B49E3519E485EF5A1FD3E7B7734FE8DEFA720D4A8778B2264055D4B3DDF ====

[CUETools log; Date: 18.10.2019 20:16:43; Version: 2.1.4]
[CTDB TOCID: r76ppDP7vAwDHs1s0uP_RPNMVcE-] found.
Track | CTDB Status
1 | (4/4) Accurately ripped
2 | (4/4) Accurately ripped
3 | (4/4) Accurately ripped
4 | (4/4) Accurately ripped
5 | (4/4) Accurately ripped
6 | (4/4) Accurately ripped
7 | (4/4) Accurately ripped
8 | (4/4) Accurately ripped
9 | (4/4) Accurately ripped
10 | (4/4) Accurately ripped
11 | (4/4) Accurately ripped
12 | (4/4) Accurately ripped
13 | (4/4) Accurately ripped
14 | (4/4) Accurately ripped
15 | (4/4) Accurately ripped
16 | (4/4) Accurately ripped
17 | (4/4) Accurately ripped
[AccurateRip ID: 002c7a9b-02354cea-e7111211] disk not present in database.

Track Peak [ CRC32 ] [W/O NULL] [ LOG ]
– 98,8 [04B30EB4] [1BCDEC2B]
01 72,4 [5D37F3E1] [216EA4DD] CRC32
02 81,2 [131B9D1B] [1B1BA33D] CRC32
03 89,1 [A3271ADA] [2333F758] CRC32
04 77,4 [549E2786] [D7D63F6F] CRC32
05 80,7 [C918F893] [F07C3595] CRC32
06 81,6 [EB4A8DCB] [F13A5584] CRC32
07 84,5 [F278EA1D] [62C66B7D] CRC32
08 74,5 [C8C97B3B] [6C75D512] CRC32
09 77,2 [2D8A81CF] [9D3B1417] CRC32
10 95,2 [B001C532] [FE2B4023] CRC32
11 69,3 [3A8DE7A5] [E559F75D] CRC32
12 82,7 [50703198] [79F501F2] CRC32
13 86,1 [BDBDAEDA] [4216E8DA] CRC32
14 92,2 [8DCC9223] [E331F338] CRC32
15 98,8 [8C6136C2] [62B785CB] CRC32
16 85,1 [91B4E1D3] [3CEEC777] CRC32
17 77,6 [E8CA7FB7] [1324A2BC] CRC32

Exact Audio Copy V1.3 from 2. September 2016

EAC extraction logfile from 12. October 2019, 11:20

Gregorian / Masters of Chant: The Platinum Collection

Used drive : ASUS DRW-24F1ST a Adapter: 1 ID: 0

Read mode : Secure
Utilize accurate stream : Yes
Defeat audio cache : Yes
Make use of C2 pointers : No

Read offset correction : 6
Overread into Lead-In and Lead-Out : No
Fill up missing offset samples with silence : Yes
Delete leading and trailing silent blocks : No
Null samples used in CRC calculations : Yes
Used interface : Native Win32 interface for Win NT & 2000
Gap handling : Appended to previous track

Used output format : User Defined Encoder
Selected bitrate : 896 kBit/s
Quality : High
Add ID3 tag : No
Command line compressor : C:\Program Files (x86)\Exact Audio Copy\Flac\flac.exe
Additional command line options : -8 -V -T "COMMENT=ripped by DrStandBy special for new-team.org" -T "ARTIST=%artist%" -T "TITLE=%title%" -T "ALBUM=%albumtitle%" -T "DATE=%year%" -T "TRACKNUMBER=%tracknr%" -T "GENRE=%genre%" %source%


TOC of the extracted CD

Track | Start | Length | Start sector | End sector
––––––––––––––––––––––––––––-
1 | 0:00.00 | 4:36.60 | 0 | 20759
2 | 4:36.60 | 4:59.42 | 20760 | 43226
3 | 9:36.27 | 5:05.42 | 43227 | 66143
4 | 14:41.69 | 4:04.42 | 66144 | 84485
5 | 18:46.36 | 4:52.05 | 84486 | 106390
6 | 23:38.41 | 4:22.42 | 106391 | 126082
7 | 28:01.08 | 4:04.05 | 126083 | 144387
8 | 32:05.13 | 4:40.42 | 144388 | 165429
9 | 36:45.55 | 3:20.05 | 165430 | 180434
10 | 40:05.60 | 3:49.65 | 180435 | 197674
11 | 43:55.50 | 3:48.69 | 197675 | 214843
12 | 47:44.44 | 3:23.52 | 214844 | 230120
13 | 51:08.21 | 5:59.71 | 230121 | 257116
14 | 57:08.17 | 4:42.05 | 257117 | 278271
15 | 61:50.22 | 5:01.14 | 278272 | 300860
16 | 66:51.36 | 4:27.17 | 300861 | 320902
17 | 71:18.53 | 5:18.62 | 320903 | 344814


Track 1

Filename I:\2017 - Gregorian - Masters Of Chant- The Platinum Collection (Shop24direct - EXKLUSIV Box-set)\4-01. Gregorian - Tears in Heaven.wav

Pre-gap length 0:00:02.00

Peak level 100.0 %
Extraction speed 2.0 X
Track quality 100.0 %
Test CRC 1F41200C
Copy CRC 1F41200C
Track not present in AccurateRip database
Copy OK

Track 2

Filename I:\2017 - Gregorian - Masters Of Chant- The Platinum Collection (Shop24direct - EXKLUSIV Box-set)\4-02. Gregorian - The First Time Ever I Saw Your Face.wav

Pre-gap length 0:00:02.00

Peak level 63.8 %
Extraction speed 2.2 X
Track quality 100.0 %
Test CRC 11FFF536
Copy CRC 11FFF536
Track not present in AccurateRip database
Copy OK

Track 3

Filename I:\2017 - Gregorian - Masters Of Chant- The Platinum Collection (Shop24direct - EXKLUSIV Box-set)\4-03. Gregorian - Heaven Can Wait.wav

Pre-gap length 0:00:02.00

Peak level 66.0 %
Extraction speed 2.4 X
Track quality 100.0 %
Test CRC 5DB1C56C
Copy CRC 5DB1C56C
Track not present in AccurateRip database
Copy OK

Track 4

Filename I:\2017 - Gregorian - Masters Of Chant- The Platinum Collection (Shop24direct - EXKLUSIV Box-set)\4-04. Gregorian - Still I'm Sad.wav

Pre-gap length 0:00:02.00

Peak level 88.7 %
Extraction speed 2.5 X
Track quality 100.0 %
Test CRC C6015868
Copy CRC C6015868
Track not present in AccurateRip database
Copy OK

Track 5

Filename I:\2017 - Gregorian - Masters Of Chant- The Platinum Collection (Shop24direct - EXKLUSIV Box-set)\4-05. Gregorian - Wicked Game.wav

Pre-gap length 0:00:02.00

Peak level 85.1 %
Extraction speed 2.7 X
Track quality 100.0 %
Test CRC 905F27E6
Copy CRC 905F27E6
Track not present in AccurateRip database
Copy OK

Track 6

Filename I:\2017 - Gregorian - Masters Of Chant- The Platinum Collection (Shop24direct - EXKLUSIV Box-set)\4-06. Gregorian - Wish You Were Here.wav

Pre-gap length 0:00:02.00

Peak level 69.9 %
Extraction speed 2.8 X
Track quality 100.0 %
Test CRC 1BCE66C2
Copy CRC 1BCE66C2
Track not present in AccurateRip database
Copy OK

Track 7

Filename I:\2017 - Gregorian - Masters Of Chant- The Platinum Collection (Shop24direct - EXKLUSIV Box-set)\4-07. Gregorian - Imagine.wav

Pre-gap length 0:00:02.00

Peak level 73.2 %
Extraction speed 2.9 X
Track quality 100.0 %
Test CRC A7E15241
Copy CRC A7E15241
Track not present in AccurateRip database
Copy OK

Track 8

Filename I:\2017 - Gregorian - Masters Of Chant- The Platinum Collection (Shop24direct - EXKLUSIV Box-set)\4-08. Gregorian - I Won't Hold You Back.wav

Pre-gap length 0:00:02.00

Peak level 81.2 %
Extraction speed 3.1 X
Track quality 100.0 %
Test CRC 0B6F671C
Copy CRC 0B6F671C
Track not present in AccurateRip database
Copy OK

Track 9

Filename I:\2017 - Gregorian - Masters Of Chant- The Platinum Collection (Shop24direct - EXKLUSIV Box-set)\4-09. Gregorian - World.wav

Pre-gap length 0:00:02.00

Peak level 85.1 %
Extraction speed 3.1 X
Track quality 100.0 %
Test CRC 2E122A1B
Copy CRC 2E122A1B
Track not present in AccurateRip database
Copy OK

Track 10

Filename I:\2017 - Gregorian - Masters Of Chant- The Platinum Collection (Shop24direct - EXKLUSIV Box-set)\4-10. Gregorian - Out of the Cold.wav

Pre-gap length 0:00:02.00

Peak level 77.6 %
Extraction speed 3.2 X
Track quality 100.0 %
Test CRC 6D976C35
Copy CRC 6D976C35
Track not present in AccurateRip database
Copy OK

Track 11

Filename I:\2017 - Gregorian - Masters Of Chant- The Platinum Collection (Shop24direct - EXKLUSIV Box-set)\4-11. Gregorian - We Love You.wav

Pre-gap length 0:00:02.00

Peak level 77.6 %
Extraction speed 3.3 X
Track quality 100.0 %
Test CRC 203EA89A
Copy CRC 203EA89A
Track not present in AccurateRip database
Copy OK

Track 12

Filename I:\2017 - Gregorian - Masters Of Chant- The Platinum Collection (Shop24direct - EXKLUSIV Box-set)\4-12. Gregorian - The Time Has Come.wav

Pre-gap length 0:00:02.00

Peak level 72.4 %
Extraction speed 3.4 X
Track quality 100.0 %
Test CRC CE686828
Copy CRC CE686828
Track not present in AccurateRip database
Copy OK

Track 13

Filename I:\2017 - Gregorian - Masters Of Chant- The Platinum Collection (Shop24direct - EXKLUSIV Box-set)\4-13. Gregorian - Ordinary World.wav

Pre-gap length 0:00:02.00

Peak level 85.1 %
Extraction speed 3.7 X
Track quality 100.0 %
Test CRC 43D3C6B5
Copy CRC 43D3C6B5
Track not present in AccurateRip database
Copy OK

Track 14

Filename I:\2017 - Gregorian - Masters Of Chant- The Platinum Collection (Shop24direct - EXKLUSIV Box-set)\4-14. Gregorian - In the Air Tonight.wav

Pre-gap length 0:00:02.00

Peak level 80.3 %
Extraction speed 3.8 X
Track quality 100.0 %
Test CRC 0428662D
Copy CRC 0428662D
Track not present in AccurateRip database
Copy OK

Track 15

Filename I:\2017 - Gregorian - Masters Of Chant- The Platinum Collection (Shop24direct - EXKLUSIV Box-set)\4-15. Gregorian - Losing My Religion.wav

Pre-gap length 0:00:02.00

Peak level 73.6 %
Extraction speed 3.9 X
Track quality 100.0 %
Test CRC 1DE6A019
Copy CRC 1DE6A019
Track not present in AccurateRip database
Copy OK

Track 16

Filename I:\2017 - Gregorian - Masters Of Chant- The Platinum Collection (Shop24direct - EXKLUSIV Box-set)\4-16. Gregorian - Mad World.wav

Pre-gap length 0:00:02.00

Peak level 68.3 %
Extraction speed 2.8 X
Track quality 99.9 %
Test CRC EE570F11
Copy CRC EE570F11
Track not present in AccurateRip database
Copy OK

Track 17

Filename I:\2017 - Gregorian - Masters Of Chant- The Platinum Collection (Shop24direct - EXKLUSIV Box-set)\4-17. Gregorian - Don't Give Up.wav

Pre-gap length 0:00:02.00

Peak level 82.3 %
Extraction speed 4.1 X
Track quality 100.0 %
Test CRC 5DBCACC8
Copy CRC 5DBCACC8
Track not present in AccurateRip database
Copy OK


None of the tracks are present in the AccurateRip database

No errors occurred

End of status report

–– CUETools DB Plugin V2.1.6

[CTDB TOCID: xakoSe0BQJJ92Lexm965EaJRJ2k-] found
Submit result: xakoSe0BQJJ92Lexm965EaJRJ2k- has been confirmed
Track | CTDB Status
1 | (5/5) Accurately ripped
2 | (5/5) Accurately ripped
3 | (5/5) Accurately ripped
4 | (5/5) Accurately ripped
5 | (5/5) Accurately ripped
6 | (5/5) Accurately ripped
7 | (5/5) Accurately ripped
8 | (5/5) Accurately ripped
9 | (5/5) Accurately ripped
10 | (5/5) Accurately ripped
11 | (5/5) Accurately ripped
12 | (5/5) Accurately ripped
13 | (5/5) Accurately ripped
14 | (5/5) Accurately ripped
15 | (5/5) Accurately ripped
16 | (5/5) Accurately ripped
17 | (5/5) Accurately ripped


==== Log checksum 6B5E14B3E909569DC9A65761EC447E89291B04C0BA5F78E77071DE79946B392B ====

[CUETools log; Date: 18.10.2019 20:17:10; Version: 2.1.4]
[CTDB TOCID: xakoSe0BQJJ92Lexm965EaJRJ2k-] found.
Track | CTDB Status
1 | (6/6) Accurately ripped
2 | (6/6) Accurately ripped
3 | (6/6) Accurately ripped
4 | (6/6) Accurately ripped
5 | (6/6) Accurately ripped
6 | (6/6) Accurately ripped
7 | (6/6) Accurately ripped
8 | (6/6) Accurately ripped
9 | (6/6) Accurately ripped
10 | (6/6) Accurately ripped
11 | (6/6) Accurately ripped
12 | (6/6) Accurately ripped
13 | (6/6) Accurately ripped
14 | (6/6) Accurately ripped
15 | (6/6) Accurately ripped
16 | (6/6) Accurately ripped
17 | (6/6) Accurately ripped
[AccurateRip ID: 002f06e0-02505cec-e911f511] disk not present in database.

Track Peak [ CRC32 ] [W/O NULL] [ LOG ]
– 100,0 [5F917666] [6B0E6708]
01 100,0 [1F41200C] [D5CAC958] CRC32
02 63,8 [11FFF536] [D154D44C] CRC32
03 66,0 [5DB1C56C] [56F12461] CRC32
04 88,7 [C6015868] [8607C21E] CRC32
05 85,1 [905F27E6] [E070AD03] CRC32
06 69,9 [1BCE66C2] [53CEA071] CRC32
07 73,2 [A7E15241] [0E2D802F] CRC32
08 81,2 [0B6F671C] [08A1E3EF] CRC32
09 85,1 [2E122A1B] [F5D407D7] CRC32
10 77,6 [6D976C35] [5E5E119E] CRC32
11 77,6 [203EA89A] [556690FB] CRC32
12 72,4 [CE686828] [41839685] CRC32
13 85,1 [43D3C6B5] [D5AB8700] CRC32
14 80,3 [0428662D] [8CF839E4] CRC32
15 73,6 [1DE6A019] [FE6800A1] CRC32
16 68,3 [EE570F11] [1ED7BD0F] CRC32
17 82,3 [5DBCACC8] [8D52270A] CRC32

Exact Audio Copy V1.3 from 2. September 2016

EAC extraction logfile from 12. October 2019, 12:22

Gregorian / Masters of Chant: The Platinum Collection

Used drive : ASUS DRW-24F1ST a Adapter: 1 ID: 0

Read mode : Secure
Utilize accurate stream : Yes
Defeat audio cache : Yes
Make use of C2 pointers : No

Read offset correction : 6
Overread into Lead-In and Lead-Out : No
Fill up missing offset samples with silence : Yes
Delete leading and trailing silent blocks : No
Null samples used in CRC calculations : Yes
Used interface : Native Win32 interface for Win NT & 2000
Gap handling : Appended to previous track

Used output format : User Defined Encoder
Selected bitrate : 896 kBit/s
Quality : High
Add ID3 tag : No
Command line compressor : C:\Program Files (x86)\Exact Audio Copy\Flac\flac.exe
Additional command line options : -8 -V -T "COMMENT=ripped by DrStandBy special for new-team.org" -T "ARTIST=%artist%" -T "TITLE=%title%" -T "ALBUM=%albumtitle%" -T "DATE=%year%" -T "TRACKNUMBER=%tracknr%" -T "GENRE=%genre%" %source%


TOC of the extracted CD

Track | Start | Length | Start sector | End sector
––––––––––––––––––––––––––––-
1 | 0:00.00 | 4:48.06 | 0 | 21605
2 | 4:48.06 | 4:45.27 | 21606 | 43007
3 | 9:33.33 | 4:56.69 | 43008 | 65276
4 | 14:30.27 | 5:36.03 | 65277 | 90479
5 | 20:06.30 | 4:08.47 | 90480 | 109126
6 | 24:15.02 | 4:43.59 | 109127 | 130410
7 | 28:58.61 | 5:00.44 | 130411 | 152954
8 | 33:59.30 | 4:35.44 | 152955 | 173623
9 | 38:34.74 | 4:21.14 | 173624 | 193212
10 | 42:56.13 | 5:49.33 | 193213 | 219420
11 | 48:45.46 | 4:08.30 | 219421 | 238050
12 | 52:54.01 | 4:27.60 | 238051 | 258135
13 | 57:21.61 | 3:39.07 | 258136 | 274567
14 | 61:00.68 | 3:36.05 | 274568 | 290772
15 | 64:36.73 | 3:49.62 | 290773 | 308009
16 | 68:26.60 | 3:42.05 | 308010 | 324664
17 | 72:08.65 | 4:04.57 | 324665 | 343021


Track 1

Filename I:\2017 - Gregorian - Masters Of Chant- The Platinum Collection (Shop24direct - EXKLUSIV Box-set)\5-01. Gregorian - Bridge Over Troubled Water.wav

Pre-gap length 0:00:02.00

Peak level 100.0 %
Extraction speed 1.9 X
Track quality 100.0 %
Test CRC 5C361E08
Copy CRC 5C361E08
Track not present in AccurateRip database
Copy OK

Track 2

Filename I:\2017 - Gregorian - Masters Of Chant- The Platinum Collection (Shop24direct - EXKLUSIV Box-set)\5-02. Gregorian - Heroes.wav

Pre-gap length 0:00:02.00

Peak level 96.9 %
Extraction speed 2.2 X
Track quality 100.0 %
Test CRC 3EB2C52E
Copy CRC 3EB2C52E
Track not present in AccurateRip database
Copy OK

Track 3

Filename I:\2017 - Gregorian - Masters Of Chant- The Platinum Collection (Shop24direct - EXKLUSIV Box-set)\5-03. Gregorian - Lady in Black.wav

Pre-gap length 0:00:02.00

Peak level 86.4 %
Extraction speed 2.4 X
Track quality 100.0 %
Test CRC 040FFB6E
Copy CRC 040FFB6E
Track not present in AccurateRip database
Copy OK

Track 4

Filename I:\2017 - Gregorian - Masters Of Chant- The Platinum Collection (Shop24direct - EXKLUSIV Box-set)\5-04. Gregorian - With or Without You.wav

Pre-gap length 0:00:02.00

Peak level 89.1 %
Extraction speed 2.6 X
Track quality 100.0 %
Test CRC 9967A38B
Copy CRC 9967A38B
Track not present in AccurateRip database
Copy OK

Track 5

Filename I:\2017 - Gregorian - Masters Of Chant- The Platinum Collection (Shop24direct - EXKLUSIV Box-set)\5-05. Gregorian - The Forest.wav

Pre-gap length 0:00:02.00

Peak level 79.4 %
Extraction speed 2.2 X
Track quality 99.9 %
Test CRC D79FE270
Copy CRC D79FE270
Track not present in AccurateRip database
Copy OK

Track 6

Filename I:\2017 - Gregorian - Masters Of Chant- The Platinum Collection (Shop24direct - EXKLUSIV Box-set)\5-06. Gregorian - Crying in the Rain.wav

Pre-gap length 0:00:02.00

Peak level 78.5 %
Extraction speed 2.8 X
Track quality 100.0 %
Test CRC 4986F615
Copy CRC 4986F615
Track not present in AccurateRip database
Copy OK

Track 7

Filename I:\2017 - Gregorian - Masters Of Chant- The Platinum Collection (Shop24direct - EXKLUSIV Box-set)\5-07. Gregorian - Fix You.wav

Pre-gap length 0:00:02.00

Peak level 81.2 %
Extraction speed 3.0 X
Track quality 100.0 %
Test CRC A6F9B382
Copy CRC A6F9B382
Track not present in AccurateRip database
Copy OK

Track 8

Filename I:\2017 - Gregorian - Masters Of Chant- The Platinum Collection (Shop24direct - EXKLUSIV Box-set)\5-08. Gregorian - Miracle of Love.wav

Pre-gap length 0:00:02.00

Peak level 67.6 %
Extraction speed 3.1 X
Track quality 100.0 %
Test CRC 20A1C796
Copy CRC 20A1C796
Track not present in AccurateRip database
Copy OK

Track 9

Filename I:\2017 - Gregorian - Masters Of Chant- The Platinum Collection (Shop24direct - EXKLUSIV Box-set)\5-09. Gregorian - Dreams.wav

Pre-gap length 0:00:02.00

Peak level 68.3 %
Extraction speed 3.2 X
Track quality 100.0 %
Test CRC FEF5923C
Copy CRC FEF5923C
Track not present in AccurateRip database
Copy OK

Track 10

Filename I:\2017 - Gregorian - Masters Of Chant- The Platinum Collection (Shop24direct - EXKLUSIV Box-set)\5-10. Gregorian - Meadows of Heaven.wav

Pre-gap length 0:00:02.00

Peak level 72.8 %
Extraction speed 3.5 X
Track quality 100.0 %
Test CRC AEF41DCE
Copy CRC AEF41DCE
Track not present in AccurateRip database
Copy OK

Track 11

Filename I:\2017 - Gregorian - Masters Of Chant- The Platinum Collection (Shop24direct - EXKLUSIV Box-set)\5-11. Gregorian - A Whiter Shade of Pale.wav

Pre-gap length 0:00:02.00

Peak level 77.9 %
Extraction speed 3.4 X
Track quality 100.0 %
Test CRC C9D3F7D5
Copy CRC C9D3F7D5
Track not present in AccurateRip database
Copy OK

Track 12

Filename I:\2017 - Gregorian - Masters Of Chant- The Platinum Collection (Shop24direct - EXKLUSIV Box-set)\5-12. Gregorian - Chasing Cars.wav

Pre-gap length 0:00:02.00

Peak level 79.0 %
Extraction speed 3.6 X
Track quality 100.0 %
Test CRC 648280C9
Copy CRC 648280C9
Track not present in AccurateRip database
Copy OK

Track 13

Filename I:\2017 - Gregorian - Masters Of Chant- The Platinum Collection (Shop24direct - EXKLUSIV Box-set)\5-13. Gregorian - A Face in the Crowd.wav

Pre-gap length 0:00:02.00

Peak level 65.4 %
Extraction speed 2.6 X
Track quality 99.9 %
Test CRC 4EEE834F
Copy CRC 4EEE834F
Track not present in AccurateRip database
Copy OK

Track 14

Filename I:\2017 - Gregorian - Masters Of Chant- The Platinum Collection (Shop24direct - EXKLUSIV Box-set)\5-14. Gregorian - The Sound of Silence.wav

Pre-gap length 0:00:02.00

Peak level 95.0 %
Extraction speed 3.6 X
Track quality 100.0 %
Test CRC 3D04F58D
Copy CRC 3D04F58D
Track not present in AccurateRip database
Copy OK

Track 15

Filename I:\2017 - Gregorian - Masters Of Chant- The Platinum Collection (Shop24direct - EXKLUSIV Box-set)\5-15. Gregorian - Blaspemous Rumors.wav

Pre-gap length 0:00:02.00

Peak level 98.8 %
Extraction speed 3.7 X
Track quality 100.0 %
Test CRC 317407A8
Copy CRC 317407A8
Track not present in AccurateRip database
Copy OK

Track 16

Filename I:\2017 - Gregorian - Masters Of Chant- The Platinum Collection (Shop24direct - EXKLUSIV Box-set)\5-16. Gregorian - Lady D'Arbanville.wav

Pre-gap length 0:00:02.00

Peak level 78.5 %
Extraction speed 2.6 X
Track quality 99.9 %
Test CRC AA132AEC
Copy CRC AA132AEC
Track not present in AccurateRip database
Copy OK

Track 17

Filename I:\2017 - Gregorian - Masters Of Chant- The Platinum Collection (Shop24direct - EXKLUSIV Box-set)\5-17. Gregorian - Sadness Pt.1.wav

Pre-gap length 0:00:02.00

Peak level 78.3 %
Extraction speed 3.9 X
Track quality 100.0 %
Test CRC 7F001E35
Copy CRC 7F001E35
Track not present in AccurateRip database
Copy OK


None of the tracks are present in the AccurateRip database

No errors occurred

End of status report

–– CUETools DB Plugin V2.1.6

[CTDB TOCID: GyWVKc44T9jtgY1GWTZvOXi9XYw-] found
Submit result: GyWVKc44T9jtgY1GWTZvOXi9XYw- has been confirmed
Track | CTDB Status
1 | (5/5) Accurately ripped
2 | (5/5) Accurately ripped
3 | (5/5) Accurately ripped
4 | (5/5) Accurately ripped
5 | (5/5) Accurately ripped
6 | (5/5) Accurately ripped
7 | (5/5) Accurately ripped
8 | (5/5) Accurately ripped
9 | (5/5) Accurately ripped
10 | (5/5) Accurately ripped
11 | (5/5) Accurately ripped
12 | (5/5) Accurately ripped
13 | (5/5) Accurately ripped
14 | (5/5) Accurately ripped
15 | (5/5) Accurately ripped
16 | (5/5) Accurately ripped
17 | (5/5) Accurately ripped


==== Log checksum D3E4FF983ACC3ED5132A682DF180AF0E6AE8755E63F1A130C4679B3D66786EEF ====

[CUETools log; Date: 18.10.2019 20:20:14; Version: 2.1.4]
[CTDB TOCID: GyWVKc44T9jtgY1GWTZvOXi9XYw-] found.
Track | CTDB Status
1 | (6/6) Accurately ripped
2 | (6/6) Accurately ripped
3 | (6/6) Accurately ripped
4 | (6/6) Accurately ripped
5 | (6/6) Accurately ripped
6 | (6/6) Accurately ripped
7 | (6/6) Accurately ripped
8 | (6/6) Accurately ripped
9 | (6/6) Accurately ripped
10 | (6/6) Accurately ripped
11 | (6/6) Accurately ripped
12 | (6/6) Accurately ripped
13 | (6/6) Accurately ripped
14 | (6/6) Accurately ripped
15 | (6/6) Accurately ripped
16 | (6/6) Accurately ripped
17 | (6/6) Accurately ripped
[AccurateRip ID: 003161fb-026be425-f511dd11] disk not present in database.

Track Peak [ CRC32 ] [W/O NULL] [ LOG ]
– 100,0 [60716DFB] [BD215EBA]
01 100,0 [5C361E08] [60AD31DF] CRC32
02 96,9 [3EB2C52E] [EC5145FA] CRC32
03 86,4 [040FFB6E] [1AEC995A] CRC32
04 89,1 [9967A38B] [ECF762AD] CRC32
05 79,4 [D79FE270] [67CAEF2E] CRC32
06 78,5 [4986F615] [734421A8] CRC32
07 81,2 [A6F9B382] [F4534C22] CRC32
08 67,6 [20A1C796] [5163201E] CRC32
09 68,3 [FEF5923C] [37D17709] CRC32
10 72,8 [AEF41DCE] [96A661E5] CRC32
11 77,9 [C9D3F7D5] [7612F2E5] CRC32
12 79,0 [648280C9] [F692EA97] CRC32
13 65,4 [4EEE834F] [6B6C5B41] CRC32
14 95,0 [3D04F58D] [D86E3A74] CRC32
15 98,8 [317407A8] [760166E9] CRC32
16 78,5 [AA132AEC] [12FCB6FB] CRC32
17 78,3 [7F001E35] [3DEE8C73] CRC32

Thanks to DrStandBy