Subcategories

Guitar Shorty - Albums Collection 2001-2010 (4CD) [Re-Up]

Posted By: Designol
Guitar Shorty - Albums Collection 2001-2010 (4CD) [Re-Up]

Guitar Shorty - Albums Collection 2001-2010 (4CD)
EAC | FLAC | Image (Cue&Log) ~ 1.5 Gb | Mp3 (CBR320) ~ 625 Mb | Scans included
Genre: Modern Electric Blues, West Coast Blues, Blues-Rock | Time: 03:20:12

When he's not turning somersaults, doing backward flips, and standing on his head – all while playing, of course – Guitar Shorty is prone to cutting loose with savagely slashing licks on his instrument. Live, he's simply amazing – and after some lean years, his latter-day albums for Black Top, Evidence, and Alligator have proven that all that energy translates vividly onto tape.

Born David Kearney on September 8, 1939, in Houston, TX, he started playing guitar at an early age. His early influences included fellow blues guitar slingers B.B. King, Guitar Slim, T-Bone Walker, and Earl Hooker. By the time he was 17, Kearney was already gigging steadily in Tampa, FL. One night, he was perched on the bandstand when he learned that the mysterious "Guitar Shorty" advertised on the club's marquee was none other than him! His penchant for stage gymnastics was inspired by the flamboyant Guitar Slim, whose wild antics are legendary. In 1957, Shorty cut his debut single, "You Don't Treat Me Right," for Chicago's Cobra Records under Willie Dixon's astute direction. Three superb 45s in 1959 for tiny Pull Records in Los Angeles (notably "Hard Life") rounded out Shorty's discography for quite a while. During the '60s, he married Jimi Hendrix's stepsister and lived in Seattle, where the rock guitar god caught Shorty's act (and presumably learned a thing or two about inciting a throng) whenever he came off the road. Shorty's career had its share of ups and downs – once he was reduced to competing on Chuck Barris' zany Gong Show, where he copped first prize for delivering "They Call Me Guitar Shorty" while balanced on his noggin.

Los Angeles had long since reclaimed Shorty by the time things started to blossom anew with the 1991 album My Way or the Highway for the British JSP logo (with guitarist Otis Grand in support). From there, Black Top signed Shorty; 1993's dazzling Topsy Turvy, 1995's Get Wise to Yourself, and 1998's Roll Over, Baby were the head-over-heels results. In 2001, the appropriately titled I Go Wild was released on the Evidence label, proving that Guitar Shorty had no intentions of slowing down, as he clearly remained a master showman and lively blues guitarist. Watch Your Back appeared in spring 2004. A single-disc overview of his career, The Best of Guitar Shorty, appeared from Shout! Factory in 2006, as well as a new studio album, We the People, from Alligator Records. A second Alligator release, Bare Knuckle, appeared early in 2010.

Bill Dahl, Allmusic.com

Guitar Shorty - Albums Collection 2001-2010 (4CD) [Re-Up]






Guitar Shorty - Albums Collection 2001-2010 (4CD) [Re-Up]

Guitar Shorty - I Go Wild! (2001)
EAC | FLAC | Image (Cue&Log) ~ 420 Mb | Mp3 (CBR320) ~ 185 Mb
Label: Evidence | # ECD 26119-2 | Time: 00:57:33 | Scans included

In his sixth decade of playing the blues, Guitar Shorty returns with the duly claimed I Go Wild. These 13 cuts cover gritty soul/blues the way Shorty would play 'em on any given Saturday night in any number of blues joints around the world. Shorty has not mellowed with age. One of the strong points of I Go Wild is Shorty's ability to translate the exhilaration and acrobatics (literally) of his live show into the studio. The showmanship of Shorty's mentor, Guitar Slim, and student, Jimi Hendrix, is evident. Needless to say, the 13 cuts provide matching passion and rambunctiousness. Jim Pugh's Hammond B-3 organ adds an extra dimension to the proceedings.

Al Campbell, Allmusic.com

Tracklist:

01. Loosen Up (03:39)
02. Coffee & Cigarettes (04:36)
03. Maybe She'll Miss Me (04:28)
04. If You Can't Lie No Better (03:48)
05. Just Warming Up (04:45)
06. Go Wild! (03:05)
07. Don't Stop (I Just Started) (03:43)
08. One & Only Man (04:47)
09. Life With You (04:01)
10. Lesson In Love (05:08)
11. Put It All In There (05:00)
12. In The Morning (04:13)
13. The Netherlands (06:13)


Exact Audio Copy V1.1 from 23. June 2015

Отчёт EAC об извлечении, выполненном 2. октября 2015, 21:18

Guitar Shorty / I Go Wild!

Дисковод: SONY CD-RW CRX230ED Adapter: 1 ID: 0

Режим чтения : Достоверность
Использование точного потока : Да
Отключение кэша аудио : Да
Использование указателей C2 : Нет

Коррекция смещения при чтении : 6
Способность читать области Lead-in и Lead-out : Нет
Заполнение пропущенных сэмплов тишиной : Да
Удаление блоков с тишиной в начале и конце : Нет
При вычислениях CRC использовались нулевые сэмплы : Да
Интерфейс : Встроенный Win32-интерфейс для Win NT/2000

Выходной формат : Внутренние WAV-операции
Формат сэмплов : 44.100 Гц; 16 бит; стерео


TOC извлечённого CD

Трек | Старт | Длительность | Начальный сектор | Конечный сектор
––––––––––––––––––––––––––––––––––-
1 | 0:00.00 | 3:39.57 | 0 | 16481
2 | 3:39.57 | 4:36.13 | 16482 | 37194
3 | 8:15.70 | 4:28.40 | 37195 | 57334
4 | 12:44.35 | 3:48.40 | 57335 | 74474
5 | 16:33.00 | 4:45.50 | 74475 | 95899
6 | 21:18.50 | 3:05.70 | 95900 | 109844
7 | 24:24.45 | 3:43.05 | 109845 | 126574
8 | 28:07.50 | 4:47.57 | 126575 | 148156
9 | 32:55.32 | 4:01.63 | 148157 | 166294
10 | 36:57.20 | 5:08.32 | 166295 | 189426
11 | 42:05.52 | 5:00.28 | 189427 | 211954
12 | 47:06.05 | 4:13.55 | 211955 | 230984
13 | 51:19.60 | 6:13.30 | 230985 | 258989


Характеристики диапазона извлечения и сообщения об ошибках

Выбранный диапазон

Имя файла F:\MusicCD\Torrent\Guitar Shorty\2001 - Guitar Shorty - I Go Wild!\Guitar Shorty - I Go Wild!.wav

Пиковый уровень 100.0 %
Скорость извлечения 7.8 X
Качество диапазона 100.0 %
CRC теста 8FE1DCBB
CRC копии 8FE1DCBB
Копирование… OK

Ошибок не произошло


AccurateRip: сводка

Трек 1 : извлечено точно (доверие 4) [D7ADD479] (AR v2)
Трек 2 : извлечено точно (доверие 4) [34DB463E] (AR v2)
Трек 3 : извлечено точно (доверие 4) [BAF6E73B] (AR v2)
Трек 4 : извлечено точно (доверие 4) [0E65889C] (AR v2)
Трек 5 : извлечено точно (доверие 4) [C7CBC026] (AR v2)
Трек 6 : извлечено точно (доверие 4) [3EC58A01] (AR v2)
Трек 7 : извлечено точно (доверие 4) [E20A85D3] (AR v2)
Трек 8 : извлечено точно (доверие 4) [D562E121] (AR v2)
Трек 9 : извлечено точно (доверие 4) [B43ACE74] (AR v2)
Трек 10 : извлечено точно (доверие 4) [7414871C] (AR v2)
Трек 11 : извлечено точно (доверие 4) [F0F00C09] (AR v2)
Трек 12 : извлечено точно (доверие 4) [FF5E1837] (AR v2)
Трек 13 : извлечено точно (доверие 4) [819DF65F] (AR v2)

Все треки извлечены точно

Конец отчёта

–– CUETools DB Plugin V2.1.6

[CTDB TOCID: oGVN5HQudlG2IdjhuZES_DhogZ8-] found
Submit result: oGVN5HQudlG2IdjhuZES_DhogZ8- has been confirmed
Track | CTDB Status
1 | (3/3) Accurately ripped
2 | (3/3) Accurately ripped
3 | (3/3) Accurately ripped
4 | (3/3) Accurately ripped
5 | (3/3) Accurately ripped
6 | (3/3) Accurately ripped
7 | (3/3) Accurately ripped
8 | (3/3) Accurately ripped
9 | (3/3) Accurately ripped
10 | (3/3) Accurately ripped
11 | (3/3) Accurately ripped
12 | (3/3) Accurately ripped
13 | (3/3) Accurately ripped


==== Контрольная сумма отчёта A62C9680EC7C50440FFBCEBE5FCC3479BB3890DDA4A2FC057ACEC62F6E93E91D ====

foobar2000 1.2 / Dynamic Range Meter 1.1.1
log date: 2015-10-03 14:56:59

––––––––––––––––––––––––––––––––––––––––
Analyzed: Guitar Shorty / I Go Wild!
––––––––––––––––––––––––––––––––––––––––

DR Peak RMS Duration Track
––––––––––––––––––––––––––––––––––––––––
DR9 0.00 dB -11.33 dB 3:40 01-Loosen Up
DR11 0.00 dB -12.17 dB 4:36 02-Coffee & Cigarettes
DR8 0.00 dB -9.15 dB 4:29 03-Maybe She'll Miss Me
DR9 -0.30 dB -10.20 dB 3:49 04-If You Can't Lie No Better
DR8 0.00 dB -10.66 dB 4:46 05-Just Warming Up
DR7 0.00 dB -8.97 dB 3:06 06-Go Wild!
DR9 0.00 dB -11.47 dB 3:43 07-Don't Stop (I Just Started)
DR10 0.00 dB -12.53 dB 4:48 08-One & Only Man
DR8 0.00 dB -9.81 dB 4:02 09-Life With You
DR9 0.00 dB -11.00 dB 5:08 10-Lesson In Love
DR9 0.00 dB -10.81 dB 5:00 11-Put It All In There
DR10 0.00 dB -11.91 dB 4:14 12-In The Morning
DR10 0.00 dB -11.40 dB 6:13 13-The Netherlands
––––––––––––––––––––––––––––––––––––––––

Number of tracks: 13
Official DR value: DR9

Samplerate: 44100 Hz
Channels: 2
Bits per sample: 16
Bitrate: 891 kbps
Codec: FLAC
================================================================================




Guitar Shorty - Albums Collection 2001-2010 (4CD) [Re-Up]

Guitar Shorty - Watch Your Back (2004)
EAC | FLAC | Image (Cue&Log) ~ 352 Mb | Mp3 (CBR320) ~ 133 Mb
Label: Alligator | # ALCD 4895 | Time: 00:42:19 | Scans included

"Paid my dues," repeats Guitar Shorty on "Old School," the opening track to his 2004 release, and that's no exaggeration. Although only his sixth album in a career that stretches back to the mid-'50s, Shorty, born David William Kearney, has been electrifying audiences with his guitar pyrotechnics (think Buddy Guy and Stevie Ray Vaughan) and on-stage gymnastics (think Nils Lofgren) since before Hendrix was sneaking into clubs to catch his act. But as he says in "Story of My Life," it's been a series of "tough breaks and bad decisions" before he has finally landed a high-profile shot at more visibility on Alligator, the foremost blues indie imprint. He meets the challenge with his most fiery and gutsy album yet, a tough and uncompromising slab of steely playing, no-nonsense singing, and solid songs. He's always been a gruff, fat-toned guitarist, but with no-frills production by pianist Jesse Harms (who also wrote and co-wrote five tunes), Shorty rips into these ten tracks sounding like he's young, hungry, and ready to explode. He machine guns into Elvis' "A Little Less Conversation" and Van Morrison's "I've Been Working" with an energy and intensity that nearly beat the originals, steamrolling through the solos like a major-league slugger swinging for the fences. The charging Bo Diddley beat of "Let My Guitar Do the Talking" places Shorty's style in that perfect combination of blues and rock, making it one of the album's most successful cuts. Between Shorty's sinewy guitar and a batch of blazing songs perfectly tailored to his rowdy approach, there isn't a weak track here. That makes Watch Your Back a welcome return for old fans and a perfect introduction for those new to Shorty's long career.

Review by Hal Horowitz, Allmusic.com

Tracklist:

01. Old School (03:59)
02. Story Of My Life (03:13)
03. I'm Gonna Leave You (05:44)
04. What She Don't Know (03:16)
05. I've Been Working (04:33)
06. Get Busy (03:41)
07. Let My Guitar Do The Talking (04:50)
08. It Ain't The Fall That Kills You (05:11)
09. A Little Less Conversation (04:04)
10. Right Tool For The Job (03:44)


Exact Audio Copy V1.1 from 23. June 2015

Отчёт EAC об извлечении, выполненном 4. июля 2015, 18:29

Guitar Shorty / Watch Your Back

Дисковод: SONY CD-RW CRX230ED Adapter: 1 ID: 0

Режим чтения : Достоверность
Использование точного потока : Да
Отключение кэша аудио : Да
Использование указателей C2 : Нет

Коррекция смещения при чтении : 6
Способность читать области Lead-in и Lead-out : Нет
Заполнение пропущенных сэмплов тишиной : Да
Удаление блоков с тишиной в начале и конце : Нет
При вычислениях CRC использовались нулевые сэмплы : Да
Интерфейс : Встроенный Win32-интерфейс для Win NT/2000

Выходной формат : Внутренние WAV-операции
Формат сэмплов : 44.100 Гц; 16 бит; стерео


TOC извлечённого CD

Трек | Старт | Длительность | Начальный сектор | Конечный сектор
––––––––––––––––––––––––––––––––––-
1 | 0:00.00 | 3:59.32 | 0 | 17956
2 | 3:59.32 | 3:13.18 | 17957 | 32449
3 | 7:12.50 | 5:44.66 | 32450 | 58315
4 | 12:57.41 | 3:16.07 | 58316 | 73022
5 | 16:13.48 | 4:33.38 | 73023 | 93535
6 | 20:47.11 | 3:41.28 | 93536 | 110138
7 | 24:28.39 | 4:50.24 | 110139 | 131912
8 | 29:18.63 | 5:11.73 | 131913 | 155310
9 | 34:30.61 | 4:04.12 | 155311 | 173622
10 | 38:34.73 | 3:44.17 | 173623 | 190439


Характеристики диапазона извлечения и сообщения об ошибках

Выбранный диапазон

Имя файла F:\MusicCD\Torrent\Guitar Shorty\Guitar Shorty - Watch Your Back\Guitar Shorty - Watch Your Back.wav

Пиковый уровень 96.6 %
Скорость извлечения 6.9 X
Качество диапазона 100.0 %
CRC теста A804C858
CRC копии A804C858
Копирование… OK

Ошибок не произошло


AccurateRip: сводка

Трек 1 : извлечено точно (доверие 15) [55F2D103] (AR v2)
Трек 2 : извлечено точно (доверие 15) [089AE2F2] (AR v2)
Трек 3 : извлечено точно (доверие 15) [CFA61B6D] (AR v2)
Трек 4 : извлечено точно (доверие 15) [570E77B0] (AR v2)
Трек 5 : извлечено точно (доверие 15) [201B0217] (AR v2)
Трек 6 : извлечено точно (доверие 15) [30DF332D] (AR v2)
Трек 7 : извлечено точно (доверие 15) [588EEB51] (AR v2)
Трек 8 : извлечено точно (доверие 15) [988D78A6] (AR v2)
Трек 9 : извлечено точно (доверие 15) [CFFE2490] (AR v2)
Трек 10 : извлечено точно (доверие 15) [6AE3C6F5] (AR v2)

Все треки извлечены точно

Конец отчёта

–– CUETools DB Plugin V2.1.6

[CTDB TOCID: Sht2j0ozeauS0PrRFM1g.boG8bY-] found
Submit result: Sht2j0ozeauS0PrRFM1g.boG8bY- has been confirmed
Track | CTDB Status
1 | (9/9) Accurately ripped
2 | (8/9) Accurately ripped
3 | (9/9) Accurately ripped
4 | (8/9) Accurately ripped
5 | (9/9) Accurately ripped
6 | (9/9) Accurately ripped
7 | (9/9) Accurately ripped
8 | (9/9) Accurately ripped
9 | (8/9) Accurately ripped
10 | (9/9) Accurately ripped


==== Контрольная сумма отчёта C66F87CEC56530CA06E3B1296C63BFAF91C5C1C57217D2D093866DF177A02E7C ====

foobar2000 1.2 / Dynamic Range Meter 1.1.1
log date: 2015-07-08 20:33:30

––––––––––––––––––––––––––––––––––––––––
Analyzed: Guitar Shorty / Watch Your Back
––––––––––––––––––––––––––––––––––––––––

DR Peak RMS Duration Track
––––––––––––––––––––––––––––––––––––––––
DR7 -0.31 dB -8.08 dB 3:59 01-Old School
DR7 -0.30 dB -9.73 dB 3:13 02-Story Of My Life
DR7 -0.51 dB -8.77 dB 5:45 03-I'm Gonna Leave You
DR7 -0.31 dB -8.70 dB 3:16 04-What She Don't Know
DR7 -0.31 dB -8.68 dB 4:34 05-I've Been Working
DR6 -0.31 dB -7.92 dB 3:41 06-Get Busy
DR7 -0.51 dB -8.51 dB 4:50 07-Let My Guitar Do The Talking
DR8 -0.31 dB -9.25 dB 5:12 08-It Ain't The Fall That Kills You
DR7 -0.31 dB -8.39 dB 4:04 09-A Little Less Conversation
DR7 -0.31 dB -8.38 dB 3:44 10-Right Tool For The Job
––––––––––––––––––––––––––––––––––––––––

Number of tracks: 10
Official DR value: DR7

Samplerate: 44100 Hz
Channels: 2
Bits per sample: 16
Bitrate: 1042 kbps
Codec: FLAC
================================================================================




Guitar Shorty - Albums Collection 2001-2010 (4CD) [Re-Up]

Guitar Shorty - We The People (2006)
EAC | FLAC | Image (Cue&Log) ~ 400 Mb | Mp3 (CBR320) ~ 159 Mb
Label: Alligator | # ALCD 4911 | Time: 00:50:29 | Scans included

Known for his dazzling stage show, which is highlighted by all manner of leaps, somersaults, and other assorted guitar-playing gymnastics, Guitar Shorty on disc is generally a poor substitute, but he still radiates tremendous energy on this set from Alligator Records. His guitar playing is rich, deep, and heavy as plutonium on these tracks; his vocals are strong and soulful, and there's little doubt that after nearly 50 years in the blues business Shorty is still going strong. Working with a hard blues-rock combo that features Jake Andrews on rhythm guitar, Wyzard on bass, John Thomas on keyboards, and Alvino Bennett on drums, Shorty roars through these cuts like a train at full steam, and he sounds confident and assured, a Texas blues man completely on top of his game. Highlights include a blistering "Runaway Train," the metaphor-drenched "Fine Cadillac," and two powerful and topical Guitar Shorty originals, "We the People" and "Cost of Livin'," both of which address the economic duress that still creates poverty in the U.S. in the 21st century. In all, We the People is nicely balanced between hard rocking party numbers, straight out blues pieces, and strong political statement, making it a timeless and completely current blues record.

Review by Steve Leggett, Allmusic.com

Tracklist:

01. We The People (04:20)
02. What Good Is Life? (04:04)
03. I Got Your Number (03:53)
04. Runaway Train (04:59)
05. Down That Road Again (04:57)
06. Fine Cadillac (05:51)
07. Can't Get Enough (04:24)
08. A Hurt So Old (03:56)
09. Who Needs It? (03:22)
10. Blues In My Blood (03:12)
11. Cost Of Livin' (04:10)
12. Sonic Boom (03:13)


Exact Audio Copy V1.1 from 23. June 2015

Отчёт EAC об извлечении, выполненном 4. июля 2015, 18:51

Guitar Shorty / We The People

Дисковод: SONY CD-RW CRX230ED Adapter: 1 ID: 0

Режим чтения : Достоверность
Использование точного потока : Да
Отключение кэша аудио : Да
Использование указателей C2 : Нет

Коррекция смещения при чтении : 6
Способность читать области Lead-in и Lead-out : Нет
Заполнение пропущенных сэмплов тишиной : Да
Удаление блоков с тишиной в начале и конце : Нет
При вычислениях CRC использовались нулевые сэмплы : Да
Интерфейс : Встроенный Win32-интерфейс для Win NT/2000

Выходной формат : Внутренние WAV-операции
Формат сэмплов : 44.100 Гц; 16 бит; стерео


TOC извлечённого CD

Трек | Старт | Длительность | Начальный сектор | Конечный сектор
––––––––––––––––––––––––––––––––––-
1 | 0:00.00 | 4:20.15 | 0 | 19514
2 | 4:20.15 | 4:04.64 | 19515 | 37878
3 | 8:25.04 | 3:53.49 | 37879 | 55402
4 | 12:18.53 | 4:59.42 | 55403 | 77869
5 | 17:18.20 | 4:57.71 | 77870 | 100215
6 | 22:16.16 | 5:51.33 | 100216 | 126573
7 | 28:07.49 | 4:24.10 | 126574 | 146383
8 | 32:31.59 | 3:56.57 | 146384 | 164140
9 | 36:28.41 | 3:22.66 | 164141 | 179356
10 | 39:51.32 | 3:12.55 | 179357 | 193811
11 | 43:04.12 | 4:10.72 | 193812 | 212633
12 | 47:15.09 | 3:13.62 | 212634 | 227170


Характеристики диапазона извлечения и сообщения об ошибках

Выбранный диапазон

Имя файла F:\MusicCD\Torrent\Guitar Shorty\Guitar Shorty - We The People\Guitar Shorty - We The People.wav

Пиковый уровень 96.6 %
Скорость извлечения 7.3 X
Качество диапазона 100.0 %
CRC теста 95DC9228
CRC копии 95DC9228
Копирование… OK

Ошибок не произошло


AccurateRip: сводка

Трек 1 : извлечено точно (доверие 12) [AB350656] (AR v2)
Трек 2 : извлечено точно (доверие 12) [DFD935ED] (AR v2)
Трек 3 : извлечено точно (доверие 12) [F2E8C270] (AR v2)
Трек 4 : извлечено точно (доверие 12) [6C750130] (AR v2)
Трек 5 : извлечено точно (доверие 12) [F1533AFD] (AR v2)
Трек 6 : извлечено точно (доверие 12) [0C32713A] (AR v2)
Трек 7 : извлечено точно (доверие 12) [F0814F97] (AR v2)
Трек 8 : извлечено точно (доверие 12) [502F4F65] (AR v2)
Трек 9 : извлечено точно (доверие 12) [BB88E947] (AR v2)
Трек 10 : извлечено точно (доверие 12) [7FB185E0] (AR v2)
Трек 11 : извлечено точно (доверие 12) [B9F156BF] (AR v2)
Трек 12 : извлечено точно (доверие 12) [E5343DB1] (AR v2)

Все треки извлечены точно

Конец отчёта

–– CUETools DB Plugin V2.1.6

[CTDB TOCID: 4FHs2QJ9gpygiB2d2oJACkup4uw-] found
Submit result: 4FHs2QJ9gpygiB2d2oJACkup4uw- has been confirmed
Track | CTDB Status
1 | (5/5) Accurately ripped
2 | (5/5) Accurately ripped
3 | (5/5) Accurately ripped
4 | (5/5) Accurately ripped
5 | (5/5) Accurately ripped
6 | (5/5) Accurately ripped
7 | (5/5) Accurately ripped
8 | (5/5) Accurately ripped
9 | (5/5) Accurately ripped
10 | (5/5) Accurately ripped
11 | (5/5) Accurately ripped
12 | (5/5) Accurately ripped


==== Контрольная сумма отчёта A7ED2CEF0F8468B37DBADD16F8959C7ACF45770E1F3AA60A221076031FE42279 ====

foobar2000 1.2 / Dynamic Range Meter 1.1.1
log date: 2015-07-06 19:57:30

––––––––––––––––––––––––––––––––––––––––
Analyzed: Guitar Shorty / We The People
––––––––––––––––––––––––––––––––––––––––

DR Peak RMS Duration Track
––––––––––––––––––––––––––––––––––––––––
DR5 -0.30 dB -6.57 dB 4:20 01-We The People
DR5 -0.30 dB -6.94 dB 4:05 02-What Good Is Life?
DR6 -0.31 dB -8.49 dB 3:54 03-I Got Your Number
DR7 -0.30 dB -7.72 dB 5:00 04-Runaway Train
DR6 -0.43 dB -7.76 dB 4:58 05-Down That Road Again
DR6 -0.30 dB -7.73 dB 5:51 06-Fine Cadillac
DR7 -0.30 dB -8.83 dB 4:24 07-Can't Get Enough
DR6 -0.30 dB -8.68 dB 3:57 08-A Hurt So Old
DR7 -0.30 dB -8.05 dB 3:23 09-Who Needs It?
DR6 -1.17 dB -8.90 dB 3:13 10-Blues In My Blood
DR7 -2.81 dB -11.79 dB 4:11 11-Cost Of Livin'
DR6 -0.31 dB -7.11 dB 3:14 12-Sonic Boom
––––––––––––––––––––––––––––––––––––––––

Number of tracks: 12
Official DR value: DR6

Samplerate: 44100 Hz
Channels: 2
Bits per sample: 16
Bitrate: 988 kbps
Codec: FLAC
================================================================================




Guitar Shorty - Albums Collection 2001-2010 (4CD) [Re-Up]

Guitar Shorty - Bare Knuckle (2010)
EAC | FLAC | Image (Cue&Log) ~ 384 Mb | Mp3 (CBR320) ~ 147 Mb
Label: Alligator | # ALCD 4934 | Time: 00:49:54 | Scans included

The guitar legend fires off bruising riffs and raw, fervent vocals on an exhilarating collection of deep, hard-rocking tracks, while his up-to-the-minute lyrics address everything from the economic meltdown and the plight of Iraq War veterans to timeless tales of love won and lost.

Bare Knuckle is the first Guitar Shorty album to appear in four years. He won the W.C. Handy Award for Best Contemporary Blues Album of the Year for We the People in 2006. That record, which showcased his rugged, showy style of electric blues in a variety of song settings – not the least of which were his originals, which had a socio-political bent – sent blues fans to the record stores in droves. This set picks up where We the People left off, with the killer “Please Mr. President,” which pleads for Mr. Obama to “lay some stimulus on me.” There is no irony in the lyric. The man’s serious as cancer and it shows in his biting leads, his shouting vocal, and the everyman tone in his delivery. Produced by longtime bassist Wyzard, Shorty is backed here by keyboardist Alex Alessandroni, and drummer Harold Seay (with the exception of two tracks where Alvino Bennet, his former skin man contributes). There are alternating rhythm guitarists and a guest appearance by Keb' Mo’ playing acoustic rhythm guitar on the aforementioned cut. Other fare here is diverse, such as the funky reading of James C. Johnson’s “Too Hard to Love You” with flipped-out-sounding psychedelic organ and electric piano sounds. There’s also the reggae-blues(!) of “Slow Burn," written by Wyzard, Vida Simon, and Jon Tiven. It sounds twisted, but Shorty’s vocals are soulful, and his lead guitar stings against the bubbling rhythm section, so it works. The other two Shorty-penned numbers are the straight-ahead shuffle on the good-time “Texas Women,” and the rumbling Chicago-styled “Too Late,” which contains some of his most emotive lead work on the set. The album closes on “Temporary Man,” an updated, growling, Delta-esque roadhouse rumble, written by Dennis Jones. Guitar Shorty's live show is never captured on record and that’s a shame, but his records have their own wild and woolly charm, and Bare Knuckle is another example of what he does best after 50 years in the blues biz.

Review by Thom Jurek, Allmusic.com

Tracklist:

01. Please Mr. President (04:14)
02. Too Hard To Love You (03:45)
03. The Sting (03:22)
04. Slow Burn (05:09)
05. True Lies (04:15)
06. Texas Women (04:24)
07. Too Late (04:15)
08. Neverland (03:59)
09. Betrayed (05:52)
10. Get Off (03:17)
11. Bad Memory (03:48)
12. Temporary Man (03:29)


Exact Audio Copy V1.1 from 23. June 2015

Отчёт EAC об извлечении, выполненном 4. июля 2015, 19:46

Guitar Shorty / Bare Knuckle

Дисковод: SONY CD-RW CRX230ED Adapter: 1 ID: 0

Режим чтения : Достоверность
Использование точного потока : Да
Отключение кэша аудио : Да
Использование указателей C2 : Нет

Коррекция смещения при чтении : 6
Способность читать области Lead-in и Lead-out : Нет
Заполнение пропущенных сэмплов тишиной : Да
Удаление блоков с тишиной в начале и конце : Нет
При вычислениях CRC использовались нулевые сэмплы : Да
Интерфейс : Встроенный Win32-интерфейс для Win NT/2000

Выходной формат : Внутренние WAV-операции
Формат сэмплов : 44.100 Гц; 16 бит; стерео


TOC извлечённого CD

Трек | Старт | Длительность | Начальный сектор | Конечный сектор
––––––––––––––––––––––––––––––––––-
1 | 0:00.00 | 4:14.45 | 0 | 19094
2 | 4:14.45 | 3:45.45 | 19095 | 36014
3 | 8:00.15 | 3:22.73 | 36015 | 51237
4 | 11:23.13 | 5:09.17 | 51238 | 74429
5 | 16:32.30 | 4:15.48 | 74430 | 93602
6 | 20:48.03 | 4:24.36 | 93603 | 113438
7 | 25:12.39 | 4:15.00 | 113439 | 132563
8 | 29:27.39 | 3:59.27 | 132564 | 150515
9 | 33:26.66 | 5:52.13 | 150516 | 176928
10 | 39:19.04 | 3:17.40 | 176929 | 191743
11 | 42:36.44 | 3:48.18 | 191744 | 208861
12 | 46:24.62 | 3:29.07 | 208862 | 224543


Характеристики диапазона извлечения и сообщения об ошибках

Выбранный диапазон

Имя файла F:\MusicCD\Torrent\Guitar Shorty\Guitar Shorty - Bare Knuckle\Guitar Shorty - Bare Knuckle.wav

Пиковый уровень 96.6 %
Скорость извлечения 2.5 X
Качество диапазона 100.0 %
CRC теста B60EF4A5
CRC копии B60EF4A5
Копирование… OK

Ошибок не произошло


AccurateRip: сводка

Трек 1 : извлечено точно (доверие 12) [1CB197D2] (AR v2)
Трек 2 : извлечено точно (доверие 12) [DB5FCBC4] (AR v2)
Трек 3 : извлечено точно (доверие 12) [5D99ECCF] (AR v2)
Трек 4 : извлечено точно (доверие 12) [15132AD2] (AR v2)
Трек 5 : извлечено точно (доверие 12) [C3B922CD] (AR v2)
Трек 6 : извлечено точно (доверие 12) [7A65B1B2] (AR v2)
Трек 7 : извлечено точно (доверие 12) [56E6F0A2] (AR v2)
Трек 8 : извлечено точно (доверие 12) [9B4DE1AF] (AR v2)
Трек 9 : извлечено точно (доверие 12) [F4213CA6] (AR v2)
Трек 10 : извлечено точно (доверие 12) [94F3963D] (AR v2)
Трек 11 : извлечено точно (доверие 12) [164330E1] (AR v2)
Трек 12 : извлечено точно (доверие 12) [645791D2] (AR v2)

Все треки извлечены точно

Конец отчёта

–– CUETools DB Plugin V2.1.6

[CTDB TOCID: ciE_wcO8XWP0Y4zKu2_WkaC8E1E-] found
Submit result: ciE_wcO8XWP0Y4zKu2_WkaC8E1E- has been confirmed
Track | CTDB Status
1 | (6/6) Accurately ripped
2 | (6/6) Accurately ripped
3 | (6/6) Accurately ripped
4 | (6/6) Accurately ripped
5 | (6/6) Accurately ripped
6 | (6/6) Accurately ripped
7 | (6/6) Accurately ripped
8 | (6/6) Accurately ripped
9 | (6/6) Accurately ripped
10 | (6/6) Accurately ripped
11 | (6/6) Accurately ripped
12 | (6/6) Accurately ripped


==== Контрольная сумма отчёта A907F53FA1233E2FFB477264A9496281337D8D54FC5BDB5112C41FA165670EBD ====

foobar2000 1.2 / Dynamic Range Meter 1.1.1
log date: 2015-07-15 18:51:51

––––––––––––––––––––––––––––––––––––––––
Analyzed: Guitar Shorty / Bare Knuckle
––––––––––––––––––––––––––––––––––––––––

DR Peak RMS Duration Track
––––––––––––––––––––––––––––––––––––––––
DR5 -0.30 dB -6.08 dB 4:15 01-Please Mr. President
DR6 -0.31 dB -7.95 dB 3:46 02-Too Hard To Love You
DR4 -0.31 dB -5.40 dB 3:23 03-The Sting
DR6 -0.30 dB -8.08 dB 5:09 04-Slow Burn
DR5 -0.30 dB -6.54 dB 4:16 05-True Lies
DR6 -0.30 dB -7.82 dB 4:24 06-Texas Women
DR5 -0.30 dB -7.01 dB 4:15 07-Too Late
DR6 -0.30 dB -7.95 dB 3:59 08-Neverland
DR5 -0.30 dB -6.83 dB 5:52 09-Betrayed
DR5 -0.30 dB -7.21 dB 3:18 10-Get Off
DR6 -0.30 dB -7.87 dB 3:48 11-Bad Memory
DR5 -0.30 dB -6.68 dB 3:29 12-Temporary Man
––––––––––––––––––––––––––––––––––––––––

Number of tracks: 12
Official DR value: DR6

Samplerate: 44100 Hz
Channels: 2
Bits per sample: 16
Bitrate: 986 kbps
Codec: FLAC
================================================================================




All thanks to original releaser - squirr

More interesting music in My Blog