Tags
Language
Tags

I Solisti Italiani: Handel - Concerti Grossi Op. 6, Nos. 1, 2, 6, 7, 10 (1989) [2010, Japan HQCD, COCQ-84756]

Posted By: v3122
I Solisti Italiani: Handel - Concerti Grossi Op. 6, Nos. 1, 2, 6, 7, 10 (1989) [2010, Japan HQCD, COCQ-84756]

I Solisti Italiani: Händel - Concerti Grossi Op. 6, Nos. 1, 2, 6, 7, 10 (1989)
Classical | EAC Rip | Flac(Image) + Cue + Log & MP3 CBR 320Kbps
2010 | Columbia, COCQ-84756 | ~ 434 or 184 Mb | Scans

I Solisti Italiani: Handel - Concerti Grossi Op. 6, Nos. 1, 2, 6, 7, 10 (1989) [2010, Japan HQCD, COCQ-84756]

I Solisti Italiani is a chamber string orchestra consisting of about 12 players, known particularly for their spirited readings of works from the Baroque and Classical periods. They have performed and recorded much Vivaldi over the years and have devoted nearly as much effort to the works of Handel, Mozart, Mendelssohn, and Rossini. They are strongly identified with music of the twentieth century as well, having had particular success with a recording of film score excerpts by Walton, Shostakovich, Herrmann, Morricone, and other notables in the genre. What is remarkable about the group is that it performs without a conductor. Despite that seeming encumbrance, the group has managed to concertize frequently and make numerous critically successful recordings.

I Solisti Italiani began, like many instrumental ensembles, as an offshoot of a larger one. The popular chamber orchestra I Virtuosi di Roma disbanded in 1979 upon the death of its leader of three decades, Renato Fasano. But the "disbanding" process was more of a metamorphosis, for the players split into two groups, one forming I Nuovi Virtuosi di Roma and the other becoming I Solisti Italiani. The latter had nearly immediate success, scoring numerous triumphs on the world's concert stages and quickly drawing comparison with its defunct parent group.

The ensemble gave its New York debut in October 1986 at the Metropolitan Museum of Art, drawing high praise from The New York Times in a program of Vivaldi, Mozart, Rossini, Bartók, and Britten. Around this time I Solisti's earliest recordings were also scoring critical successes. Among them was the 1986 Denon release of Vivaldi's Four Seasons, which, because of its popularity, gained a second life in a rerelease in 1993.

The late '80s and early '90s were I Solisti's busiest time in the recording studio, as it turned out a spate of well-received discs, all on Denon, and mostly in its bread-and-butter repertory: there were several CDs of music by Vivaldi, and single issues by Rossini, Corelli, and Mendelssohn, as well as others. Perhaps the group's most popular album from this period was the aforementioned 1996 CD of film music that contained excerpts from Herrmann's Psycho, Walton's Henry V, a trio of Shostakovich scores – Hamlet, The Gadfly, and Five Days and Five Nights – and several others. In the new century I Solisti Italiani, if a tad less vital, has still remained active in both the concert and recording venues.

by Robert Cummings, AMG
I Solisti Italiani: Händel - Concerti Grossi Op. 6, Nos. 1, 2, 6, 7, 10 (1989) [2010, Japan HQCD, COCQ-84756]:

I Solisti Italiani: Handel - Concerti Grossi Op. 6, Nos. 1, 2, 6, 7, 10 (1989) [2010, Japan HQCD, COCQ-84756]

Tracklist:

01. Handel - Concerto Grosso No.1 - HWV.319 - I - A tempo giusto
02. Handel - Concerto Grosso No.1 - HWV.319 - II - Allegro
03. Handel - Concerto Grosso No.1 - HWV.319 - III - Adagio
04. Handel - Concerto Grosso No.1 - HWV.319 - IV - Allegro
05. Handel - Concerto Grosso No.1 - HWV.319 - V - Allegro
06. Handel - Concerto Grosso No.2 - HWV.320 - I - Andante larghetto
07. Handel - Concerto Grosso No.2 - HWV.320 - II - Allegro
08. Handel - Concerto Grosso No.2 - HWV.320 - III - Largo
09. Handel - Concerto Grosso No.2 - HWV.320 - IV - Allegro, ma non troppo
10. Handel - Concerto Grosso No.6 - HWV.325 - I - Largo affettuoso
11. Handel - Concerto Grosso No.6 - HWV.324 - II - A tempo giusto
12. Handel - Concerto Grosso No.6 - HWV.325 - III - Musette. Laghetto
13. Handel - Concerto Grosso No.6 - HWV.324 - IV – Allegro
14. Handel - Concerto Grosso No.6 - HWV.324 - V - Allegro
15. Handel - Concerto Grosso No.7 - HWV.325 - I - Largo
16. Handel - Concerto Grosso No.7 - HWV.325 - II - Allegro
17. Handel - Concerto Grosso No.7 - HWV.325 - III - Largo
18. Handel - Concerto Grosso No.7 - HWV.325 - IV - Andante
19. Handel - Concerto Grosso No.7 - HWV.325 - V - Hornpipe
20. Handel - Concerto Grosso No.10 - HWV.328 - I - Ouverture
21. Handel - Concerto Grosso No.10 - HWV.328 - II - Allegro
22. Handel - Concerto Grosso No.10 - HWV.328 - III - Air. Lentement
23. Handel - Concerto Grosso No.10 - HWV.328 - IV - Allegro
24. Handel - Concerto Grosso No.10 - HWV.328 - V - Allegro
25. Handel - Concerto Grosso No.10 - HWV.328 - VI - Allegro moderato

Exact Audio Copy V1.0 beta 4 from 7. December 2014

EAC extraction logfile from 18. January 2015, 16:58

I Solisti Italiani / Händel - Concerti Grossi Op. 6, Nos. 1, 2, 6, 7, 10

Used drive : PIONEER DVD-RW DVR-220L Adapter: 1 ID: 0

Read mode : Secure
Utilize accurate stream : Yes
Defeat audio cache : Yes
Make use of C2 pointers : No

Read offset correction : 6
Overread into Lead-In and Lead-Out : No
Fill up missing offset samples with silence : Yes
Delete leading and trailing silent blocks : No
Null samples used in CRC calculations : Yes
Used interface : Native Win32 interface for Win NT & 2000

Used output format : User Defined Encoder
Selected bitrate : 768 kBit/s
Quality : High
Add ID3 tag : No
Command line compressor : D:\Exact Audio Copy\Flac\flac.exe
Additional command line options : -V -8 -T "Date=%year%" -T "Genre=%genre%" %source%


TOC of the extracted CD

Track | Start | Length | Start sector | End sector
––––––––––––––––––––––––––––-
1 | 0:00.00 | 1:52.28 | 0 | 8427
2 | 1:52.28 | 1:54.35 | 8428 | 17012
3 | 3:46.63 | 2:31.00 | 17013 | 28337
4 | 6:17.63 | 2:38.30 | 28338 | 40217
5 | 8:56.18 | 2:43.60 | 40218 | 52502
6 | 11:40.03 | 3:57.45 | 52503 | 70322
7 | 15:37.48 | 2:41.42 | 70323 | 82439
8 | 18:19.15 | 2:51.03 | 82440 | 95267
9 | 21:10.18 | 2:20.42 | 95268 | 105809
10 | 23:30.60 | 3:26.20 | 105810 | 121279
11 | 26:57.05 | 1:34.58 | 121280 | 128387
12 | 28:31.63 | 5:02.22 | 128388 | 151059
13 | 33:34.10 | 3:00.38 | 151060 | 164597
14 | 36:34.48 | 2:34.07 | 164598 | 176154
15 | 39:08.55 | 0:56.23 | 176155 | 180377
16 | 40:05.03 | 2:45.55 | 180378 | 192807
17 | 42:50.58 | 2:56.62 | 192808 | 206069
18 | 45:47.45 | 5:04.45 | 206070 | 228914
19 | 50:52.15 | 3:34.60 | 228915 | 245024
20 | 54:27.00 | 2:13.25 | 245025 | 255024
21 | 56:40.25 | 2:13.58 | 255025 | 265057
22 | 58:54.08 | 3:29.22 | 265058 | 280754
23 | 62:23.30 | 2:14.48 | 280755 | 290852
24 | 64:38.03 | 2:52.40 | 290853 | 303792
25 | 67:30.43 | 1:49.02 | 303793 | 311969


Range status and errors

Selected range

Filename D:\New Rips\I Solisti Italiani - Händel - Concerti Grossi Op. 6, Nos. 1, 2, 6, 7, 10\I Solisti Italiani - Händel - Concerti Grossi Op. 6, Nos. 1, 2, 6, 7, 10.wav

Peak level 92.7 %
Extraction speed 7.9 X
Range quality 99.9 %
Test CRC 87DEBDC1
Copy CRC 87DEBDC1
Copy OK

No errors occurred


AccurateRip summary

Track 1 cannot be verified as accurate (confidence 16) [E42E6575], AccurateRip returned [F8A46BD5] (AR v2)
Track 2 cannot be verified as accurate (confidence 16) [FF23A669], AccurateRip returned [D36E8437] (AR v2)
Track 3 cannot be verified as accurate (confidence 16) [905030B0], AccurateRip returned [F1C28A1E] (AR v2)
Track 4 cannot be verified as accurate (confidence 16) [AFE9F25B], AccurateRip returned [DEB362B3] (AR v2)
Track 5 cannot be verified as accurate (confidence 16) [C605980E], AccurateRip returned [692D1816] (AR v2)
Track 6 cannot be verified as accurate (confidence 16) [CB705CCF], AccurateRip returned [E8CC33A5] (AR v2)
Track 7 cannot be verified as accurate (confidence 16) [CE73C6CB], AccurateRip returned [824211FB] (AR v2)
Track 8 cannot be verified as accurate (confidence 16) [91B4F879], AccurateRip returned [10A39010] (AR v2)
Track 9 cannot be verified as accurate (confidence 16) [B1403489], AccurateRip returned [B4C0DBEB] (AR v2)
Track 10 cannot be verified as accurate (confidence 16) [5FD69D1D], AccurateRip returned [F3C9B08C] (AR v2)
Track 11 cannot be verified as accurate (confidence 16) [5F0185D8], AccurateRip returned [4C5B20CA] (AR v2)
Track 12 cannot be verified as accurate (confidence 16) [5CEEFB9C], AccurateRip returned [6B68BBD8] (AR v2)
Track 13 cannot be verified as accurate (confidence 16) [96013E54], AccurateRip returned [11F9910B] (AR v2)
Track 14 cannot be verified as accurate (confidence 16) [11E32217], AccurateRip returned [DD6F2389] (AR v2)
Track 15 cannot be verified as accurate (confidence 16) [6D8F336F], AccurateRip returned [3E904C88] (AR v2)
Track 16 cannot be verified as accurate (confidence 16) [3D9516F7], AccurateRip returned [C731AD5E] (AR v2)
Track 17 cannot be verified as accurate (confidence 16) [516676FD], AccurateRip returned [A3213422] (AR v2)
Track 18 cannot be verified as accurate (confidence 16) [6EC2AAE0], AccurateRip returned [A0FB953F] (AR v2)
Track 19 cannot be verified as accurate (confidence 16) [7E36DB74], AccurateRip returned [F4FFC10D] (AR v2)
Track 20 cannot be verified as accurate (confidence 16) [393F2AD2], AccurateRip returned [0CA5CDD4] (AR v2)
Track 21 cannot be verified as accurate (confidence 15) [D463ED00], AccurateRip returned [EDFAC31B] (AR v2)
Track 22 cannot be verified as accurate (confidence 16) [052051F4], AccurateRip returned [5CD223C8] (AR v2)
Track 23 cannot be verified as accurate (confidence 16) [4AA85816], AccurateRip returned [2EFDAD9A] (AR v2)
Track 24 cannot be verified as accurate (confidence 16) [D4540F11], AccurateRip returned [74A8C5AC] (AR v2)
Track 25 cannot be verified as accurate (confidence 15) [433EAEC0], AccurateRip returned [76CAE870] (AR v2)

No tracks could be verified as accurate
You may have a different pressing from the one(s) in the database

End of status report

–– CUETools DB Plugin V2.1.4

[CTDB TOCID: QgNMo8mp.2HPROz0dFI94zKOftM-] found
Submit result: QgNMo8mp.2HPROz0dFI94zKOftM- has been confirmed
Track | CTDB Status
1 | (8/8) Accurately ripped
2 | (8/8) Accurately ripped
3 | (8/8) Accurately ripped
4 | (8/8) Accurately ripped
5 | (8/8) Accurately ripped
6 | (8/8) Accurately ripped
7 | (8/8) Accurately ripped
8 | (8/8) Accurately ripped
9 | (8/8) Accurately ripped
10 | (8/8) Accurately ripped
11 | (8/8) Accurately ripped
12 | (8/8) Accurately ripped
13 | (8/8) Accurately ripped
14 | (7/8) Accurately ripped
15 | (8/8) Accurately ripped
16 | (8/8) Accurately ripped
17 | (8/8) Accurately ripped
18 | (8/8) Accurately ripped
19 | (8/8) Accurately ripped
20 | (8/8) Accurately ripped
21 | (8/8) Accurately ripped
22 | (8/8) Accurately ripped
23 | (8/8) Accurately ripped
24 | (8/8) Accurately ripped
25 | (8/8) Accurately ripped


==== Log checksum C5E516FFFB89B47D24B2DC9D1FEE31C35EA05E4D4697F83B20B55EC788EAEF4B ====

foobar2000 1.2.9 / Dynamic Range Meter 1.1.1
log date: 2015-01-21 16:05:42

––––––––––––––––––––––––––––––––––––––––
Analyzed: I Solisti Italiani / Handel - Concerti Grossi Op. 6, Nos. 1, 2, 6, 7, 10
––––––––––––––––––––––––––––––––––––––––

DR Peak RMS Duration Track
––––––––––––––––––––––––––––––––––––––––
DR13 -2.43 dB -18.90 dB 1:52 01-Handel - Concerto Grosso No.1 - HWV.319 - I - A tempo giusto
DR12 -0.76 dB -17.04 dB 1:54 02-Handel - Concerto Grosso No.1 - HWV.319 - II - Allegro
DR13 -4.04 dB -21.59 dB 2:31 03-Handel - Concerto Grosso No.1 - HWV.319 - III - Adagio
DR12 -2.35 dB -17.99 dB 2:38 04-Handel - Concerto Grosso No.1 - HWV.319 - IV - Allegro
DR12 -2.69 dB -19.92 dB 2:44 05-Handel - Concerto Grosso No.1 - HWV.319 - V - Allegro
DR14 -2.11 dB -20.58 dB 3:58 06-Handel - Concerto Grosso No.2 - HWV.320 - I - Andante larghetto
DR13 -1.06 dB -19.97 dB 2:42 07-Handel - Concerto Grosso No.2 - HWV.320 - II - Allegro
DR13 -2.96 dB -22.09 dB 2:51 08-Handel - Concerto Grosso No.2 - HWV.320 - III - Largo
DR13 -1.64 dB -18.72 dB 2:21 09-Handel - Concerto Grosso No.2 - HWV.320 - IV - Allegro, ma non troppo
DR14 -1.13 dB -21.55 dB 3:26 10-Handel - Concerto Grosso No.6 - HWV.325 - I - Largo affettuoso
DR12 -1.76 dB -17.08 dB 1:35 11-Handel - Concerto Grosso No.6 - HWV.324 - II - A tempo giusto
DR13 -3.84 dB -21.06 dB 5:02 12-Handel - Concerto Grosso No.6 - HWV.325 - III - Musette. Laghetto
DR14 -1.74 dB -18.75 dB 3:01 13-Handel - Concerto Grosso No.6 - HWV.324 - IV – Allegro
DR12 -3.86 dB -20.34 dB 2:34 14-Handel - Concerto Grosso No.6 - HWV.324 - V - Allegro
DR10 -7.07 dB -21.38 dB 0:56 15-Handel - Concerto Grosso No.7 - HWV.325 - I - Largo
DR13 -0.85 dB -19.84 dB 2:46 16-Handel - Concerto Grosso No.7 - HWV.325 - II - Allegro
DR12 -7.17 dB -23.35 dB 2:57 17-Handel - Concerto Grosso No.7 - HWV.325 - III - Largo
DR13 -4.77 dB -21.79 dB 5:05 18-Handel - Concerto Grosso No.7 - HWV.325 - IV - Andante
DR14 -0.65 dB -18.12 dB 3:35 19-Handel - Concerto Grosso No.7 - HWV.325 - V - Hornpipe
DR12 -4.86 dB -19.45 dB 2:13 20-Handel - Concerto Grosso No.10 - HWV.328 - I - Ouverture
DR12 -2.24 dB -18.38 dB 2:14 21-Handel - Concerto Grosso No.10 - HWV.328 - II - Allegro
DR15 -3.12 dB -24.29 dB 3:29 22-Handel - Concerto Grosso No.10 - HWV.328 - III - Air. Lentement
DR12 -3.73 dB -19.50 dB 2:15 23-Handel - Concerto Grosso No.10 - HWV.328 - IV - Allegro
DR13 -2.42 dB -20.12 dB 2:53 24-Handel - Concerto Grosso No.10 - HWV.328 - V - Allegro
DR12 -3.67 dB -21.05 dB 1:49 25-Handel - Concerto Grosso No.10 - HWV.328 - VI - Allegro moderato
––––––––––––––––––––––––––––––––––––––––

Number of tracks: 25
Official DR value: DR13

Samplerate: 44100 Hz
Channels: 2
Bits per sample: 16
Bitrate: 790 kbps
Codec: FLAC

[CUETools log; Date: 21.01.2015 16:06:12; Version: 2.1.4]
[CTDB TOCID: QgNMo8mp.2HPROz0dFI94zKOftM-] found.
Track | CTDB Status
1 | (9/9) Accurately ripped
2 | (9/9) Accurately ripped
3 | (9/9) Accurately ripped
4 | (9/9) Accurately ripped
5 | (9/9) Accurately ripped
6 | (9/9) Accurately ripped
7 | (9/9) Accurately ripped
8 | (9/9) Accurately ripped
9 | (9/9) Accurately ripped
10 | (9/9) Accurately ripped
11 | (9/9) Accurately ripped
12 | (9/9) Accurately ripped
13 | (9/9) Accurately ripped
14 | (8/9) Accurately ripped
15 | (9/9) Accurately ripped
16 | (9/9) Accurately ripped
17 | (9/9) Accurately ripped
18 | (9/9) Accurately ripped
19 | (9/9) Accurately ripped
20 | (9/9) Accurately ripped
21 | (9/9) Accurately ripped
22 | (9/9) Accurately ripped
23 | (9/9) Accurately ripped
24 | (9/9) Accurately ripped
25 | (9/9) Accurately ripped
[AccurateRip ID: 003d12a8-0459f1d2-4d103f19] found.
Track [ CRC | V2 ] Status
01 [ebc308dd|e42e6575] (00+00/27) No match
02 [f79ac335|ff23a669] (00+00/27) No match
03 [a9302717|905030b0] (00+00/27) No match
04 [1bbfa6e6|afe9f25b] (00+00/27) No match
05 [2799b58c|c605980e] (00+00/27) No match
06 [4cc66ee3|cb705ccf] (00+00/27) No match
07 [888262ef|ce73c6cb] (00+00/26) No match
08 [005a2059|91b4f879] (00+00/27) No match
09 [a68ff2df|b1403489] (00+00/27) No match
10 [c6f98b38|5fd69d1d] (00+00/27) No match
11 [0f088363|5f0185d8] (00+00/27) No match
12 [17f6ed2a|5ceefb9c] (00+00/27) No match
13 [87fa108e|96013e54] (00+00/27) No match
14 [52700898|11e32217] (00+00/27) No match
15 [61ce42f8|6d8f336f] (00+00/27) No match
16 [be5323ad|3d9516f7] (00+00/27) No match
17 [eb2a4dd7|516676fd] (00+00/27) No match
18 [7d8d1740|6ec2aae0] (00+00/27) No match
19 [bb76d18f|7e36db74] (00+00/27) No match
20 [cc423be6|393f2ad2] (00+00/27) No match
21 [5065fd4a|d463ed00] (00+00/26) No match
22 [adb33f75|052051f4] (00+00/27) No match
23 [e0447c17|4aa85816] (00+00/27) No match
24 [c25d21ab|d4540f11] (00+00/27) No match
25 [2d8c6156|433eaec0] (00+00/26) No match
Offsetted by 689:
01 [f8a46bd5] (16/27) Accurately ripped
02 [d36e8437] (16/27) Accurately ripped
03 [f1c28a1e] (16/27) Accurately ripped
04 [deb362b3] (16/27) Accurately ripped
05 [692d1816] (16/27) Accurately ripped
06 [e8cc33a5] (16/27) Accurately ripped
07 [824211fb] (16/26) Accurately ripped
08 [10a39010] (16/27) Accurately ripped
09 [b4c0dbeb] (16/27) Accurately ripped
10 [f3c9b08c] (16/27) Accurately ripped
11 [4c5b20ca] (16/27) Accurately ripped
12 [6b68bbd8] (16/27) Accurately ripped
13 [11f9910b] (16/27) Accurately ripped
14 [dd6f2389] (16/27) Accurately ripped
15 [3e904c88] (16/27) Accurately ripped
16 [c731ad5e] (16/27) Accurately ripped
17 [a3213422] (16/27) Accurately ripped
18 [a0fb953f] (16/27) Accurately ripped
19 [f4ffc10d] (16/27) Accurately ripped
20 [0ca5cdd4] (16/27) Accurately ripped
21 [edfac31b] (15/26) Accurately ripped
22 [5cd223c8] (16/27) Accurately ripped
23 [2efdad9a] (16/27) Accurately ripped
24 [74a8c5ac] (16/27) Accurately ripped
25 [76cae870] (15/26) Accurately ripped

Track Peak [ CRC32 ] [W/O NULL] [ LOG ]
– 92,7 [87DEBDC1] [275527C2] CRC32
01 75,6 [CB1585DB] [18A605C6]
02 91,5 [6C353101] [F4196D04]
03 62,8 [7E2EAE89] [860B2F33]
04 76,3 [5F7239E1] [8BBF050C]
05 73,3 [4B069EB5] [6AD138AF]
06 78,4 [66794F9A] [A5BD6898]
07 88,5 [E4E6316F] [81FB1A46]
08 71,0 [D63727D5] [363DFCDE]
09 82,8 [65D7713D] [9BDB43FD]
10 87,8 [52C12908] [20029C50]
11 81,6 [AE290B4A] [3415E8FB]
12 64,2 [0C1C9BF0] [8FF55419]
13 81,8 [1D6A6231] [3ADDFEC4]
14 64,1 [FEEA926D] [6250724F]
15 44,3 [C1E605AC] [CB567A9A]
16 90,7 [BC16AB5D] [9651B4DF]
17 43,7 [0D7AE218] [057A0638]
18 57,7 [BF085151] [5676A0D9]
19 92,7 [AD796B04] [7B12FC2E]
20 57,1 [922E8651] [A661F859]
21 77,3 [C6971941] [C9F82EC8]
22 69,8 [3703AF58] [84FF7BEB]
23 65,0 [34C09C83] [A5A4EB03]
24 75,6 [8BC90A24] [6D8746F8]
25 65,5 [53C6C4F9] [05E29D5F]

I Solisti Italiani: Handel - Concerti Grossi Op. 6, Nos. 1, 2, 6, 7, 10 (1989) [2010, Japan HQCD, COCQ-84756]

Download I Solisti Italiani: Händel - Concerti Grossi Op. 6, Nos. 1, 2, 6, 7, 10 (1989) [2010, Japan HQCD, COCQ-84756]: