Tags
Language
Tags

Il Giardino Armonico, Giovanni Antonini: Bach, Biber, Corelli, Locke, Monteverdi, Rossi, Vivaldi [11CDs] (2006)

Posted By: ArlegZ
Il Giardino Armonico, Giovanni Antonini: Bach, Biber, Corelli, Locke, Monteverdi, Rossi, Vivaldi [11CDs] (2006)

Il Giardino Armonico, Giovanni Antonini: Bach, Biber, Corelli, Locke, Monteverdi, Rossi, Vivaldi [11CDs] (2006)
EAC | FLAC | Image (Cue & Log) ~ 3.26 Gb | Total time: 11h 17' 57'' | Scans included
Classical | Label: Warner Classics | # 2564 63264-2 | Recorded: 1991-2000

For fans of Il Giardino Armonico's flamboyant flourishes and exuberant expressiveness, it's like having all your birthdays at once, being presented with this great Warner Classics 11 CD set. My own feeling is that this "free" approach to Baroque music is at its best when applied to the theatrical music of disc 8 or the seventeenth century Italian music on disc 1. The showmanship and playfulness is an absolute joy in many of those pieces. I'm less satisfied with the interpretations of Bach's Brandenburg Concertos, (on discs 10 and 11), which require a different approach, I feel. I like my Bach to be a little more measured and subtle, I suppose. It has no need of the Il Giardino Armonico treatment. On the whole, though, I do love this set and wouldn't be without it.

Performer:
Il Giardino Armonico
Giovanni Antonini, direction

Contents:
CD 01: Italian Music of the XVII Century
CD 02: Neapolitan Chamber Music
CD 03: Chrismas Concerto
CD 04: Vivaldi: Chamber Concertos
CD 05: Vivaldi: Double and Triple Concertos
CD 06: Vivaldi: Concertos for Lute and Mandolin
CD 07: Vivaldi: Concertos from "Il Cimento dell'Armonia e dell'Inventione" (The Four Seasons)
CD 08: Theatrical Music and Music for the Theatre
CD 09: Baroque Masterpieces
CD 10: Bach: Brandenburg Concertos 1-3
CD 11: Bach: Brandenburg Concertos 4-6


CD 01: Italian Music of the XVII Century
01. Claudio Monteverdi - Sinfonia de Il ritorno d’Ulisse in Patria
02. Tarquinio Merula - Ciaccona
03. Improvisation
04. Dario Castello - Sonata IV
05. Giovanni Battista Spadi - Anchor che co’l partire after a madrigal by Cipriano de Rore
06. Improvisation
07. Dario Castello - Sonata X
08. Giovanni Battista Riccio - Sonata a 4
09. Improvisation
10. Biagio Marini - Sonata sopra “la Monica”
11. Marco Uccellini - Aria sopra “la Bergamasca”
12. Salomone Rossi - Sinfonia a 3
13. Giovanni Battista Fontana - Sonata XV
14. Alessandro Piccinini - Toccata
15. Marco Uccellini - Sonata XVIII
16. Salomone Rossi - Sinfonia in eco a 3
17. Francesco Rognoni - Vestiva i colli after a madrigal by Palestrina
18. Salomone Rossi - Gagliarda “Zambalina” a 4
19. Salomone Rossi - Sinfonia grave a 5
20. Tarquinio Merula - Canzon “la Cattarina”
21. Marco Uccellini - Aria sopra “La scatola degli aghi”
22. Giovanni Paolo Cima - Sonata
23. Tarquinio Merula - “Ruggiero”
24. Salomone Rossi - Gagliarda “Norsina” a 5

CD 02: Neapolitan Chamber Music
01-04. Domenico Sarri - Concerto in A minor
05-07. Domenico Scarlatti - Sonata in D minor, Kk.90
08-11. Francesco Durante - Concerto in G minor
12-16. Alessandro Scarlatti - Sonata in A minor
17-20. Francesco Mancini - Sonata in D minor

CD 03: Chrismas Concerto
01-06. Arcangelo Corelli - Concerto grosso op.6 no.8 in G minor “Fatto per la notte di Natale”
07-09. Antonio Vivaldi - Concerto in E major, RV 270 “Il Riposo” “… per il Natale”
10-12. Giuseppe Torelli - Concerto à quattro in G minor, op.8 no.6 “… per il Santissimo Natale”
13. Antonio Vivaldi - Pastorale in A major from Sonata op.13 no.4, RV 59
14-16. Pietro Antonacci - Sinfonia Pastorale in G major
17-23. Johann Christoph Pez - Concerto in F major
24-26. Francesco Manfredini - Concerto grosso in C major, op.3 no.12 “con una Pastorale per il Santissimo Natale”

CD 04: Vivaldi: Chamber Concertos
01-03. Antonio Vivaldi - Concerto op.10 no.1 in F major, RV 98 “La Tempesta di mare”
04-08. Antonio Vivaldi - Concerto op.10 no.2 in G minor, RV 104 “La Notte”
09-11. Antonio Vivaldi - Concerto in D major, RV 93
12. Antonio Vivaldi - Concerto op.1 no.12 in D minor, RV 63 “La Follia”
13-15. Antonio Vivaldi - Concerto No.5 in F major, RV 442 “Tutti gli istrumenti sordini”
16-18. Antonio Vivaldi - Concerto in D major, RV 94
19-21. Antonio Vivaldi - Concerto in A minor, RV 108
22-24. Antonio Vivaldi - Concerto in G minor, RV 107

CD 05: Vivaldi: Double and Triple Concertos
01-03. Antonio Vivaldi - Concerto in D major, RV 564
04-06. Antonio Vivaldi - Concerto in F major, RV 551
07-09. Antonio Vivaldi - Concerto in G minor, RV 531
10-12. Antonio Vivaldi - Concerto in A major, RV 552
13-15. Antonio Vivaldi - Concerto in C major, RV 561
16-18. Antonio Vivaldi - Concerto in F major, RV 544 “Il Proteo ò sia Il Mondo al rovescio”

CD 06: Vivaldi: Concertos for Lute and Mandolin
01-03. Antonio Vivaldi - Concerto in C major, RV 558
04-06. Antonio Vivaldi - Concerto in D minor, RV 540
07-09. Antonio Vivaldi - Concerto in C major, RV 425
10-12. Antonio Vivaldi - Trio in G minor, RV 85
13-15. Antonio Vivaldi - Concerto in D major, RV 93
16-18. Antonio Vivaldi - Trio in C major, RV 82
19-21. Antonio Vivaldi - Concerto in G major, RV 532

CD 07: Vivaldi: Concertos from "Il Cimento dell'Armonia e dell'Inventione" (The Four Seasons)
01-03. Antonio Vivaldi - Concerto op.8 no.1 in E major, RV 269 “La primavera”
04-06. Antonio Vivaldi - Concerto op.8 no.2 in G minor, RV 315 “L’estate”
07-09. Antonio Vivaldi - Concerto op.8 no.3 in F major, RV 293 “L’autunno”
10-12. Antonio Vivaldi - Concerto op.8 no.4 in F minor, RV 297 “L’inverno”
13-15. Antonio Vivaldi - Concerto op.8 no.9 in D minor, RV 454
16-18. Antonio Vivaldi - Concerto op.8 no.8 in G minor, RV 332

CD 08: Theatrical Music and Music for the Theatre
01. Jan Dismas Zelenka - Fanfare in D major
02-09. Heinrich Ignaz Franz von Biber - Battalia
10. Heinrich Ignaz Franz von Biber - Passacaglia in C minor
11. Anonymous - Tune for the Woodlark
12-23. Heinrich Ignaz Franz von Biber - Sonata violino solo representativa
24-30. Heinrich Ignaz Franz von Biber - Partia VII in C minor
31. Matthew Locke - Canon 4 in 2
32-42. Matthew Locke - Misic for The Tempest

CD 09: Baroque Masterpieces
01-05. Johann Sebastian Bach - Sonata violino solo representativa
06. Tomaso Albinoni - Oboe Concerto in D minor, op.9 no.2
07-09. Antonio Vivaldi - Concerto for flautino in C major, RV 443
10. Tomaso Albinoni - Adagio for Solo Violin and Strings
11-13. Alessandro Marcello - Concerto for oboe in D minor
14. Georg Philipp Telemann - Concerto for 2 flutes, strings and continuo
15-16. Johann Pachelbel - Canon and Gigue in D major
17. Traditional - Greensleeves (improvised variations by Luca Pianca)
18. Henry Purcell - Chaconne in G minor
19. George Frederic Handel - Arrival of the Queen of Sheba
20. Tomaso Albinoni - Adagio for 2 violins and continuo

CD 10: Bach: Brandenburg Concertos 1-3
01-04. Johann Sebastian Bach - Concerto No.1 in F major, BWV 1046
05-07. Johann Sebastian Bach - Concerto No.2 in F major, BWV 1047
08-10. Johann Sebastian Bach - Concerto No.3 in G major, BWV 1048

CD 11: Bach: Brandenburg Concertos 4-6
01-03. Johann Sebastian Bach - Concerto No.4 in G major, BWV 1049
04-06. Johann Sebastian Bach - Concerto No.5 in D major, BWV 1050
07-09. Johann Sebastian Bach - Concerto No.6 in B flat major, BWV 1051



Exact Audio Copy V1.6 from 23. October 2020

EAC extraction logfile from 28. February 2022, 15:36

Il Giardino Armonico, Giovanni Antonini / Italian Music of the Seventeenth Century

Used drive : PIONEER DVD-RW DVR-218L Adapter: 1 ID: 0

Read mode : Secure
Utilize accurate stream : Yes
Defeat audio cache : Yes
Make use of C2 pointers : No

Read offset correction : 6
Overread into Lead-In and Lead-Out : No
Fill up missing offset samples with silence : Yes
Delete leading and trailing silent blocks : No
Null samples used in CRC calculations : Yes
Used interface : Native Win32 interface for Win NT & 2000

Used output format : User Defined Encoder
Selected bitrate : 768 kBit/s
Quality : High
Add ID3 tag : No
Command line compressor : C:\Program Files\Exact Audio Copy\FLAC\FLAC.EXE
Additional command line options : -6 -V -T "ARTIST=%artist%" -T "TITLE=%title%" -T "ALBUM=%albumtitle%" -T "DATE=%year%" -T "TRACKNUMBER=%tracknr%" -T "GENRE=%genre%" -T "COMMENT=%comment%" -T "BAND=%albuminterpret%" -T "ALBUMARTIST=%albuminterpret%" -T "COMPOSER=%composer%" %haslyrics%–tag-from-file=LYRICS="%lyricsfile%"%haslyrics% -T "DISCNUMBER=%cdnumber%" -T "TOTALDISCS=%totalcds%" -T "TOTALTRACKS=%numtracks%" %hascover%–picture="%coverfile%"%hascover% %source% -o %dest%


TOC of the extracted CD

Track | Start | Length | Start sector | End sector
––––––––––––––––––––––––––––-
1 | 0:00.00 | 0:45.37 | 0 | 3411
2 | 0:45.37 | 2:53.43 | 3412 | 16429
3 | 3:39.05 | 1:23.60 | 16430 | 22714
4 | 5:02.65 | 7:35.40 | 22715 | 56879
5 | 12:38.30 | 3:18.15 | 56880 | 71744
6 | 15:56.45 | 1:00.57 | 71745 | 76301
7 | 16:57.27 | 6:31.65 | 76302 | 105691
8 | 23:29.17 | 4:11.43 | 105692 | 124559
9 | 27:40.60 | 0:53.65 | 124560 | 128599
10 | 28:34.50 | 3:42.17 | 128600 | 145266
11 | 32:16.67 | 3:39.23 | 145267 | 161714
12 | 35:56.15 | 1:54.67 | 161715 | 170331
13 | 37:51.07 | 4:37.18 | 170332 | 191124
14 | 42:28.25 | 3:56.07 | 191125 | 208831
15 | 46:24.32 | 5:36.05 | 208832 | 234036
16 | 52:00.37 | 1:02.58 | 234037 | 238744
17 | 53:03.20 | 3:16.37 | 238745 | 253481
18 | 56:19.57 | 1:13.30 | 253482 | 258986
19 | 57:33.12 | 2:04.50 | 258987 | 268336
20 | 59:37.62 | 3:24.13 | 268337 | 283649
21 | 63:02.00 | 2:45.12 | 283650 | 296036
22 | 65:47.12 | 4:24.63 | 296037 | 315899
23 | 70:12.00 | 3:28.40 | 315900 | 331539
24 | 73:40.40 | 1:04.35 | 331540 | 336374


Range status and errors

Selected range

Filename D:\ArlegZ\Giovanni Antonini - Italian Music of the Seventeenth Century.wav

Peak level 99.8 %
Extraction speed 2.1 X
Range quality 99.9 %
Test CRC 6A6EB679
Copy CRC 6A6EB679
Copy OK

No errors occurred


AccurateRip summary

Track 1 accurately ripped (confidence 47) [3517B7A2] (AR v2)
Track 2 accurately ripped (confidence 47) [30580C05] (AR v2)
Track 3 accurately ripped (confidence 47) [EAB1D173] (AR v2)
Track 4 accurately ripped (confidence 46) [24A63774] (AR v2)
Track 5 accurately ripped (confidence 46) [906F9F7B] (AR v2)
Track 6 accurately ripped (confidence 46) [473B9459] (AR v2)
Track 7 accurately ripped (confidence 46) [1AEC5399] (AR v2)
Track 8 accurately ripped (confidence 46) [411136C9] (AR v2)
Track 9 accurately ripped (confidence 46) [BEBF5121] (AR v2)
Track 10 accurately ripped (confidence 47) [2091E275] (AR v2)
Track 11 accurately ripped (confidence 47) [42D827FD] (AR v2)
Track 12 accurately ripped (confidence 46) [EBB8BFEB] (AR v2)
Track 13 accurately ripped (confidence 46) [E4F920B4] (AR v2)
Track 14 accurately ripped (confidence 46) [30270108] (AR v2)
Track 15 accurately ripped (confidence 47) [D28A9132] (AR v2)
Track 16 accurately ripped (confidence 46) [088F69F3] (AR v2)
Track 17 accurately ripped (confidence 47) [CA280A6E] (AR v2)
Track 18 accurately ripped (confidence 46) [B38BADD7] (AR v2)
Track 19 accurately ripped (confidence 46) [5B59B47E] (AR v2)
Track 20 accurately ripped (confidence 46) [BD0491CA] (AR v2)
Track 21 accurately ripped (confidence 47) [A6389D89] (AR v2)
Track 22 accurately ripped (confidence 46) [EBF09021] (AR v2)
Track 23 accurately ripped (confidence 46) [A275D0EF] (AR v2)
Track 24 accurately ripped (confidence 47) [B11F33BE] (AR v2)

All tracks accurately ripped

End of status report

–– CUETools DB Plugin V2.1.6

[CTDB TOCID: sF72xP9YAsEoWS4o9J1dpd4a.GA-] found
Submit result: sF72xP9YAsEoWS4o9J1dpd4a.GA- has been confirmed
Track | CTDB Status
1 | (85/85) Accurately ripped
2 | (85/85) Accurately ripped
3 | (85/85) Accurately ripped
4 | (85/85) Accurately ripped
5 | (85/85) Accurately ripped
6 | (85/85) Accurately ripped
7 | (85/85) Accurately ripped
8 | (84/85) Accurately ripped
9 | (84/85) Accurately ripped
10 | (84/85) Accurately ripped
11 | (84/85) Accurately ripped
12 | (84/85) Accurately ripped
13 | (84/85) Accurately ripped
14 | (84/85) Accurately ripped
15 | (84/85) Accurately ripped
16 | (84/85) Accurately ripped
17 | (84/85) Accurately ripped
18 | (82/85) Accurately ripped
19 | (83/85) Accurately ripped
20 | (83/85) Accurately ripped
21 | (83/85) Accurately ripped
22 | (81/85) Accurately ripped
23 | (81/85) Accurately ripped
24 | (83/85) Accurately ripped


==== Log checksum FF9EA7F14BB140260CE271C2938CA1DF6D5477763F62C782C6FA739ABD387E36 ====


Exact Audio Copy V1.6 from 23. October 2020

EAC extraction logfile from 28. February 2022, 16:56

Il Giardino Armonico, Giovanni Antonini / Musica da Camera a Napoli

Used drive : PIONEER DVD-RW DVR-218L Adapter: 1 ID: 0

Read mode : Secure
Utilize accurate stream : Yes
Defeat audio cache : Yes
Make use of C2 pointers : No

Read offset correction : 6
Overread into Lead-In and Lead-Out : No
Fill up missing offset samples with silence : Yes
Delete leading and trailing silent blocks : No
Null samples used in CRC calculations : Yes
Used interface : Native Win32 interface for Win NT & 2000

Used output format : User Defined Encoder
Selected bitrate : 768 kBit/s
Quality : High
Add ID3 tag : No
Command line compressor : C:\Program Files\Exact Audio Copy\FLAC\FLAC.EXE
Additional command line options : -6 -V -T "ARTIST=%artist%" -T "TITLE=%title%" -T "ALBUM=%albumtitle%" -T "DATE=%year%" -T "TRACKNUMBER=%tracknr%" -T "GENRE=%genre%" -T "COMMENT=%comment%" -T "BAND=%albuminterpret%" -T "ALBUMARTIST=%albuminterpret%" -T "COMPOSER=%composer%" %haslyrics%–tag-from-file=LYRICS="%lyricsfile%"%haslyrics% -T "DISCNUMBER=%cdnumber%" -T "TOTALDISCS=%totalcds%" -T "TOTALTRACKS=%numtracks%" %hascover%–picture="%coverfile%"%hascover% %source% -o %dest%


TOC of the extracted CD

Track | Start | Length | Start sector | End sector
––––––––––––––––––––––––––––-
1 | 0:00.00 | 1:58.12 | 0 | 8861
2 | 1:58.12 | 4:08.35 | 8862 | 27496
3 | 6:06.47 | 2:35.43 | 27497 | 39164
4 | 8:42.15 | 1:53.12 | 39165 | 47651
5 | 10:35.27 | 3:21.10 | 47652 | 62736
6 | 13:56.37 | 4:41.35 | 62737 | 83846
7 | 18:37.72 | 2:56.13 | 83847 | 97059
8 | 21:34.10 | 1:44.15 | 97060 | 104874
9 | 23:18.25 | 3:41.20 | 104875 | 121469
10 | 26:59.45 | 3:18.32 | 121470 | 136351
11 | 30:18.02 | 2:47.38 | 136352 | 148914
12 | 33:05.40 | 2:04.50 | 148915 | 158264
13 | 35:10.15 | 2:02.22 | 158265 | 167436
14 | 37:12.37 | 2:42.30 | 167437 | 179616
15 | 39:54.67 | 1:37.38 | 179617 | 186929
16 | 41:32.30 | 2:07.45 | 186930 | 196499
17 | 43:40.00 | 2:48.12 | 196500 | 209111
18 | 46:28.12 | 3:13.38 | 209112 | 223624
19 | 49:41.50 | 2:16.42 | 223625 | 233866
20 | 51:58.17 | 1:53.58 | 233867 | 242399


Range status and errors

Selected range

Filename D:\ArlegZ\Giovanni Antonini - Musica da Camera a Napoli.wav

Peak level 98.8 %
Extraction speed 1.7 X
Range quality 99.9 %
Test CRC C282641F
Copy CRC C282641F
Copy OK

No errors occurred


AccurateRip summary

Track 1 accurately ripped (confidence 45) [D53E83BF] (AR v2)
Track 2 accurately ripped (confidence 45) [BB52B680] (AR v2)
Track 3 accurately ripped (confidence 44) [7D566604] (AR v2)
Track 4 accurately ripped (confidence 43) [5C9E5F85] (AR v2)
Track 5 accurately ripped (confidence 45) [F678C167] (AR v2)
Track 6 accurately ripped (confidence 45) [6561EF8C] (AR v2)
Track 7 accurately ripped (confidence 45) [A3B23B45] (AR v2)
Track 8 accurately ripped (confidence 44) [EAB1740C] (AR v2)
Track 9 accurately ripped (confidence 44) [99FCD066] (AR v2)
Track 10 accurately ripped (confidence 44) [1EE1F9C4] (AR v2)
Track 11 accurately ripped (confidence 44) [13E7AE43] (AR v2)
Track 12 accurately ripped (confidence 44) [AA5C5578] (AR v2)
Track 13 accurately ripped (confidence 44) [F176113B] (AR v2)
Track 14 accurately ripped (confidence 44) [E7D86C99] (AR v2)
Track 15 accurately ripped (confidence 44) [AE0C1E48] (AR v2)
Track 16 accurately ripped (confidence 44) [F1B5D353] (AR v2)
Track 17 accurately ripped (confidence 44) [F86A5B6B] (AR v2)
Track 18 accurately ripped (confidence 44) [B63B45C8] (AR v2)
Track 19 accurately ripped (confidence 44) [4AD04DD7] (AR v2)
Track 20 accurately ripped (confidence 44) [255B50A8] (AR v2)

All tracks accurately ripped

End of status report

–– CUETools DB Plugin V2.1.6

[CTDB TOCID: l3a8qRK5rHz71cKR6y3UfySaTk0-] found
Submit result: l3a8qRK5rHz71cKR6y3UfySaTk0- has been confirmed
Track | CTDB Status
1 | (87/87) Accurately ripped
2 | (87/87) Accurately ripped
3 | (87/87) Accurately ripped
4 | (87/87) Accurately ripped
5 | (87/87) Accurately ripped
6 | (87/87) Accurately ripped
7 | (87/87) Accurately ripped
8 | (87/87) Accurately ripped
9 | (87/87) Accurately ripped
10 | (87/87) Accurately ripped
11 | (87/87) Accurately ripped
12 | (87/87) Accurately ripped
13 | (87/87) Accurately ripped
14 | (87/87) Accurately ripped
15 | (87/87) Accurately ripped
16 | (87/87) Accurately ripped
17 | (86/87) Accurately ripped
18 | (86/87) Accurately ripped
19 | (86/87) Accurately ripped
20 | (86/87) Accurately ripped


==== Log checksum C935770E686BE2E7BA4C983D0EC1C35B72C204E97B6D832909EE45A61663E115 ====


Exact Audio Copy V1.6 from 23. October 2020

EAC extraction logfile from 28. February 2022, 18:10

Il Giardino Armonico, Giovanni Antonini / Christmas Concertos

Used drive : PIONEER DVD-RW DVR-218L Adapter: 1 ID: 0

Read mode : Secure
Utilize accurate stream : Yes
Defeat audio cache : Yes
Make use of C2 pointers : No

Read offset correction : 6
Overread into Lead-In and Lead-Out : No
Fill up missing offset samples with silence : Yes
Delete leading and trailing silent blocks : No
Null samples used in CRC calculations : Yes
Used interface : Native Win32 interface for Win NT & 2000

Used output format : User Defined Encoder
Selected bitrate : 768 kBit/s
Quality : High
Add ID3 tag : No
Command line compressor : C:\Program Files\Exact Audio Copy\FLAC\FLAC.EXE
Additional command line options : -6 -V -T "ARTIST=%artist%" -T "TITLE=%title%" -T "ALBUM=%albumtitle%" -T "DATE=%year%" -T "TRACKNUMBER=%tracknr%" -T "GENRE=%genre%" -T "COMMENT=%comment%" -T "BAND=%albuminterpret%" -T "ALBUMARTIST=%albuminterpret%" -T "COMPOSER=%composer%" %haslyrics%–tag-from-file=LYRICS="%lyricsfile%"%haslyrics% -T "DISCNUMBER=%cdnumber%" -T "TOTALDISCS=%totalcds%" -T "TOTALTRACKS=%numtracks%" %hascover%–picture="%coverfile%"%hascover% %source% -o %dest%


TOC of the extracted CD

Track | Start | Length | Start sector | End sector
––––––––––––––––––––––––––––-
1 | 0:00.32 | 1:30.13 | 32 | 6794
2 | 1:30.45 | 2:20.50 | 6795 | 17344
3 | 3:51.20 | 2:40.15 | 17345 | 29359
4 | 6:31.35 | 1:00.52 | 29360 | 33911
5 | 7:32.12 | 2:02.03 | 33912 | 43064
6 | 9:34.15 | 3:21.32 | 43065 | 58171
7 | 12:55.47 | 3:48.28 | 58172 | 75299
8 | 16:44.00 | 1:18.07 | 75300 | 81156
9 | 18:02.07 | 2:43.65 | 81157 | 93446
10 | 20:45.72 | 2:15.48 | 93447 | 103619
11 | 23:01.45 | 1:56.27 | 103620 | 112346
12 | 24:57.72 | 1:37.40 | 112347 | 119661
13 | 26:35.37 | 2:47.30 | 119662 | 132216
14 | 29:22.67 | 1:20.33 | 132217 | 138249
15 | 30:43.25 | 3:50.02 | 138250 | 155501
16 | 34:33.27 | 1:09.13 | 155502 | 160689
17 | 35:42.40 | 2:34.47 | 160690 | 172286
18 | 38:17.12 | 1:22.55 | 172287 | 178491
19 | 39:39.67 | 2:28.15 | 178492 | 189606
20 | 42:08.07 | 2:11.30 | 189607 | 199461
21 | 44:19.37 | 2:38.08 | 199462 | 211319
22 | 46:57.45 | 5:47.30 | 211320 | 237374
23 | 52:45.00 | 1:27.30 | 237375 | 243929
24 | 54:12.30 | 3:27.52 | 243930 | 259506
25 | 57:40.07 | 1:54.53 | 259507 | 268109
26 | 59:34.60 | 2:10.15 | 268110 | 277874


Range status and errors

Selected range

Filename D:\ArlegZ\Giovanni Antonini - Christmas Concertos.wav

Peak level 100.0 %
Extraction speed 2.0 X
Range quality 100.0 %
Test CRC AF946661
Copy CRC AF946661
Copy OK

No errors occurred


AccurateRip summary

Track 1 accurately ripped (confidence 42) [E259216B] (AR v2)
Track 2 accurately ripped (confidence 42) [66F0ED79] (AR v2)
Track 3 accurately ripped (confidence 42) [0A7EA84C] (AR v2)
Track 4 accurately ripped (confidence 42) [FB4D2B02] (AR v2)
Track 5 accurately ripped (confidence 42) [34EAE216] (AR v2)
Track 6 accurately ripped (confidence 42) [E49968C0] (AR v2)
Track 7 accurately ripped (confidence 42) [A3533154] (AR v2)
Track 8 accurately ripped (confidence 42) [22EA5CF6] (AR v2)
Track 9 accurately ripped (confidence 42) [952AF28D] (AR v2)
Track 10 accurately ripped (confidence 42) [CBDB2746] (AR v2)
Track 11 accurately ripped (confidence 42) [B39FF436] (AR v2)
Track 12 accurately ripped (confidence 42) [AC998A22] (AR v2)
Track 13 accurately ripped (confidence 42) [C48FD0BB] (AR v2)
Track 14 accurately ripped (confidence 41) [8341D013] (AR v2)
Track 15 accurately ripped (confidence 41) [EBD0A402] (AR v2)
Track 16 accurately ripped (confidence 41) [B24BE2DF] (AR v2)
Track 17 accurately ripped (confidence 42) [911E58F5] (AR v2)
Track 18 accurately ripped (confidence 42) [834A5197] (AR v2)
Track 19 accurately ripped (confidence 42) [1EF85E05] (AR v2)
Track 20 accurately ripped (confidence 42) [6B671A83] (AR v2)
Track 21 accurately ripped (confidence 42) [2355C59D] (AR v2)
Track 22 accurately ripped (confidence 42) [A00D8EF6] (AR v2)
Track 23 accurately ripped (confidence 41) [975EC187] (AR v2)
Track 24 accurately ripped (confidence 42) [FA02834A] (AR v2)
Track 25 accurately ripped (confidence 42) [2FAC9B6D] (AR v2)
Track 26 accurately ripped (confidence 42) [8DF26C9D] (AR v2)

All tracks accurately ripped

End of status report

–– CUETools DB Plugin V2.1.6

[CTDB TOCID: eMyKg5ajCqSe9T4XMC51lQxI7v4-] found
Submit result: eMyKg5ajCqSe9T4XMC51lQxI7v4- has been confirmed
Track | CTDB Status
1 | (69/71) Accurately ripped
2 | (70/71) Accurately ripped
3 | (70/71) Accurately ripped
4 | (70/71) Accurately ripped
5 | (70/71) Accurately ripped
6 | (70/71) Accurately ripped
7 | (70/71) Accurately ripped
8 | (70/71) Accurately ripped
9 | (70/71) Accurately ripped
10 | (70/71) Accurately ripped
11 | (70/71) Accurately ripped
12 | (70/71) Accurately ripped
13 | (70/71) Accurately ripped
14 | (70/71) Accurately ripped
15 | (70/71) Accurately ripped
16 | (70/71) Accurately ripped
17 | (70/71) Accurately ripped
18 | (70/71) Accurately ripped
19 | (70/71) Accurately ripped
20 | (70/71) Accurately ripped
21 | (70/71) Accurately ripped
22 | (70/71) Accurately ripped
23 | (70/71) Accurately ripped
24 | (69/71) Accurately ripped
25 | (70/71) Accurately ripped
26 | (69/71) Accurately ripped


==== Log checksum 95ABB9D28E46FA29BC9B1E39047AC36EFADE4F06F35244A260CC030645A74DC9 ====


Exact Audio Copy V1.6 from 23. October 2020

EAC extraction logfile from 28. February 2022, 19:16

Il Giardino Armonico, Giovanni Antonini / Vivaldi - Chamber Concertos

Used drive : PIONEER DVD-RW DVR-218L Adapter: 1 ID: 0

Read mode : Secure
Utilize accurate stream : Yes
Defeat audio cache : Yes
Make use of C2 pointers : No

Read offset correction : 6
Overread into Lead-In and Lead-Out : No
Fill up missing offset samples with silence : Yes
Delete leading and trailing silent blocks : No
Null samples used in CRC calculations : Yes
Used interface : Native Win32 interface for Win NT & 2000

Used output format : User Defined Encoder
Selected bitrate : 768 kBit/s
Quality : High
Add ID3 tag : No
Command line compressor : C:\Program Files\Exact Audio Copy\FLAC\FLAC.EXE
Additional command line options : -6 -V -T "ARTIST=%artist%" -T "TITLE=%title%" -T "ALBUM=%albumtitle%" -T "DATE=%year%" -T "TRACKNUMBER=%tracknr%" -T "GENRE=%genre%" -T "COMMENT=%comment%" -T "BAND=%albuminterpret%" -T "ALBUMARTIST=%albuminterpret%" -T "COMPOSER=%composer%" %haslyrics%–tag-from-file=LYRICS="%lyricsfile%"%haslyrics% -T "DISCNUMBER=%cdnumber%" -T "TOTALDISCS=%totalcds%" -T "TOTALTRACKS=%numtracks%" %hascover%–picture="%coverfile%"%hascover% %source% -o %dest%


TOC of the extracted CD

Track | Start | Length | Start sector | End sector
––––––––––––––––––––––––––––-
1 | 0:00.00 | 2:05.15 | 0 | 9389
2 | 2:05.15 | 2:06.55 | 9390 | 18894
3 | 4:11.70 | 1:53.62 | 18895 | 27431
4 | 6:05.57 | 1:44.13 | 27432 | 35244
5 | 7:49.70 | 1:20.17 | 35245 | 41261
6 | 9:10.12 | 1:07.28 | 41262 | 46314
7 | 10:17.40 | 1:56.35 | 46315 | 55049
8 | 12:14.00 | 2:41.40 | 55050 | 67164
9 | 14:55.40 | 3:21.15 | 67165 | 82254
10 | 18:16.55 | 3:16.65 | 82255 | 97019
11 | 21:33.45 | 2:13.55 | 97020 | 107049
12 | 23:47.25 | 9:39.37 | 107050 | 150511
13 | 33:26.62 | 3:00.53 | 150512 | 164064
14 | 36:27.40 | 2:55.55 | 164065 | 177244
15 | 39:23.20 | 1:48.42 | 177245 | 185386
16 | 41:11.62 | 3:24.18 | 185387 | 200704
17 | 44:36.05 | 2:38.55 | 200705 | 212609
18 | 47:14.60 | 3:43.02 | 212610 | 229336
19 | 50:57.62 | 2:54.28 | 229337 | 242414
20 | 53:52.15 | 2:18.47 | 242415 | 252811
21 | 56:10.62 | 2:50.28 | 252812 | 265589
22 | 59:01.15 | 2:10.07 | 265590 | 275346
23 | 61:11.22 | 3:09.15 | 275347 | 289536
24 | 64:20.37 | 2:26.38 | 289537 | 300524


Range status and errors

Selected range

Filename D:\ArlegZ\Giovanni Antonini - Vivaldi - Chamber Concertos.wav

Peak level 99.9 %
Extraction speed 2.1 X
Range quality 100.0 %
Test CRC 53682623
Copy CRC 53682623
Copy OK

No errors occurred


AccurateRip summary

Track 1 accurately ripped (confidence 46) [D4AA5205] (AR v2)
Track 2 accurately ripped (confidence 46) [6AC43B05] (AR v2)
Track 3 accurately ripped (confidence 46) [5F6551D3] (AR v2)
Track 4 accurately ripped (confidence 46) [8E9D3875] (AR v2)
Track 5 accurately ripped (confidence 46) [89B4D4DE] (AR v2)
Track 6 accurately ripped (confidence 46) [81A2A6D2] (AR v2)
Track 7 accurately ripped (confidence 46) [735FFD31] (AR v2)
Track 8 accurately ripped (confidence 44) [CD4F0BD0] (AR v2)
Track 9 accurately ripped (confidence 46) [1CAAD8D7] (AR v2)
Track 10 accurately ripped (confidence 46) [674B8D01] (AR v2)
Track 11 accurately ripped (confidence 46) [1B5A43F9] (AR v2)
Track 12 accurately ripped (confidence 46) [23AAAA43] (AR v2)
Track 13 accurately ripped (confidence 46) [5FBC5B65] (AR v2)
Track 14 accurately ripped (confidence 46) [7E216EBF] (AR v2)
Track 15 accurately ripped (confidence 46) [68A966BD] (AR v2)
Track 16 accurately ripped (confidence 45) [6584A982] (AR v2)
Track 17 accurately ripped (confidence 45) [6F539695] (AR v2)
Track 18 accurately ripped (confidence 45) [3172669C] (AR v2)
Track 19 accurately ripped (confidence 45) [4960A169] (AR v2)
Track 20 accurately ripped (confidence 45) [6639A99D] (AR v2)
Track 21 accurately ripped (confidence 45) [5DBD48BE] (AR v2)
Track 22 accurately ripped (confidence 46) [4F49ED5A] (AR v2)
Track 23 accurately ripped (confidence 46) [3A9263C0] (AR v2)
Track 24 accurately ripped (confidence 46) [91A2193D] (AR v2)

All tracks accurately ripped

End of status report

–– CUETools DB Plugin V2.1.6

[CTDB TOCID: A1XO0ceeMwLtEozqytIIsWSSBSM-] found
Submit result: A1XO0ceeMwLtEozqytIIsWSSBSM- has been confirmed
Track | CTDB Status
1 | (92/92) Accurately ripped
2 | (92/92) Accurately ripped
3 | (92/92) Accurately ripped
4 | (92/92) Accurately ripped
5 | (92/92) Accurately ripped
6 | (92/92) Accurately ripped
7 | (92/92) Accurately ripped
8 | (85/92) Accurately ripped
9 | (92/92) Accurately ripped
10 | (92/92) Accurately ripped
11 | (92/92) Accurately ripped
12 | (92/92) Accurately ripped
13 | (92/92) Accurately ripped
14 | (92/92) Accurately ripped
15 | (86/92) Accurately ripped, or (3/92) differs in 1 samples @01:40:37
16 | (92/92) Accurately ripped
17 | (92/92) Accurately ripped
18 | (92/92) Accurately ripped
19 | (92/92) Accurately ripped
20 | (92/92) Accurately ripped
21 | (92/92) Accurately ripped
22 | (92/92) Accurately ripped
23 | (92/92) Accurately ripped
24 | (92/92) Accurately ripped


==== Log checksum 9BA1276D3939229C05464C234D3DEDDEE469A3CFF77A9FFA1F862D2F9D355D31 ====


Exact Audio Copy V1.6 from 23. October 2020

EAC extraction logfile from 28. February 2022, 20:22

Il Giardino Armonico, Giovanni Antonini / Vivaldi - Double and Triple Concertos

Used drive : PIONEER DVD-RW DVR-218L Adapter: 1 ID: 0

Read mode : Secure
Utilize accurate stream : Yes
Defeat audio cache : Yes
Make use of C2 pointers : No

Read offset correction : 6
Overread into Lead-In and Lead-Out : No
Fill up missing offset samples with silence : Yes
Delete leading and trailing silent blocks : No
Null samples used in CRC calculations : Yes
Used interface : Native Win32 interface for Win NT & 2000

Used output format : User Defined Encoder
Selected bitrate : 768 kBit/s
Quality : High
Add ID3 tag : No
Command line compressor : C:\Program Files\Exact Audio Copy\FLAC\FLAC.EXE
Additional command line options : -6 -V -T "ARTIST=%artist%" -T "TITLE=%title%" -T "ALBUM=%albumtitle%" -T "DATE=%year%" -T "TRACKNUMBER=%tracknr%" -T "GENRE=%genre%" -T "COMMENT=%comment%" -T "BAND=%albuminterpret%" -T "ALBUMARTIST=%albuminterpret%" -T "COMPOSER=%composer%" %haslyrics%–tag-from-file=LYRICS="%lyricsfile%"%haslyrics% -T "DISCNUMBER=%cdnumber%" -T "TOTALDISCS=%totalcds%" -T "TOTALTRACKS=%numtracks%" %hascover%–picture="%coverfile%"%hascover% %source% -o %dest%


TOC of the extracted CD

Track | Start | Length | Start sector | End sector
––––––––––––––––––––––––––––-
1 | 0:00.00 | 4:31.22 | 0 | 20346
2 | 4:31.22 | 2:32.68 | 20347 | 31814
3 | 7:04.15 | 3:22.40 | 31815 | 47004
4 | 10:26.55 | 4:29.02 | 47005 | 67181
5 | 14:55.57 | 1:53.65 | 67182 | 75721
6 | 16:49.47 | 3:03.43 | 75722 | 89489
7 | 19:53.15 | 3:49.30 | 89490 | 106694
8 | 23:42.45 | 3:07.37 | 106695 | 120756
9 | 26:50.07 | 3:02.73 | 120757 | 134479
10 | 29:53.05 | 6:45.02 | 134480 | 164856
11 | 36:38.07 | 4:06.65 | 164857 | 183371
12 | 40:44.72 | 3:44.20 | 183372 | 200191
13 | 44:29.17 | 3:41.28 | 200192 | 216794
14 | 48:10.45 | 2:52.17 | 216795 | 229711
15 | 51:02.62 | 2:47.70 | 229712 | 242306
16 | 53:50.57 | 3:58.40 | 242307 | 260196
17 | 57:49.22 | 3:10.68 | 260197 | 274514
18 | 61:00.15 | 3:13.60 | 274515 | 289049


Range status and errors

Selected range

Filename D:\ArlegZ\Giovanni Antonini - Vivaldi - Double and Triple Concertos.wav

Peak level 98.7 %
Extraction speed 2.1 X
Range quality 100.0 %
Test CRC 6EF6149B
Copy CRC 6EF6149B
Copy OK

No errors occurred


AccurateRip summary

Track 1 accurately ripped (confidence 48) [5D911F5C] (AR v2)
Track 2 accurately ripped (confidence 48) [FE7258C3] (AR v2)
Track 3 accurately ripped (confidence 48) [C46C1885] (AR v2)
Track 4 accurately ripped (confidence 48) [18F18B7C] (AR v2)
Track 5 accurately ripped (confidence 48) [C4315F9D] (AR v2)
Track 6 accurately ripped (confidence 48) [8401E517] (AR v2)
Track 7 accurately ripped (confidence 49) [936173CB] (AR v2)
Track 8 accurately ripped (confidence 49) [910E0485] (AR v2)
Track 9 accurately ripped (confidence 49) [65C09C8B] (AR v2)
Track 10 accurately ripped (confidence 49) [32EAE08D] (AR v2)
Track 11 accurately ripped (confidence 49) [060A1E9A] (AR v2)
Track 12 accurately ripped (confidence 49) [87564F1A] (AR v2)
Track 13 accurately ripped (confidence 48) [119442B8] (AR v2)
Track 14 accurately ripped (confidence 48) [AB58394D] (AR v2)
Track 15 accurately ripped (confidence 48) [E2F692D4] (AR v2)
Track 16 accurately ripped (confidence 48) [DA5BD81D] (AR v2)
Track 17 accurately ripped (confidence 48) [9C4403C6] (AR v2)
Track 18 accurately ripped (confidence 48) [553D6487] (AR v2)

All tracks accurately ripped

End of status report

–– CUETools DB Plugin V2.1.6

[CTDB TOCID: FBLHvOLqK6s0TTKRbfbc9ryRObI-] found
Submit result: FBLHvOLqK6s0TTKRbfbc9ryRObI- has been confirmed
Track | CTDB Status
1 | (91/91) Accurately ripped
2 | (91/91) Accurately ripped
3 | (91/91) Accurately ripped
4 | (91/91) Accurately ripped
5 | (91/91) Accurately ripped
6 | (91/91) Accurately ripped
7 | (91/91) Accurately ripped
8 | (91/91) Accurately ripped
9 | (91/91) Accurately ripped
10 | (91/91) Accurately ripped
11 | (91/91) Accurately ripped
12 | (91/91) Accurately ripped
13 | (91/91) Accurately ripped
14 | (91/91) Accurately ripped
15 | (91/91) Accurately ripped
16 | (91/91) Accurately ripped
17 | (91/91) Accurately ripped
18 | (91/91) Accurately ripped


==== Log checksum 4CC279261BFC111AA7D659EB543FA24262A3FB686BDF09AC405484AEB891AD9B ====


Il Giardino Armonico, Giovanni Antonini: Bach, Biber, Corelli, Locke, Monteverdi, Rossi, Vivaldi [11CDs] (2006)