Tags
Language
Tags

Isle Of Wight Festival Greatest Hits (2020) [HDTV, 1080i]

Posted By: v3122
Isle Of Wight Festival Greatest Hits (2020) [HDTV, 1080i]

Isle Of Wight Festival Greatest Hits (2020)
6xTS: MPEG4 Video (H264) 1920x1080 25fps | AAC 48000Hz, 2ch, 216kbps
Rock, Pop | 01:34:32+02:25:01+01:33:36+02:24:55+01:34:38+02:20:47 | ~ 64.30 Gb

~ Fleetwood Mac, Amy Winehouse, Coldplay, Foo Fighters, JAY Z, Queen & Adam Lambert, Paul McCartney, Iggy Pop, David Bowie, Rod Stewart, Blondie … ~

The Isle of Wight Festival is a British music festival which takes place annually in Newport on the Isle of Wight, England. It was originally a counterculture event held from 1968 to 1970.

The 1970 event was by far the largest of these early festivals and the unexpectedly high attendance levels led, in 1971, to Parliament adding a section to the Isle of Wight County Council Act 1971 preventing overnight open-air gatherings of more than 5,000 people on the island without a special licence from the council. The event was revived in 2002…

~ wiki
Isle Of Wight Festival Greatest Hits (2020):

Episode 1:

Rudimental (2014)
Not Giving In
Free
Waiting All Night
Feel The Love

Groove Armada (2004)
Purple Haze
At The River
I See You Baby
Superstylin

Pharrell Williams (2015)
Rock Star
She Wants To Move
Blurred Lines
Get Lucky
Happy
Freedom

Kaiser Chiefs (2017)
Everyday I Love You Less And Less
Modern Way
Ruby
I Predict A Riot
Oh My God

General
ID : 1 (0x1)
Complete name : E:\Mix\VA - Isle Of Wight Festival Greatest Hit 2020\VA - Isle Of Wight Festival Greatest Hits Episode 1.ts
Format : MPEG-TS
File size : 8.32 GiB
Duration : 1h 34mn
Overall bit rate mode : Variable
Overall bit rate : 12.6 Mbps

Video
ID : 100 (0x64)
Menu ID : 2 (0x2)
Format : AVC
Format/Info : Advanced Video Codec
Format profile : High@L4.0
Format settings, CABAC : Yes
Format settings, ReFrames : 2 frames
Codec ID : 27
Duration : 1h 34mn
Bit rate : 11.8 Mbps
Width : 1 920 pixels
Height : 1 080 pixels
Display aspect ratio : 16:9
Frame rate : 25.000 fps
Color space : YUV
Chroma subsampling : 4:2:0
Bit depth : 8 bits
Scan type : Interlaced
Scan order : Top Field First
Bits/(Pixel*Frame) : 0.227
Stream size : 7.76 GiB (93%)
Color primaries : BT.709
Transfer characteristics : BT.709
Matrix coefficients : BT.709

Audio
ID : 101 (0x65)
Menu ID : 2 (0x2)
Format : AAC
Format/Info : Advanced Audio Codec
Format version : Version 4
Format profile : LC
Muxing mode : ADTS
Codec ID : 15
Duration : 1h 34mn
Bit rate mode : Variable
Bit rate : 219 Kbps
Channel(s) : 2 channels
Channel positions : Front: L R
Sampling rate : 48.0 KHz
Compression mode : Lossy
Stream size : 148 MiB (2%)



Episode 2:

George Ezra (2019)
Paradise
Dont Think Twice Its Alright
Blamet It On Me
Budapest
Shotgun

Liam Gallagher (2018)
Rock n Roll Star
Wall Of Glass
I Get By
Supersonic
Live Forever

Kasabian (2018)
Shoot The Runner
Eez-Eh
Club Foot
Empire
Fire

Snow Patrol (2007)
Open Your Eves
Chasing Cars
Set The Fire To The Third Bar
Run
Youre All I Have

Faithless (2005)
Reverence
Insomnia
Mass Destruction
We Come 1

Fatboy Slim (2019)

General
ID : 1 (0x1)
Complete name : E:\Mix\VA - Isle Of Wight Festival Greatest Hit 2020\VA - Isle Of Wight Festival Greatest Hits Episode 2.ts
Format : MPEG-TS
File size : 12.8 GiB
Duration : 2h 25mn
Overall bit rate mode : Variable
Overall bit rate : 12.6 Mbps

Video
ID : 100 (0x64)
Menu ID : 2 (0x2)
Format : AVC
Format/Info : Advanced Video Codec
Format profile : High@L4.0
Format settings, CABAC : Yes
Format settings, ReFrames : 2 frames
Codec ID : 27
Duration : 2h 25mn
Bit rate : 11.8 Mbps
Width : 1 920 pixels
Height : 1 080 pixels
Display aspect ratio : 16:9
Frame rate : 25.000 fps
Color space : YUV
Chroma subsampling : 4:2:0
Bit depth : 8 bits
Scan type : Interlaced
Scan order : Top Field First
Bits/(Pixel*Frame) : 0.227
Stream size : 11.9 GiB (93%)
Color primaries : BT.709
Transfer characteristics : BT.709
Matrix coefficients : BT.709

Audio
ID : 101 (0x65)
Menu ID : 2 (0x2)
Format : AAC
Format/Info : Advanced Audio Codec
Format version : Version 4
Format profile : LC
Muxing mode : ADTS
Codec ID : 15
Duration : 2h 25mn
Bit rate mode : Variable
Bit rate : 219 Kbps
Channel(s) : 2 channels
Channel positions : Front: L R
Sampling rate : 48.0 KHz
Compression mode : Lossy
Stream size : 228 MiB (2%)



Episode 3:

Amy Winehouse (2007)
Tears Dry On Their Own
Back To Black
Valerie
Rehab
Monkey Man
You Know Im No Good

James (2019)
Sound
Sit Down
Come Home
Laid

Coldplay (2006)
Yellow
Clocks
In My Place
Fix You

Noel Gallagher’s High Flying Birds (2019)
Holy Mountain
Black Star Dancing
Aka…What A Life
Stop Crying Your Heart Out
Dont Look Back In Anger

General
ID : 1 (0x1)
Complete name : E:\Mix\VA - Isle Of Wight Festival Greatest Hit 2020\VA - Isle Of Wight Festival Greatest Hits Episode 3.ts
Format : MPEG-TS
File size : 8.24 GiB
Duration : 1h 33mn
Overall bit rate mode : Variable
Overall bit rate : 12.6 Mbps

Video
ID : 100 (0x64)
Menu ID : 2 (0x2)
Format : AVC
Format/Info : Advanced Video Codec
Format profile : High@L4.0
Format settings, CABAC : Yes
Format settings, ReFrames : 2 frames
Format settings, GOP : M=2, N=12
Codec ID : 27
Duration : 1h 33mn
Bit rate : 11.8 Mbps
Width : 1 920 pixels
Height : 1 080 pixels
Display aspect ratio : 16:9
Frame rate : 25.000 fps
Color space : YUV
Chroma subsampling : 4:2:0
Bit depth : 8 bits
Scan type : Interlaced
Scan order : Top Field First
Bits/(Pixel*Frame) : 0.227
Stream size : 7.69 GiB (93%)
Color primaries : BT.709
Transfer characteristics : BT.709
Matrix coefficients : BT.709

Audio
ID : 101 (0x65)
Menu ID : 2 (0x2)
Format : AAC
Format/Info : Advanced Audio Codec
Format version : Version 4
Format profile : LC
Muxing mode : ADTS
Codec ID : 15
Duration : 1h 33mn
Bit rate mode : Variable
Bit rate : 219 Kbps
Channel(s) : 2 channels
Channel positions : Front: L R
Sampling rate : 48.0 KHz
Compression mode : Lossy
Stream size : 147 MiB (2%)



Episode 4:

Foo Fighters (2006)
Best Of You
Monkey Wrench
All My Life
Breakout
Everlong

JAY Z (2010)
99 Problems
Empire State Of Mind
Dirt Off Your Shoulder
Hard Knock Life
Young Forever (with Mr. Yudson)
Run This Town

Queen & Adam Lambert (2016) + Fleetwood Mac (2015)
Who Wants To Live Eorever
Dont Stop Me Now
Radio Ga Ga

Fleetwood Mac
Little Lies
Go Your Own Way

R.E.M (2005)
Everybody Hurts
Losing My Religion
Nightswimming
Man On The Moon

Stereophonics (2016)
Maybe Tomorrow
Mr And Mrs Smith
Sunny
The Bartender And The Thief
Dakota

Paul McCartney (2010)
Venus And Mars/Rockshow
1985
Paperback Writer
Get Back
Helter Skelter
Hey Jude

General
ID : 1 (0x1)
Complete name : E:\Mix\VA - Isle Of Wight Festival Greatest Hit 2020\VA - Isle Of Wight Festival Greatest Hits Episode 4.ts
Format : MPEG-TS
File size : 12.8 GiB
Duration : 2h 24mn
Overall bit rate mode : Variable
Overall bit rate : 12.6 Mbps

Video
ID : 100 (0x64)
Menu ID : 2 (0x2)
Format : AVC
Format/Info : Advanced Video Codec
Format profile : High@L4.0
Format settings, CABAC : Yes
Format settings, ReFrames : 2 frames
Codec ID : 27
Duration : 2h 24mn
Bit rate : 11.8 Mbps
Width : 1 920 pixels
Height : 1 080 pixels
Display aspect ratio : 16:9
Frame rate : 25.000 fps
Color space : YUV
Chroma subsampling : 4:2:0
Bit depth : 8 bits
Scan type : Interlaced
Scan order : Top Field First
Bits/(Pixel*Frame) : 0.227
Stream size : 11.9 GiB (93%)
Color primaries : BT.709
Transfer characteristics : BT.709
Matrix coefficients : BT.709

Audio
ID : 101 (0x65)
Menu ID : 2 (0x2)
Format : AAC
Format/Info : Advanced Audio Codec
Format version : Version 4
Format profile : LC
Muxing mode : ADTS
Codec ID : 15
Duration : 2h 24mn
Bit rate mode : Variable
Bit rate : 219 Kbps
Channel(s) : 2 channels
Channel positions : Front: L R
Sampling rate : 48.0 KHz
Compression mode : Lossy
Stream size : 227 MiB (2%)



Episode 5:

Iggy Pop (2016)
The Passenger
Lust For Life
Real Wild Child (Wild Obe)
1969
I Wanna Be Your Dog

Simple Minds (2009)
Ghostdancing
Dont You (Forget About Me)
Promised You A Miracle
Someone Somewhere (In Summertime)
Alive & Kicking

Manic Street Preachers (2018)
Everything Must Go
Your Love Alone Is Not Enough
If You Tolerate This Your Children Will Be Next
You Love Us
A Desing For Life

Nile Rodgers and Chic (2018)
Upside Down
We Are Family
Get Lucky
Le Freak
Good Times

General
ID : 1 (0x1)
Complete name : E:\Mix\VA - Isle Of Wight Festival Greatest Hit 2020\VA - Isle Of Wight Festival Greatest Hits Episode 5.ts
Format : MPEG-TS
File size : 8.33 GiB
Duration : 1h 34mn
Overall bit rate mode : Variable
Overall bit rate : 12.6 Mbps

Video
ID : 100 (0x64)
Menu ID : 2 (0x2)
Format : AVC
Format/Info : Advanced Video Codec
Format profile : High@L4.0
Format settings, CABAC : Yes
Format settings, ReFrames : 2 frames
Codec ID : 27
Duration : 1h 34mn
Bit rate : 11.8 Mbps
Width : 1 920 pixels
Height : 1 080 pixels
Display aspect ratio : 16:9
Frame rate : 25.000 fps
Color space : YUV
Chroma subsampling : 4:2:0
Bit depth : 8 bits
Scan type : Interlaced
Scan order : Top Field First
Bits/(Pixel*Frame) : 0.227
Stream size : 7.77 GiB (93%)
Color primaries : BT.709
Transfer characteristics : BT.709
Matrix coefficients : BT.709

Audio
ID : 101 (0x65)
Menu ID : 2 (0x2)
Format : AAC
Format/Info : Advanced Audio Codec
Format version : Version 4
Format profile : LC
Muxing mode : ADTS
Codec ID : 15
Duration : 1h 34mn
Bit rate mode : Variable
Bit rate : 220 Kbps
Channel(s) : 2 channels
Channel positions : Front: L R
Sampling rate : 48.0 KHz
Compression mode : Lossy
Stream size : 149 MiB (2%)



Episode 6:

Kings of Leon (2014)
On Call
The Bucket
Mollys Chambers
Be Somebody
Use Somebody
Sex On Fire

David Bowie (2004)
Rebel Rebel
All The Young Dudes
The Loneliest Guy
Im Afraid Of Americans
Heroes

Rod Stewart (2017)
Maggie May
You Wear It Well
Baby Jane
I Dont Want To Talk About It
Saling

The Specials (2014)
Gangsters
Rat Race
Concrete Jungle
Ghost Town
A Message To You Rudy
Too Much Too Young

Blondie (2010)
Hanging On The Telephone
Maria
Atomic
Call Me
Heart Of Glass

Biffy Clyro (2019)
Mountains
Black Chandelier
That Golden Rule
Many Of Horror

General
ID : 1 (0x1)
Complete name : E:\Mix\VA - Isle Of Wight Festival Greatest Hit 2020\VA - Isle Of Wight Festival Greatest Hits Episode 6.ts
Format : MPEG-TS
File size : 12.4 GiB
Duration : 2h 20mn
Overall bit rate mode : Variable
Overall bit rate : 12.6 Mbps

Video
ID : 100 (0x64)
Menu ID : 2 (0x2)
Format : AVC
Format/Info : Advanced Video Codec
Format profile : High@L4.0
Format settings, CABAC : Yes
Format settings, ReFrames : 2 frames
Codec ID : 27
Duration : 2h 20mn
Bit rate : 11.8 Mbps
Width : 1 920 pixels
Height : 1 080 pixels
Display aspect ratio : 16:9
Frame rate : 25.000 fps
Color space : YUV
Chroma subsampling : 4:2:0
Bit depth : 8 bits
Scan type : Interlaced
Scan order : Top Field First
Bits/(Pixel*Frame) : 0.227
Stream size : 11.6 GiB (93%)
Color primaries : BT.709
Transfer characteristics : BT.709
Matrix coefficients : BT.709

Audio
ID : 101 (0x65)
Menu ID : 2 (0x2)
Format : AAC
Format/Info : Advanced Audio Codec
Format version : Version 4
Format profile : LC
Muxing mode : ADTS
Codec ID : 15
Duration : 2h 20mn
Bit rate mode : Variable
Bit rate : 220 Kbps
Channel(s) : 2 channels
Channel positions : Front: L R
Sampling rate : 48.0 KHz
Compression mode : Lossy
Stream size : 221 MiB (2%)



Isle Of Wight Festival Greatest Hits (2020) [HDTV, 1080i]

Isle Of Wight Festival Greatest Hits (2020) [HDTV, 1080i]

Isle Of Wight Festival Greatest Hits (2020) [HDTV, 1080i]

Isle Of Wight Festival Greatest Hits (2020) [HDTV, 1080i]

Isle Of Wight Festival Greatest Hits (2020) [HDTV, 1080i]

Isle Of Wight Festival Greatest Hits (2020) [HDTV, 1080i]

Isle Of Wight Festival Greatest Hits (2020) [HDTV, 1080i]

Isle Of Wight Festival Greatest Hits (2020) [HDTV, 1080i]

All thanks go to the original releaser

Isle Of Wight Festival in my Blog

Download Isle Of Wight Festival Greatest Hits (2020):