Subcategories

VA - It Was 40 Years Ago Today: Tribute To The Beatles (2004)

Posted By: v3122
VA - It Was 40 Years Ago Today: Tribute To The Beatles (2004)

VA - It Was 40 Years Ago Today: Tribute To The Beatles (2004)
EAC | Flac(Image) + Cue + Log & MP3 CBR 320Kbps
3CD | Bullseye, BLR-CD-4060 | ~ 1550 or 522 Mb | Scans(400dpi, jpg) -> 54 Mb
Pop Rock / Alternative Rock

An impressive and delightfully exhausting 50 tracks capture the spirit of the Beatles' music on this double-CD compilation that imitates The White Album in look, just as the immaculate Boston Does the Beatles double LP from 1988 did. There are so many highlights in the over 150 minutes of music (almost an hour more than the approximately 97-minute aforementioned Boston Does the Beatles) that it is hard to be fair to all involved by leaving out names, when so much of this is so very good. Jeremy Morris submits an authentic "It's All Too Much," while Al Kooper dramatically revises "Eleanor Rigby" to wonderful effect. (In fact, Kooper sounds like he's produced by John Cale and J.J. Cale with backing by the fellow whose name is always confused with Blood, Sweat & Tears' founder.) The booklet gives anecdotes on the material and/or describes how each individual Beatles songwriter got the inspiration – along with the release date and album where the material was originally launched. It might have been more fun to get some insight on those who contributed, and that information – strangely – is found on the label's website rather than inside the packaging. (Go to www.bullseyecanada.com/artists/TributeBeatles.htm on the www.bullseyecanada.com site to get the more extensive liners, which is important because on disc one a group called the First Time also covers "Eleanor Rigby," making for some confusion.) Andrew Gold of "Thank You for Being a Friend" fame shows up twice, once on "Lady Madonna" on disc one and again on the version of "Got to Get You into My Life" with Michael White on disc two. Jim Basnight's "Happiness Is a Warm Gun" is interesting, and one would be remiss not to acknowledge the merits of Dee Long of the band Klaatu on George Harrison's "Blue Jay Way," power poppers the Lackloves performing "Hey! Bulldog," a soft rocked-out "I Will" by Walter Clevenger & the Dairy Kings, and ex-Teenage Head Dave Rave on "Here Comes the Sun." "Eight Days a Week" comes by way of an Ontario band called the Deal, not to be confused with a group from Massachusetts that went by the same name (both have broken up), and on it goes. Tribute albums are one of the better ways to hear great musicians in the new millennium, and talent coordinator Gary Pig Gold along with producers Jaimie Vernon, Jim Hoeck, and co-producer Terry Draper (of Klaatu) and the others involved all get thumbs up for doing a superb job. Even the overrated Bob Segarini brings it home on a superior rendition of "And Your Bird Can Sing," credited to Godovitz & Segarini. It is one of three entries by Segarini, one on each disc. You read correctly – they actually have a third bonus CD available from the website. One of the better tribute projects you'll find, up there with Russ Regan's All This and World War II double-LP Beatles tribute/film soundtrack.

by Joe Viglione, AMG
The third CD was given away as a promo when the 2-CD was ordered via the label's online shop. ~ discogs

VA - It Was 40 Years Ago Today: Tribute To The Beatles (2004):

VA - It Was 40 Years Ago Today: Tribute To The Beatles (2004)

Tracklist CD1:

01. Trimatics – Sie Liebt Dich (Intro) (00:12)
02. Lolas – Good Morning, Good Morning (03:17)
03. The Dons – Savoy Truffle (04:03)
04. Alison Solo – Paperback Writer (02:27)
05. Helium Kids – Fixing A Hole (03:01)
06. Cadence – Drive My Car (03:35)
07. Stacey Wheal – Here, There And Everywhere (02:54)
08. Andrew Gold – Lady Madonna (02:18)
09. The First Time – Eleanor Rigby (03:51)
10. Tom Hooper – Long Long Long (04:04)
11. Frank Soda – I Feel Fine (02:22)
12. Eytan Mirsky – Don't Bother Me (02:53)
13. Sun PK – I'm Happy Just To Dance With You (02:30)
14. The Kings – For No One (02:13)
15. Goddo – You Can't Do That (03:13)
16. Jeff Jones – I've Just Seen A Face (02:10)
17. Cats & Dogs – Norwegian Wood (This Bird Has Flown) (04:09)
18. Dr. Lotech And Mrs. Hippie – Taxman (03:50)
19. Dee Long – Blue Jay Way (04:38)
20. Rockbeach – The Fool On The Hill (02:40)
21. Eight Seconds – Hey Jude (05:59)
22. The Lackloves – Hey! Bulldog (03:14)
23. Popdudes – Helter Skelter (02:57)
24. The Deal – Eight Days A Week (02:53)
25. The Dexters – I Want You (She's So Heavy) (01:00)

Exact Audio Copy V1.0 beta 3 from 29. August 2011

EAC extraction logfile from 11. June 2014, 18:36

Various / It Was 40 Years Ago Today [Disc1]

Used drive : HL-DT-STDVDRAM GSA-T40N Adapter: 1 ID: 0

Read mode : Secure
Utilize accurate stream : Yes
Defeat audio cache : Yes
Make use of C2 pointers : No

Read offset correction : 667
Overread into Lead-In and Lead-Out : No
Fill up missing offset samples with silence : Yes
Delete leading and trailing silent blocks : No
Null samples used in CRC calculations : Yes
Used interface : Native Win32 interface for Win NT & 2000
Gap handling : Appended to previous track

Used output format : User Defined Encoder
Selected bitrate : 1024 kBit/s
Quality : High
Add ID3 tag : No
Command line compressor : C:\Program Files\Exact Audio Copy\Flac\flac.exe
Additional command line options : -8 -V -T "ARTIST=%artist%" -T "TITLE=%title%" -T "ALBUM=%albumtitle%" -T "DATE=%year%" -T "TRACKNUMBER=%tracknr%" -T "GENRE=%genre%" -T "PERFORMER=%albuminterpret%" -T "COMPOSER=%composer%" %haslyrics%–tag-from-file=LYRICS="%lyricsfile%"%haslyrics% -T "ALBUMARTIST=%albumartist%" -T "ALBUM ARTIST=%albumartist%" -T "DISCNUMBER=%cdnumber%" -T "TOTALDISCS=%totalcds%" -T "TOTALTRACKS=%numtracks%" -T "COMMENT=EAC V1.0 beta 2, Secure Mode, Test & Copy, AccurateRip, FLAC -8" %source% -o %dest%


TOC of the extracted CD

Track | Start | Length | Start sector | End sector
––––––––––––––––––––––––––––-
1 | 0:00.00 | 0:12.25 | 0 | 924
2 | 0:12.25 | 3:17.03 | 925 | 15702
3 | 3:29.28 | 4:02.64 | 15703 | 33916
4 | 7:32.17 | 2:26.45 | 33917 | 44911
5 | 9:58.62 | 3:01.16 | 44912 | 58502
6 | 13:00.03 | 3:35.11 | 58503 | 74638
7 | 16:35.14 | 2:54.29 | 74639 | 87717
8 | 19:29.43 | 2:18.09 | 87718 | 98076
9 | 21:47.52 | 3:50.47 | 98077 | 115373
10 | 25:38.24 | 4:03.47 | 115374 | 133645
11 | 29:41.71 | 2:22.15 | 133646 | 144310
12 | 32:04.11 | 2:53.29 | 144311 | 157314
13 | 34:57.40 | 2:30.08 | 157315 | 168572
14 | 37:27.48 | 2:13.15 | 168573 | 178562
15 | 39:40.63 | 3:12.62 | 178563 | 193024
16 | 42:53.50 | 2:09.57 | 193025 | 202756
17 | 45:03.32 | 4:08.44 | 202757 | 221400
18 | 49:12.01 | 3:49.43 | 221401 | 238618
19 | 53:01.44 | 4:38.03 | 238619 | 259471
20 | 57:39.47 | 2:39.61 | 259472 | 271457
21 | 60:19.33 | 5:59.18 | 271458 | 298400
22 | 66:18.51 | 3:14.20 | 298401 | 312970
23 | 69:32.71 | 2:57.36 | 312971 | 326281
24 | 72:30.32 | 2:52.50 | 326282 | 339231
25 | 75:23.07 | 0:59.40 | 339232 | 343696


Track 1

Filename E:\Video\Audio\[01] Trimatics - Sie Liebt Dich (intro).wav

Pre-gap length 0:00:02.00

Peak level 39.1 %
Extraction speed 0.6 X
Track quality 100.0 %
Test CRC 320D7D5C
Copy CRC 320D7D5C
Accurately ripped (confidence 2) [07FB8B3C] (AR v1)
Copy OK

Track 2

Filename E:\Video\Audio\[02] Lolas - Good Morning, Good Morning.wav

Peak level 88.4 %
Extraction speed 2.4 X
Track quality 100.0 %
Test CRC BF80D836
Copy CRC BF80D836
Accurately ripped (confidence 2) [54F6408F] (AR v1)
Copy OK

Track 3

Filename E:\Video\Audio\[03] The Dons - Savoy Truffle.wav

Peak level 80.5 %
Extraction speed 2.6 X
Track quality 100.0 %
Test CRC 377742D1
Copy CRC 377742D1
Accurately ripped (confidence 2) [AA14BAAE] (AR v1)
Copy OK

Track 4

Filename E:\Video\Audio\[04] Alison Solo - Paperback Writer.wav

Peak level 84.2 %
Extraction speed 2.5 X
Track quality 100.0 %
Test CRC FD8421FD
Copy CRC FD8421FD
Accurately ripped (confidence 2) [D78B408C] (AR v1)
Copy OK

Track 5

Filename E:\Video\Audio\[05] Helium Kids - Fixing A Hole.wav

Peak level 89.7 %
Extraction speed 2.8 X
Track quality 100.0 %
Test CRC A0ABAF79
Copy CRC A0ABAF79
Accurately ripped (confidence 2) [6E9AB50E] (AR v1)
Copy OK

Track 6

Filename E:\Video\Audio\[06] Cadence - Drive My Car.wav

Peak level 81.1 %
Extraction speed 2.7 X
Track quality 99.9 %
Test CRC 9E9F52AA
Copy CRC 9E9F52AA
Accurately ripped (confidence 2) [6253B7D4] (AR v1)
Copy OK

Track 7

Filename E:\Video\Audio\[07] Stacey Wheal - Here, There And Everywhere.wav

Peak level 73.5 %
Extraction speed 3.1 X
Track quality 100.0 %
Test CRC 665690C2
Copy CRC 665690C2
Accurately ripped (confidence 2) [8217D31F] (AR v1)
Copy OK

Track 8

Filename E:\Video\Audio\[08] Andrew Gold - Lady Madonna.wav

Peak level 84.3 %
Extraction speed 2.5 X
Track quality 99.9 %
Test CRC 1561B13D
Copy CRC 1561B13D
Accurately ripped (confidence 2) [31338740] (AR v1)
Copy OK

Track 9

Filename E:\Video\Audio\[09] The First Time - Eleanor Rigby.wav

Peak level 80.0 %
Extraction speed 3.4 X
Track quality 100.0 %
Test CRC 4C7819BA
Copy CRC 4C7819BA
Accurately ripped (confidence 2) [30EBE136] (AR v1)
Copy OK

Track 10

Filename E:\Video\Audio\[10] Tom Hooper - Long Long Long.wav

Peak level 79.6 %
Extraction speed 3.6 X
Track quality 100.0 %
Test CRC 6E0A0D96
Copy CRC 6E0A0D96
Accurately ripped (confidence 2) [2A16C1FA] (AR v1)
Copy OK

Track 11

Filename E:\Video\Audio\[11] Frank Soda - I Feel Fine.wav

Peak level 82.2 %
Extraction speed 3.5 X
Track quality 100.0 %
Test CRC 8652360B
Copy CRC 8652360B
Accurately ripped (confidence 2) [C1DEB876] (AR v1)
Copy OK

Track 12

Filename E:\Video\Audio\[12] Eytan Mirsky - Don't Bother Me.wav

Peak level 81.5 %
Extraction speed 3.6 X
Track quality 100.0 %
Test CRC 0DAF7CDE
Copy CRC 0DAF7CDE
Accurately ripped (confidence 2) [C24503AE] (AR v1)
Copy OK

Track 13

Filename E:\Video\Audio\[13] Sun PK - I'm Happy Just To Dance With You.wav

Peak level 90.0 %
Extraction speed 3.6 X
Track quality 100.0 %
Test CRC 3EC43942
Copy CRC 3EC43942
Accurately ripped (confidence 2) [F4A276DD] (AR v1)
Copy OK

Track 14

Filename E:\Video\Audio\[14] The Kings - For No One.wav

Peak level 80.3 %
Extraction speed 3.6 X
Track quality 100.0 %
Test CRC 227C3A94
Copy CRC 227C3A94
Accurately ripped (confidence 2) [85CBDDA8] (AR v1)
Copy OK

Track 15

Filename E:\Video\Audio\[15] Godo - You Can't Do That.wav

Peak level 90.3 %
Extraction speed 3.8 X
Track quality 100.0 %
Test CRC E1B43CBF
Copy CRC E1B43CBF
Accurately ripped (confidence 2) [FFBDD9F1] (AR v1)
Copy OK

Track 16

Filename E:\Video\Audio\[16] Jeff Jones - I've Just Seen A Face.wav

Peak level 84.5 %
Extraction speed 3.6 X
Track quality 100.0 %
Test CRC F1BFF4EB
Copy CRC F1BFF4EB
Accurately ripped (confidence 2) [A01A4C41] (AR v1)
Copy OK

Track 17

Filename E:\Video\Audio\[17] Cats & Dogs - Norwegian Wood.wav

Peak level 85.6 %
Extraction speed 4.2 X
Track quality 100.0 %
Test CRC F310C21C
Copy CRC F310C21C
Accurately ripped (confidence 2) [C6CC64E0] (AR v1)
Copy OK

Track 18

Filename E:\Video\Audio\[18] Dr. Lotech with Mrs. Hippie - Taxman.wav

Peak level 88.3 %
Extraction speed 4.3 X
Track quality 100.0 %
Test CRC 74044E70
Copy CRC 74044E70
Accurately ripped (confidence 2) [2559DAFA] (AR v1)
Copy OK

Track 19

Filename E:\Video\Audio\[19] Dee Long - Blue Jay Way.wav

Peak level 89.0 %
Extraction speed 4.4 X
Track quality 100.0 %
Test CRC 00740B5D
Copy CRC 00740B5D
Accurately ripped (confidence 2) [779888AC] (AR v1)
Copy OK

Track 20

Filename E:\Video\Audio\[20] Rockbeach - Fool On The Hill.wav

Peak level 81.6 %
Extraction speed 4.1 X
Track quality 100.0 %
Test CRC 7B37437A
Copy CRC 7B37437A
Accurately ripped (confidence 2) [31705206] (AR v1)
Copy OK

Track 21

Filename E:\Video\Audio\[21] Eight Seconds - Hey Jude.wav

Peak level 81.1 %
Extraction speed 4.8 X
Track quality 100.0 %
Test CRC 6A091BEE
Copy CRC 6A091BEE
Accurately ripped (confidence 2) [792B29B0] (AR v1)
Copy OK

Track 22

Filename E:\Video\Audio\[22] The Lackloves - Hey Bulldog.wav

Peak level 100.0 %
Extraction speed 4.4 X
Track quality 100.0 %
Test CRC EBB58671
Copy CRC EBB58671
Accurately ripped (confidence 2) [2FB3D505] (AR v1)
Copy OK

Track 23

Filename E:\Video\Audio\[23] Popdudes - Helter Skelter.wav

Peak level 82.4 %
Extraction speed 4.5 X
Track quality 100.0 %
Test CRC 10ED03A2
Copy CRC 10ED03A2
Accurately ripped (confidence 2) [F6E61702] (AR v1)
Copy OK

Track 24

Filename E:\Video\Audio\[24] The Deal - Eight Days A Week.wav

Peak level 80.5 %
Extraction speed 4.7 X
Track quality 100.0 %
Test CRC 4E53F27F
Copy CRC 4E53F27F
Accurately ripped (confidence 2) [72858C83] (AR v1)
Copy OK

Track 25

Filename E:\Video\Audio\[25] The Dexters - I Want You (She's So Heavy).wav

Peak level 100.0 %
Extraction speed 3.6 X
Track quality 100.0 %
Test CRC 91010DC6
Copy CRC 91010DC6
Accurately ripped (confidence 2) [AB28249B] (AR v1)
Copy OK


All tracks accurately ripped

No errors occurred

End of status report

foobar2000 1.2.9 / Dynamic Range Meter 1.1.1
log date: 2015-02-26 23:58:32

––––––––––––––––––––––––––––––––––––––––
Analyzed: Alison Solo / It Was 40 Years Ago Today [Disc1] (1)
Andrew Gold / It Was 40 Years Ago Today [Disc1] (2)
––––––––––––––––––––––––––––––––––––––––

DR Peak RMS Duration Track
––––––––––––––––––––––––––––––––––––––––
DR7 -1.49 dB -9.29 dB 2:27 04-Paperback Writer
DR5 -1.48 dB -8.27 dB 2:18 08-Lady Madonna
––––––––––––––––––––––––––––––––––––––––

Number of tracks: 2
Official DR value: DR6

Samplerate: 44100 Hz
Channels: 2
Bits per sample: 16
Bitrate: 946 kbps
Codec: FLAC
================================================================================

––––––––––––––––––––––––––––––––––––––––
Analyzed: Cadence / It Was 40 Years Ago Today [Disc1] (1)
Cats & Dogs / It Was 40 Years Ago Today [Disc1] (2)
Dee Long / It Was 40 Years Ago Today [Disc1] (3)
––––––––––––––––––––––––––––––––––––––––

DR Peak RMS Duration Track
––––––––––––––––––––––––––––––––––––––––
DR6 -1.81 dB -10.66 dB 3:35 06-Drive My Car
DR5 -1.34 dB -8.10 dB 4:09 17-Norwegian Wood
DR6 -1.01 dB -9.01 dB 4:38 19-Blue Jay Way
––––––––––––––––––––––––––––––––––––––––

Number of tracks: 3
Official DR value: DR6

Samplerate: 44100 Hz
Channels: 2
Bits per sample: 16
Bitrate: 946 kbps
Codec: FLAC
================================================================================

––––––––––––––––––––––––––––––––––––––––
Analyzed: Dr. Lotech with Mrs. Hippie / It Was 40 Years Ago Today [Disc1] (1)
Eight Seconds / It Was 40 Years Ago Today [Disc1] (2)
––––––––––––––––––––––––––––––––––––––––

DR Peak RMS Duration Track
––––––––––––––––––––––––––––––––––––––––
DR11 -1.07 dB -13.79 dB 3:50 18-Taxman
DR7 -1.81 dB -10.74 dB 5:59 21-Hey Jude
––––––––––––––––––––––––––––––––––––––––

Number of tracks: 2
Official DR value: DR9

Samplerate: 44100 Hz
Channels: 2
Bits per sample: 16
Bitrate: 946 kbps
Codec: FLAC
================================================================================

––––––––––––––––––––––––––––––––––––––––
Statistics for: 12-Don't Bother Me
Number of samples: 7646352
Duration: 2:53
––––––––––––––––––––––––––––––––––––––––

Left Right

Peak Value: -1.86 dB –- -1.78 dB
Avg RMS: -10.27 dB –- -10.51 dB
DR channel: 7.18 dB –- 7.38 dB
––––––––––––––––––––––––––––––––––––––––

Official DR Value: DR7

Samplerate: 44100 Hz
Channels: 2
Bits per sample: 16
Bitrate: 946 kbps
Codec: FLAC
================================================================================
––––––––––––––––––––––––––––––––––––––––
Analyzed: Frank Soda / It Was 40 Years Ago Today [Disc1] (1)
Godo / It Was 40 Years Ago Today [Disc1] (2)
––––––––––––––––––––––––––––––––––––––––

DR Peak RMS Duration Track
––––––––––––––––––––––––––––––––––––––––
DR6 -1.70 dB -9.47 dB 2:22 11-I Feel Fine
DR10 -0.88 dB -11.83 dB 3:13 15-You Can't Do That
––––––––––––––––––––––––––––––––––––––––

Number of tracks: 2
Official DR value: DR8

Samplerate: 44100 Hz
Channels: 2
Bits per sample: 16
Bitrate: 946 kbps
Codec: FLAC
================================================================================

––––––––––––––––––––––––––––––––––––––––
Analyzed: Helium Kids / It Was 40 Years Ago Today [Disc1] (1)
Jeff Jones / It Was 40 Years Ago Today [Disc1] (2)
––––––––––––––––––––––––––––––––––––––––

DR Peak RMS Duration Track
––––––––––––––––––––––––––––––––––––––––
DR6 -0.94 dB -8.92 dB 3:01 05-Fixing A Hole
DR6 -1.46 dB -9.46 dB 2:10 16-I've Just Seen A Face
––––––––––––––––––––––––––––––––––––––––

Number of tracks: 2
Official DR value: DR6

Samplerate: 44100 Hz
Channels: 2
Bits per sample: 16
Bitrate: 946 kbps
Codec: FLAC
================================================================================

––––––––––––––––––––––––––––––––––––––––
Analyzed: Lolas / It Was 40 Years Ago Today [Disc1] (1)
Popdudes / It Was 40 Years Ago Today [Disc1] (2)
––––––––––––––––––––––––––––––––––––––––

DR Peak RMS Duration Track
––––––––––––––––––––––––––––––––––––––––
DR4 -1.07 dB -6.45 dB 3:17 02-Good Morning, Good Morning
DR5 -1.68 dB -7.23 dB 2:57 23-Helter Skelter
––––––––––––––––––––––––––––––––––––––––

Number of tracks: 2
Official DR value: DR4

Samplerate: 44100 Hz
Channels: 2
Bits per sample: 16
Bitrate: 946 kbps
Codec: FLAC
================================================================================

––––––––––––––––––––––––––––––––––––––––
Statistics for: 20-Fool On The Hill
Number of samples: 7047768
Duration: 2:40
––––––––––––––––––––––––––––––––––––––––

Left Right

Peak Value: -1.85 dB –- -1.76 dB
Avg RMS: -8.49 dB –- -8.56 dB
DR channel: 4.44 dB –- 4.59 dB
––––––––––––––––––––––––––––––––––––––––

Official DR Value: DR5

Samplerate: 44100 Hz
Channels: 2
Bits per sample: 16
Bitrate: 946 kbps
Codec: FLAC
================================================================================
––––––––––––––––––––––––––––––––––––––––
Analyzed: Stacey Wheal / It Was 40 Years Ago Today [Disc1] (1)
Sun PK / It Was 40 Years Ago Today [Disc1] (2)
The Deal / It Was 40 Years Ago Today [Disc1] (3)
The Dexters / It Was 40 Years Ago Today [Disc1] (4)
––––––––––––––––––––––––––––––––––––––––

DR Peak RMS Duration Track
––––––––––––––––––––––––––––––––––––––––
DR9 -2.67 dB -15.32 dB 2:54 07-Here, There And Everywhere
DR7 -0.91 dB -9.14 dB 2:30 13-I'm Happy Just To Dance With You
DR6 -1.87 dB -9.23 dB 2:53 24-Eight Days A Week
DR10 0.00 dB -13.15 dB 1:00 25-I Want You (She's So Heavy)
––––––––––––––––––––––––––––––––––––––––

Number of tracks: 4
Official DR value: DR8

Samplerate: 44100 Hz
Channels: 2
Bits per sample: 16
Bitrate: 946 kbps
Codec: FLAC
================================================================================

––––––––––––––––––––––––––––––––––––––––
Analyzed: The Dons / It Was 40 Years Ago Today [Disc1] (1)
The First Time / It Was 40 Years Ago Today [Disc1] (2)
The Kings / It Was 40 Years Ago Today [Disc1] (3)
The Lackloves / It Was 40 Years Ago Today [Disc1] (4)
––––––––––––––––––––––––––––––––––––––––

DR Peak RMS Duration Track
––––––––––––––––––––––––––––––––––––––––
DR5 -1.88 dB -7.94 dB 4:03 03-Savoy Truffle
DR6 -1.93 dB -9.24 dB 3:51 09-Eleanor Rigby
DR7 -1.90 dB -10.37 dB 2:13 14-For No One
DR6 0.00 dB -7.25 dB 3:14 22-Hey Bulldog
––––––––––––––––––––––––––––––––––––––––

Number of tracks: 4
Official DR value: DR6

Samplerate: 44100 Hz
Channels: 2
Bits per sample: 16
Bitrate: 946 kbps
Codec: FLAC
================================================================================

––––––––––––––––––––––––––––––––––––––––
Statistics for: 10-Long Long Long
Number of samples: 10743936
Duration: 4:04
––––––––––––––––––––––––––––––––––––––––

Left Right

Peak Value: -2.04 dB –- -1.97 dB
Avg RMS: -11.43 dB –- -11.41 dB
DR channel: 6.95 dB –- 6.92 dB
––––––––––––––––––––––––––––––––––––––––

Official DR Value: DR7

Samplerate: 44100 Hz
Channels: 2
Bits per sample: 16
Bitrate: 946 kbps
Codec: FLAC
================================================================================
––––––––––––––––––––––––––––––––––––––––
Statistics for: 01-Sie Liebt Dich (intro)
Number of samples: 543900
Duration: 0:12
––––––––––––––––––––––––––––––––––––––––

Left Right

Peak Value: -8.19 dB –- -8.15 dB
Avg RMS: -26.44 dB –- -25.09 dB
DR channel: 14.14 dB –- 13.55 dB
––––––––––––––––––––––––––––––––––––––––

Official DR Value: DR14

Samplerate: 44100 Hz
Channels: 2
Bits per sample: 16
Bitrate: 946 kbps
Codec: FLAC

[CUETools log; Date: 26.02.2015 23:58:56; Version: 2.1.4]
[CTDB TOCID: t6QHDeau.AtH5xUgy0Pctp6zMgQ-] disk not present in database.
[AccurateRip ID: 0041e903-04b96edf-6311e619] found.
Track [ CRC | V2 ] Status
01 [07fb8b3c|475d153f] (2+0/2) Accurately ripped
02 [54f6408f|8c208143] (2+0/2) Accurately ripped
03 [aa14baae|907cbebe] (2+0/2) Accurately ripped
04 [d78b408c|d1ad0587] (2+0/2) Accurately ripped
05 [6e9ab50e|fe442114] (2+0/2) Accurately ripped
06 [6253b7d4|cca799b7] (2+0/2) Accurately ripped
07 [8217d31f|bfc3aab1] (2+0/2) Accurately ripped
08 [31338740|8451ad7b] (2+0/2) Accurately ripped
09 [30ebe136|73367a38] (2+0/2) Accurately ripped
10 [2a16c1fa|8b1bd0af] (2+0/2) Accurately ripped
11 [c1deb876|717f5dfb] (2+0/2) Accurately ripped
12 [c24503ae|c445c97d] (2+0/2) Accurately ripped
13 [f4a276dd|bfbc0b4a] (2+0/2) Accurately ripped
14 [85cbdda8|9ae99c76] (2+0/2) Accurately ripped
15 [ffbdd9f1|0cc82110] (2+0/2) Accurately ripped
16 [a01a4c41|3ce0814e] (2+0/2) Accurately ripped
17 [c6cc64e0|3e49182e] (2+0/2) Accurately ripped
18 [2559dafa|22d5b0f6] (2+0/2) Accurately ripped
19 [779888ac|9d33d7d9] (2+0/2) Accurately ripped
20 [31705206|96651c64] (2+0/2) Accurately ripped
21 [792b29b0|471a73a3] (2+0/2) Accurately ripped
22 [2fb3d505|3252e1f6] (2+0/2) Accurately ripped
23 [f6e61702|2009f66f] (2+0/2) Accurately ripped
24 [72858c83|c9f8db2a] (2+0/2) Accurately ripped
25 [ab28249b|fcada42b] (2+0/2) Accurately ripped

Track Peak [ CRC32 ] [W/O NULL] [ LOG ]
– 100,0 [C61CB8F8] [021E28AA]
01 39,1 [320D7D5C] [B5A1FE53] CRC32
02 88,4 [BF80D836] [1BE792C5] CRC32
03 80,5 [377742D1] [309CF8F4] CRC32
04 84,2 [FD8421FD] [068C2832] CRC32
05 89,7 [A0ABAF79] [E00C5CD2] CRC32
06 81,1 [9E9F52AA] [CF89B77E] CRC32
07 73,5 [665690C2] [F98DF4AD] CRC32
08 84,3 [1561B13D] [E8A8C01B] CRC32
09 80,0 [4C7819BA] [4DACC038] CRC32
10 79,6 [6E0A0D96] [58C601EB] CRC32
11 82,2 [8652360B] [67EAA61E] CRC32
12 81,5 [0DAF7CDE] [0831CD64] CRC32
13 90,0 [3EC43942] [F1D0F27D] CRC32
14 80,3 [227C3A94] [7D4715E9] CRC32
15 90,3 [E1B43CBF] [80D87D95] CRC32
16 84,5 [F1BFF4EB] [8020E60A] CRC32
17 85,6 [F310C21C] [ADAB4DFD] CRC32
18 88,3 [74044E70] [DDDE52B1] CRC32
19 89,0 [00740B5D] [5AA27AF1] CRC32
20 81,6 [7B37437A] [2F5AFD25] CRC32
21 81,1 [6A091BEE] [8BB8446D] CRC32
22 100,0 [EBB58671] [72F96DD2] CRC32
23 82,4 [10ED03A2] [02C102CC] CRC32
24 80,5 [4E53F27F] [7922C95F] CRC32
25 100,0 [91010DC6] [52ED5D39] CRC32

VA - It Was 40 Years Ago Today: Tribute To The Beatles (2004)

Tracklist CD2:

01. Dave Rave & The Wretches – Here Comes The Sun (03:08)
02. Donkey – Because (01:06)
03. Receiver – Mean Mr. Mustard (01:33)
04. Steve Barton – She's Leaving Home (02:49)
05. Al Kooper – Eleanor Rigby (05:19)
06. Bentwood Rocker – It Won't Be Long (02:46)
07. Phil Vincent – Oh! Darling (02:57)
08. Godovitz & Segarini – And Your Bird Can Sing (02:14)
09. Phil Angotti – I'm Only Sleeping (03:16)
10. Neilson Hubbard – Julia (03:00)
11. Jim Basnight – Happiness Is A Warm Gun (02:45)
12. Jeremy Morris – It's All Too Much (06:12)
13. The Spongetones – Being For The Benefit Of Mr. Kite (02:39)
14. The Oohs – You're Gonna Lose That Girl (02:31)
15. Michael Carpenter – If I Needed Someone (03:38)
16. Geoff Gibbons – I Need You (03:32)
17. Barry Holdship – Cry Baby Cry (02:50)
18. Milk – Everybody's Got Something To Hide Except Me And My Monkey (02:39)
19. Michael White & Andrew Gold – Got To Get You Into My Life (02:27)
20. Walter Clevenger & The Dairy Kings – I Will (02:17)
21. Paul Myers – I Want To Tell You (03:28)
22. The Pozers – She Said She Said (02:27)
23. Bill Lloyd – Across The Universe (04:18)
24. Brian Gagnon – Golden Slumbers Medley (05:23)
25. Trimatics – Sie Liebt Dich (02:16)

Exact Audio Copy V1.0 beta 3 from 29. August 2011

EAC extraction logfile from 11. June 2014, 20:39

Various / It Was 40 Years Ago Today [Disc2]

Used drive : HL-DT-STDVDRAM GSA-T40N Adapter: 1 ID: 0

Read mode : Secure
Utilize accurate stream : Yes
Defeat audio cache : Yes
Make use of C2 pointers : No

Read offset correction : 667
Overread into Lead-In and Lead-Out : No
Fill up missing offset samples with silence : Yes
Delete leading and trailing silent blocks : No
Null samples used in CRC calculations : Yes
Used interface : Native Win32 interface for Win NT & 2000
Gap handling : Appended to previous track

Used output format : User Defined Encoder
Selected bitrate : 1024 kBit/s
Quality : High
Add ID3 tag : No
Command line compressor : C:\Program Files\Exact Audio Copy\Flac\flac.exe
Additional command line options : -8 -V -T "ARTIST=%artist%" -T "TITLE=%title%" -T "ALBUM=%albumtitle%" -T "DATE=%year%" -T "TRACKNUMBER=%tracknr%" -T "GENRE=%genre%" -T "PERFORMER=%albuminterpret%" -T "COMPOSER=%composer%" %haslyrics%–tag-from-file=LYRICS="%lyricsfile%"%haslyrics% -T "ALBUMARTIST=%albumartist%" -T "ALBUM ARTIST=%albumartist%" -T "DISCNUMBER=%cdnumber%" -T "TOTALDISCS=%totalcds%" -T "TOTALTRACKS=%numtracks%" -T "COMMENT=EAC V1.0 beta 2, Secure Mode, Test & Copy, AccurateRip, FLAC -8" %source% -o %dest%


TOC of the extracted CD

Track | Start | Length | Start sector | End sector
––––––––––––––––––––––––––––-
1 | 0:00.00 | 3:07.61 | 0 | 14085
2 | 3:07.61 | 1:03.30 | 14086 | 18840
3 | 4:11.16 | 1:32.08 | 18841 | 25748
4 | 5:43.24 | 2:48.61 | 25749 | 38409
5 | 8:32.10 | 5:16.55 | 38410 | 62164
6 | 13:48.65 | 2:45.18 | 62165 | 74557
7 | 16:34.08 | 3:01.65 | 74558 | 88197
8 | 19:35.73 | 2:10.73 | 88198 | 98020
9 | 21:46.71 | 3:12.66 | 98021 | 112486
10 | 24:59.62 | 3:00.28 | 112487 | 126014
11 | 28:00.15 | 2:41.46 | 126015 | 138135
12 | 30:41.61 | 6:09.08 | 138136 | 165818
13 | 36:50.69 | 2:36.37 | 165819 | 177555
14 | 39:27.31 | 2:29.20 | 177556 | 188750
15 | 41:56.51 | 3:35.09 | 188751 | 204884
16 | 45:31.60 | 3:29.06 | 204885 | 220565
17 | 49:00.66 | 2:47.70 | 220566 | 233160
18 | 51:48.61 | 2:34.41 | 233161 | 244751
19 | 54:23.27 | 2:24.70 | 244752 | 255621
20 | 56:48.22 | 2:14.51 | 255622 | 265722
21 | 59:02.73 | 3:25.03 | 265723 | 281100
22 | 62:28.01 | 2:26.28 | 281101 | 292078
23 | 64:54.29 | 4:17.07 | 292079 | 311360
24 | 69:11.36 | 5:20.40 | 311361 | 335400
25 | 74:32.01 | 2:53.41 | 335401 | 348416


Track 1

Filename E:\Video\Audio\[01] Dave Rave with The Wretches - Here Comes The Sun.wav

Pre-gap length 0:00:02.00

Peak level 81.6 %
Extraction speed 2.3 X
Track quality 100.0 %
Test CRC CA899296
Copy CRC CA899296
Accurately ripped (confidence 2) [E1D1224A] (AR v1)
Copy OK

Track 2

Filename E:\Video\Audio\[02] Donkey - Because.wav

Peak level 98.0 %
Extraction speed 1.3 X
Track quality 99.8 %
Test CRC 6A1AA0B9
Copy CRC 6A1AA0B9
Accurately ripped (confidence 2) [32603AA7] (AR v1)
Copy OK

Track 3

Filename E:\Video\Audio\[03] The Receiver - Mean Mr. Mustard.wav

Peak level 100.0 %
Extraction speed 2.1 X
Track quality 100.0 %
Test CRC 10FADB56
Copy CRC 10FADB56
Accurately ripped (confidence 2) [634D8FB9] (AR v1)
Copy OK

Track 4

Filename E:\Video\Audio\[04] Steve Barton - She's Leaving Home.wav

Peak level 99.8 %
Extraction speed 2.6 X
Track quality 100.0 %
Test CRC 5BA2A033
Copy CRC 5BA2A033
Accurately ripped (confidence 2) [0E61DA31] (AR v1)
Copy OK

Track 5

Filename E:\Video\Audio\[05] Al Kooper - Eleanor Rigby.wav

Peak level 99.8 %
Extraction speed 2.8 X
Track quality 99.9 %
Test CRC 8EDB390C
Copy CRC 8EDB390C
Accurately ripped (confidence 2) [7E0DF2CA] (AR v1)
Copy OK

Track 6

Filename E:\Video\Audio\[06] Brentwood Rocker - It Won't Be Long.wav

Peak level 83.1 %
Extraction speed 2.9 X
Track quality 100.0 %
Test CRC 27EDC9B2
Copy CRC 27EDC9B2
Accurately ripped (confidence 2) [E89262F8] (AR v1)
Copy OK

Track 7

Filename E:\Video\Audio\[07] Phil Vincent - Oh! Darling.wav

Peak level 90.1 %
Extraction speed 2.9 X
Track quality 100.0 %
Test CRC 5CB9B97E
Copy CRC 5CB9B97E
Accurately ripped (confidence 2) [44E2B3BA] (AR v1)
Copy OK

Track 8

Filename E:\Video\Audio\[08] Godovitz & Segarini - And Your Bird Can Sing.wav

Peak level 89.1 %
Extraction speed 3.0 X
Track quality 100.0 %
Test CRC 6026E615
Copy CRC 6026E615
Accurately ripped (confidence 1) [1222F45F] (AR v1)
Copy OK

Track 9

Filename E:\Video\Audio\[09] Phil Angotti - I'm Only Sleeping.wav

Peak level 91.7 %
Extraction speed 2.9 X
Track quality 99.9 %
Test CRC EAF341EB
Copy CRC EAF341EB
Accurately ripped (confidence 2) [8CBCA270] (AR v1)
Copy OK

Track 10

Filename E:\Video\Audio\[10] Neilson Hubbard - Julia.wav

Peak level 99.8 %
Extraction speed 3.5 X
Track quality 100.0 %
Test CRC C815611D
Copy CRC C815611D
Accurately ripped (confidence 2) [334EFB33] (AR v1)
Copy OK

Track 11

Filename E:\Video\Audio\[11] Jim Basnight - Happiness Is A Warm Gun.wav

Peak level 86.6 %
Extraction speed 3.4 X
Track quality 100.0 %
Test CRC 8219FFCC
Copy CRC 8219FFCC
Accurately ripped (confidence 2) [E4D7FC17] (AR v1)
Copy OK

Track 12

Filename E:\Video\Audio\[12] Jeremy Morris - It's All Too Much.wav

Peak level 87.3 %
Extraction speed 4.1 X
Track quality 100.0 %
Test CRC 5690A298
Copy CRC 5690A298
Accurately ripped (confidence 2) [ED5D1323] (AR v1)
Copy OK

Track 13

Filename E:\Video\Audio\[13] Spongetones - Being For The Benefit Of Mr. Kite!.wav

Peak level 89.1 %
Extraction speed 3.8 X
Track quality 100.0 %
Test CRC CD3535AE
Copy CRC CD3535AE
Accurately ripped (confidence 2) [47A66A2D] (AR v1)
Copy OK

Track 14

Filename E:\Video\Audio\[14] The Oohs - You're Gonna Lose That Girl.wav

Peak level 80.8 %
Extraction speed 3.7 X
Track quality 100.0 %
Test CRC C028C369
Copy CRC C028C369
Accurately ripped (confidence 2) [A49DC335] (AR v1)
Copy OK

Track 15

Filename E:\Video\Audio\[15] Michael Carpenter - If I Needed Someone.wav

Peak level 89.1 %
Extraction speed 3.6 X
Track quality 99.9 %
Test CRC F8402CEF
Copy CRC F8402CEF
Accurately ripped (confidence 2) [99216DA5] (AR v1)
Copy OK

Track 16

Filename E:\Video\Audio\[16] Geoff Gibbons - I Need You.wav

Peak level 80.2 %
Extraction speed 4.2 X
Track quality 100.0 %
Test CRC 06F64B95
Copy CRC 06F64B95
Accurately ripped (confidence 2) [D46F370E] (AR v1)
Copy OK

Track 17

Filename E:\Video\Audio\[17] Barry Holdship - Cry Baby Cry.wav

Peak level 81.3 %
Extraction speed 4.1 X
Track quality 100.0 %
Test CRC C5343C1B
Copy CRC C5343C1B
Accurately ripped (confidence 2) [AF727A9D] (AR v1)
Copy OK

Track 18

Filename E:\Video\Audio\[18] MILK - Everybody's Got Something To Hide.wav

Peak level 91.2 %
Extraction speed 4.1 X
Track quality 100.0 %
Test CRC 74FAC049
Copy CRC 74FAC049
Accurately ripped (confidence 2) [5A987663] (AR v1)
Copy OK

Track 19

Filename E:\Video\Audio\[19] Michael White & Andrew Gold - Got To Get You Into My Life.wav

Peak level 82.0 %
Extraction speed 4.1 X
Track quality 100.0 %
Test CRC C818FD39
Copy CRC C818FD39
Accurately ripped (confidence 2) [BB938F67] (AR v1)
Copy OK

Track 20

Filename E:\Video\Audio\[20] Walter Clevenger & The Dairy Kings - I Will.wav

Peak level 90.3 %
Extraction speed 4.1 X
Track quality 100.0 %
Test CRC 01175B15
Copy CRC 01175B15
Accurately ripped (confidence 2) [3DED64D0] (AR v1)
Copy OK

Track 21

Filename E:\Video\Audio\[21] Paul Myers - I Want To Tell You.wav

Peak level 83.2 %
Extraction speed 4.6 X
Track quality 100.0 %
Test CRC CAC3AC97
Copy CRC CAC3AC97
Accurately ripped (confidence 2) [7864E9FE] (AR v1)
Copy OK

Track 22

Filename E:\Video\Audio\[22] The Pozers - She Said, She Said.wav

Peak level 81.0 %
Extraction speed 4.1 X
Track quality 100.0 %
Test CRC 6569A9B4
Copy CRC 6569A9B4
Accurately ripped (confidence 2) [EF574A60] (AR v1)
Copy OK

Track 23

Filename E:\Video\Audio\[23] Bill Lloyd - Across The Universe.wav

Peak level 90.5 %
Extraction speed 4.4 X
Track quality 100.0 %
Test CRC 50621CD9
Copy CRC 50621CD9
Accurately ripped (confidence 2) [D15A13CC] (AR v1)
Copy OK

Track 24

Filename E:\Video\Audio\[24] Brian Gagnon - Golden Slumbers - Carry That Weight - The End.wav

Peak level 82.0 %
Extraction speed 4.1 X
Track quality 100.0 %
Test CRC 12EBC827
Copy CRC 12EBC827
Accurately ripped (confidence 2) [27938E91] (AR v1)
Copy OK

Track 25

Filename E:\Video\Audio\[25] Trimatics - Sie Liebt Dich.wav

Peak level 96.6 %
Extraction speed 4.4 X
Track quality 100.0 %
Test CRC 809156B5
Copy CRC 809156B5
Accurately ripped (confidence 2) [CFCAEC82] (AR v1)
Copy OK


All tracks accurately ripped

No errors occurred

End of status report

foobar2000 1.2.9 / Dynamic Range Meter 1.1.1
log date: 2015-02-26 23:59:04

––––––––––––––––––––––––––––––––––––––––
Analyzed: Al Kooper / It Was 40 Years Ago Today [Disc2] (1)
Barry Holdship / It Was 40 Years Ago Today [Disc2] (2)
Bill Lloyd / It Was 40 Years Ago Today [Disc2] (3)
––––––––––––––––––––––––––––––––––––––––

DR Peak RMS Duration Track
––––––––––––––––––––––––––––––––––––––––
DR7 -0.01 dB -8.46 dB 5:17 05-Eleanor Rigby
DR5 -1.80 dB -7.76 dB 2:48 17-Cry Baby Cry
DR9 -0.86 dB -11.76 dB 4:17 23-Across The Universe
––––––––––––––––––––––––––––––––––––––––

Number of tracks: 3
Official DR value: DR7

Samplerate: 44100 Hz
Channels: 2
Bits per sample: 16
Bitrate: 963 kbps
Codec: FLAC
================================================================================

––––––––––––––––––––––––––––––––––––––––
Analyzed: Brentwood Rocker / It Was 40 Years Ago Today [Disc2] (1)
Brian Gagnon / It Was 40 Years Ago Today [Disc2] (2)
––––––––––––––––––––––––––––––––––––––––

DR Peak RMS Duration Track
––––––––––––––––––––––––––––––––––––––––
DR7 -1.60 dB -9.82 dB 2:45 06-It Won't Be Long
DR6 -1.71 dB -9.27 dB 5:21 24-Golden Slumbers / Carry That Weight / The End
––––––––––––––––––––––––––––––––––––––––

Number of tracks: 2
Official DR value: DR6

Samplerate: 44100 Hz
Channels: 2
Bits per sample: 16
Bitrate: 963 kbps
Codec: FLAC
================================================================================

––––––––––––––––––––––––––––––––––––––––
Analyzed: Dave Rave with The Wretches / It Was 40 Years Ago Today [Disc2] (1)
Donkey / It Was 40 Years Ago Today [Disc2] (2)
Geoff Gibbons / It Was 40 Years Ago Today [Disc2] (3)
––––––––––––––––––––––––––––––––––––––––

DR Peak RMS Duration Track
––––––––––––––––––––––––––––––––––––––––
DR3 -1.76 dB -6.11 dB 3:08 01-Here Comes The Sun
DR10 -0.18 dB -13.28 dB 1:03 02-Because
DR5 -1.91 dB -8.46 dB 3:29 16-I Need You
––––––––––––––––––––––––––––––––––––––––

Number of tracks: 3
Official DR value: DR6

Samplerate: 44100 Hz
Channels: 2
Bits per sample: 16
Bitrate: 963 kbps
Codec: FLAC
================================================================================

––––––––––––––––––––––––––––––––––––––––
Analyzed: Godovitz & Segarini / It Was 40 Years Ago Today [Disc2] (1)
Jeremy Morris / It Was 40 Years Ago Today [Disc2] (2)
––––––––––––––––––––––––––––––––––––––––

DR Peak RMS Duration Track
––––––––––––––––––––––––––––––––––––––––
DR7 -1.00 dB -9.74 dB 2:11 08-And Your Bird Can Sing
DR4 -1.18 dB -7.25 dB 6:09 12-It's All Too Much
––––––––––––––––––––––––––––––––––––––––

Number of tracks: 2
Official DR value: DR6

Samplerate: 44100 Hz
Channels: 2
Bits per sample: 16
Bitrate: 963 kbps
Codec: FLAC
================================================================================

––––––––––––––––––––––––––––––––––––––––
Analyzed: Jim Basnight / It Was 40 Years Ago Today [Disc2] (1)
Michael Carpenter / It Was 40 Years Ago Today [Disc2] (2)
Michael White & Andrew Gold / It Was 40 Years Ago Today [Disc2] (3)
––––––––––––––––––––––––––––––––––––––––

DR Peak RMS Duration Track
––––––––––––––––––––––––––––––––––––––––
DR5 -1.25 dB -9.33 dB 2:42 11-Happiness Is A Warm Gun
DR9 -1.00 dB -11.82 dB 3:35 15-If I Needed Someone
DR9 -1.72 dB -13.16 dB 2:25 19-Got To Get You Into My Life
––––––––––––––––––––––––––––––––––––––––

Number of tracks: 3
Official DR value: DR8

Samplerate: 44100 Hz
Channels: 2
Bits per sample: 16
Bitrate: 963 kbps
Codec: FLAC
================================================================================

––––––––––––––––––––––––––––––––––––––––
Statistics for: 18-Everybody's Got Something To Hide
Number of samples: 6815508
Duration: 2:35
––––––––––––––––––––––––––––––––––––––––

Left Right

Peak Value: -0.80 dB –- -0.96 dB
Avg RMS: -9.51 dB –- -10.75 dB
DR channel: 6.90 dB –- 7.82 dB
––––––––––––––––––––––––––––––––––––––––

Official DR Value: DR7

Samplerate: 44100 Hz
Channels: 2
Bits per sample: 16
Bitrate: 963 kbps
Codec: FLAC
================================================================================
––––––––––––––––––––––––––––––––––––––––
Analyzed: Neilson Hubbard / It Was 40 Years Ago Today [Disc2] (1)
Paul Myers / It Was 40 Years Ago Today [Disc2] (2)
––––––––––––––––––––––––––––––––––––––––

DR Peak RMS Duration Track
––––––––––––––––––––––––––––––––––––––––
DR10 -0.01 dB -12.58 dB 3:00 10-Julia
DR3 -1.59 dB -5.99 dB 3:25 21-I Want To Tell You
––––––––––––––––––––––––––––––––––––––––

Number of tracks: 2
Official DR value: DR6

Samplerate: 44100 Hz
Channels: 2
Bits per sample: 16
Bitrate: 963 kbps
Codec: FLAC
================================================================================

––––––––––––––––––––––––––––––––––––––––
Statistics for: 09-I'm Only Sleeping
Number of samples: 8506008
Duration: 3:13
––––––––––––––––––––––––––––––––––––––––

Left Right

Peak Value: -1.01 dB –- -0.75 dB
Avg RMS: -8.91 dB –- -8.82 dB
DR channel: 6.50 dB –- 6.57 dB
––––––––––––––––––––––––––––––––––––––––

Official DR Value: DR7

Samplerate: 44100 Hz
Channels: 2
Bits per sample: 16
Bitrate: 963 kbps
Codec: FLAC
================================================================================
––––––––––––––––––––––––––––––––––––––––
Analyzed: Phil Vincent / It Was 40 Years Ago Today [Disc2] (1)
Spongetones / It Was 40 Years Ago Today [Disc2] (2)
––––––––––––––––––––––––––––––––––––––––

DR Peak RMS Duration Track
––––––––––––––––––––––––––––––––––––––––
DR8 -0.90 dB -10.87 dB 3:02 07-Oh! Darling
DR11 -1.00 dB -14.06 dB 2:36 13-Being For The Benefit Of Mr. Kite!
––––––––––––––––––––––––––––––––––––––––

Number of tracks: 2
Official DR value: DR10

Samplerate: 44100 Hz
Channels: 2
Bits per sample: 16
Bitrate: 963 kbps
Codec: FLAC
================================================================================

––––––––––––––––––––––––––––––––––––––––
Analyzed: Steve Barton / It Was 40 Years Ago Today [Disc2] (1)
The Oohs / It Was 40 Years Ago Today [Disc2] (2)
The Pozers / It Was 40 Years Ago Today [Disc2] (3)
––––––––––––––––––––––––––––––––––––––––

DR Peak RMS Duration Track
––––––––––––––––––––––––––––––––––––––––
DR8 -0.01 dB -9.19 dB 2:49 04-She's Leaving Home
DR6 -1.84 dB -8.75 dB 2:29 14-You're Gonna Lose That Girl
DR5 -1.82 dB -7.70 dB 2:26 22-She Said, She Said
––––––––––––––––––––––––––––––––––––––––

Number of tracks: 3
Official DR value: DR6

Samplerate: 44100 Hz
Channels: 2
Bits per sample: 16
Bitrate: 963 kbps
Codec: FLAC
================================================================================

––––––––––––––––––––––––––––––––––––––––
Analyzed: The Receiver / It Was 40 Years Ago Today [Disc2] (1)
Trimatics / It Was 40 Years Ago Today [Disc2] (2)
––––––––––––––––––––––––––––––––––––––––

DR Peak RMS Duration Track
––––––––––––––––––––––––––––––––––––––––
DR7 0.00 dB -7.08 dB 1:32 03-Mean Mr. Mustard
DR11 -0.30 dB -13.83 dB 2:54 25-Sie Liebt Dich
––––––––––––––––––––––––––––––––––––––––

Number of tracks: 2
Official DR value: DR9

Samplerate: 44100 Hz
Channels: 2
Bits per sample: 16
Bitrate: 963 kbps
Codec: FLAC
================================================================================

––––––––––––––––––––––––––––––––––––––––
Statistics for: 20-I Will
Number of samples: 5939388
Duration: 2:15
––––––––––––––––––––––––––––––––––––––––

Left Right

Peak Value: -0.89 dB –- -0.88 dB
Avg RMS: -12.10 dB –- -12.20 dB
DR channel: 10.52 dB –- 10.18 dB
––––––––––––––––––––––––––––––––––––––––

Official DR Value: DR10

Samplerate: 44100 Hz
Channels: 2
Bits per sample: 16
Bitrate: 963 kbps
Codec: FLAC

[CUETools log; Date: 26.02.2015 23:59:22; Version: 2.1.4]
[CTDB TOCID: B6m5NIkfJuM8oKyaq2q94G8Wyuw-] disk not present in database.
[AccurateRip ID: 0041f244-04b3c3cf-5d122519] found.
Track [ CRC | V2 ] Status
01 [e1d1224a|8510eb23] (2+0/2) Accurately ripped
02 [32603aa7|ffcfda5a] (2+0/2) Accurately ripped
03 [634d8fb9|d952f013] (2+0/2) Accurately ripped
04 [0e61da31|83fb5326] (2+0/2) Accurately ripped
05 [7e0df2ca|aa9142bc] (2+0/2) Accurately ripped
06 [e89262f8|66d92b27] (2+0/2) Accurately ripped
07 [44e2b3ba|a7ec4ee7] (2+0/2) Accurately ripped
08 [1222f45f|b8ab90ba] (1+0/2) Accurately ripped
09 [8cbca270|48560f07] (2+0/2) Accurately ripped
10 [334efb33|02984b0b] (2+0/2) Accurately ripped
11 [e4d7fc17|e95e7ec2] (2+0/2) Accurately ripped
12 [ed5d1323|a4d20d29] (2+0/2) Accurately ripped
13 [47a66a2d|7b9b4d37] (2+0/2) Accurately ripped
14 [a49dc335|b2a3f0e1] (2+0/2) Accurately ripped
15 [99216da5|9323c111] (2+0/2) Accurately ripped
16 [d46f370e|4cec3535] (2+0/2) Accurately ripped
17 [af727a9d|a3782726] (2+0/2) Accurately ripped
18 [5a987663|3428a60a] (2+0/2) Accurately ripped
19 [bb938f67|b7706049] (2+0/2) Accurately ripped
20 [3ded64d0|453865af] (2+0/2) Accurately ripped
21 [7864e9fe|b800a70c] (2+0/2) Accurately ripped
22 [ef574a60|411c71fb] (2+0/2) Accurately ripped
23 [d15a13cc|da322a71] (2+0/2) Accurately ripped
24 [27938e91|87779708] (2+0/2) Accurately ripped
25 [cfcaec82|fb8c06ba] (2+0/2) Accurately ripped
Offsetted by 6:
01 [b67f666a] (0/2) No match
02 [deecda78] (0/2) No match
03 [54e1482e] (0/2) No match
04 [2a7de88b] (0/2) No match
05 [8616ac16] (0/2) No match
06 [0388b25b] (0/2) No match
07 [0e37107d] (0/2) No match
08 [a393e88d] (1/2) Accurately ripped
09 [15e31bb8] (0/2) No match
10 [b7192e99] (0/2) No match
11 [a93eccd1] (0/2) No match
12 [94849969] (0/2) No match
13 [abb0110f] (0/2) No match
14 [8559aae9] (0/2) No match
15 [165e7745] (0/2) No match
16 [9a38b17b] (0/2) No match
17 [207f3968] (0/2) No match
18 [404bed15] (0/2) No match
19 [f944bcef] (0/2) No match
20 [0b4b308c] (0/2) No match
21 [b767229a] (0/2) No match
22 [ed91fd00] (0/2) No match
23 [e2952e34] (0/2) No match
24 [ecebb5f3] (0/2) No match
25 [aff538b0] (0/2) No match

Track Peak [ CRC32 ] [W/O NULL] [ LOG ]
– 100,0 [39334127] [7E0B57BD]
01 81,6 [CA899296] [32088D2A] CRC32
02 98,0 [6A1AA0B9] [96DABFD5] CRC32
03 100,0 [10FADB56] [D9C8F535] CRC32
04 99,8 [5BA2A033] [535EE499] CRC32
05 99,8 [8EDB390C] [DA5E0B8A] CRC32
06 83,1 [27EDC9B2] [D45D80E6] CRC32
07 90,1 [5CB9B97E] [F81BDAD7] CRC32
08 89,1 [6026E615] [1ED19569] CRC32
09 91,7 [EAF341EB] [2A6C487D] CRC32
10 99,8 [C815611D] [19D887F8] CRC32
11 86,6 [8219FFCC] [87CB7717] CRC32
12 87,3 [5690A298] [D825480B] CRC32
13 89,1 [CD3535AE] [27F7E3AB] CRC32
14 80,8 [C028C369] [A016D829] CRC32
15 89,1 [F8402CEF] [AC67EFEA] CRC32
16 80,2 [06F64B95] [15263353] CRC32
17 81,3 [C5343C1B] [4DE715AC] CRC32
18 91,2 [74FAC049] [7736EF5A] CRC32
19 82,0 [C818FD39] [01D42E14] CRC32
20 90,3 [01175B15] [CA7FBAE1] CRC32
21 83,2 [CAC3AC97] [F59F34D2] CRC32
22 81,0 [6569A9B4] [59152DBB] CRC32
23 90,5 [50621CD9] [AB42D05E] CRC32
24 82,0 [12EBC827] [0E0A06F9] CRC32
25 96,6 [809156B5] [7D794843] CRC32

VA - It Was 40 Years Ago Today: Tribute To The Beatles (2004)

Tracklist CD3:

01. Jeremy Morris – Goodnight (02:24)
02. The Carpet Frogs – Dear Prudence (03:49)
03. Eric Baragar & Tim Campbell – Two Of Us (03:23)
04. Dipsomaniacs – Please Please Me (02:07)
05. Maureen Leeson – Oh! Darling (03:34)
06. Mannix – I'm Down (Live) (02:14)
07. Ed James – Revolution (02:36)
08. Dee Long – Across The Universe (04:07)
09. The Ringles – The Inner Light (02:30)
10. Chris Richards – Savoy Truffle (01:59)
11. Urban Sprawl – Why Don't We Do It In The Road (02:05)
12. Strangecloud – Things We Said Today (03:07)
13. The Beaverleys – Little Child (01:49)
14. The Andersons! – Norwegian Wood (04:50)
15. Glowfriends – Fool On The Hill (03:23)
16. The Brambles – I'll Get You (02:21)
17. Jaimie Vernon – I Saw Her Standing There (02:34)
18. The Roswells – Nowhere Man (04:53)
19. Stratocruiser – I Call Your Name (03:31)
20. Randy Hoffman, Zak Nilsson & John Wicks – We Can Work It Out (02:32)
21. The Wackers – She Loves You (Live) (02:32)
22. Terry Draper – 'Til There Was You (02:47)
23. Bednjanec – You're Gonna Lose That Girl (02:17)

Exact Audio Copy V1.0 beta 3 from 29. August 2011

EAC extraction logfile from 4. December 2011, 18:02

Various / The Beatles Not For Sale

Used drive : HL-DT-STDVDRAM GSA-T40N Adapter: 1 ID: 0

Read mode : Secure
Utilize accurate stream : Yes
Defeat audio cache : Yes
Make use of C2 pointers : No

Read offset correction : 667
Overread into Lead-In and Lead-Out : No
Fill up missing offset samples with silence : Yes
Delete leading and trailing silent blocks : No
Null samples used in CRC calculations : Yes
Used interface : Native Win32 interface for Win NT & 2000
Gap handling : Appended to previous track

Used output format : User Defined Encoder
Selected bitrate : 1024 kBit/s
Quality : High
Add ID3 tag : No
Command line compressor : C:\Program Files\Exact Audio Copy\Flac\flac.exe
Additional command line options : -8 -V -T "ARTIST=%artist%" -T "TITLE=%title%" -T "ALBUM=%albumtitle%" -T "DATE=%year%" -T "TRACKNUMBER=%tracknr%" -T "GENRE=%genre%" -T "PERFORMER=%albuminterpret%" -T "COMPOSER=%composer%" %haslyrics%–tag-from-file=LYRICS="%lyricsfile%"%haslyrics% -T "ALBUMARTIST=%albumartist%" -T "ALBUM ARTIST=%albumartist%" -T "DISCNUMBER=%cdnumber%" -T "TOTALDISCS=%totalcds%" -T "TOTALTRACKS=%numtracks%" -T "COMMENT=EAC V1.0 beta 2, Secure Mode, Test & Copy, AccurateRip, FLAC -8" %source% -o %dest%


TOC of the extracted CD

Track | Start | Length | Start sector | End sector
––––––––––––––––––––––––––––-
1 | 0:00.00 | 2:23.52 | 0 | 10776
2 | 2:23.52 | 3:49.02 | 10777 | 27953
3 | 6:12.54 | 3:22.50 | 27954 | 43153
4 | 9:35.29 | 2:07.26 | 43154 | 52704
5 | 11:42.55 | 3:34.35 | 52705 | 68789
6 | 15:17.15 | 2:13.63 | 68790 | 78827
7 | 17:31.03 | 2:36.03 | 78828 | 90530
8 | 20:07.06 | 4:06.52 | 90531 | 109032
9 | 24:13.58 | 2:30.28 | 109033 | 120310
10 | 26:44.11 | 1:58.46 | 120311 | 129206
11 | 28:42.57 | 2:04.73 | 129207 | 138579
12 | 30:47.55 | 3:06.59 | 138580 | 152588
13 | 33:54.39 | 1:49.17 | 152589 | 160780
14 | 35:43.56 | 4:50.20 | 160781 | 182550
15 | 40:34.01 | 3:22.64 | 182551 | 197764
16 | 43:56.65 | 2:21.00 | 197765 | 208339
17 | 46:17.65 | 2:34.07 | 208340 | 219896
18 | 48:51.72 | 4:52.57 | 219897 | 241853
19 | 53:44.54 | 3:31.02 | 241854 | 257680
20 | 57:15.56 | 2:32.13 | 257681 | 269093
21 | 59:47.69 | 2:32.32 | 269094 | 280525
22 | 62:20.26 | 2:46.54 | 280526 | 293029
23 | 65:07.05 | 2:16.47 | 293030 | 303276


Track 1

Filename E:\Video\Audio\[01] Jeremy Morris - Goodnight.wav

Pre-gap length 0:00:02.00

Peak level 79.4 %
Extraction speed 2.1 X
Track quality 100.0 %
Test CRC 25BFE363
Copy CRC 25BFE363
Track not present in AccurateRip database
Copy OK

Track 2

Filename E:\Video\Audio\[02] Carpet Frogs - Dear Prudence.wav

Peak level 100.0 %
Extraction speed 2.5 X
Track quality 100.0 %
Test CRC E5E64DF3
Copy CRC E5E64DF3
Track not present in AccurateRip database
Copy OK

Track 3

Filename E:\Video\Audio\[03] Eric Baragar & Tim Campbell - Two Of Us.wav

Peak level 86.0 %
Extraction speed 2.7 X
Track quality 100.0 %
Test CRC 3D6544F4
Copy CRC 3D6544F4
Track not present in AccurateRip database
Copy OK

Track 4

Filename E:\Video\Audio\[04] Dipsomaniacs - Please Please Me.wav

Peak level 82.1 %
Extraction speed 2.5 X
Track quality 100.0 %
Test CRC 126F4BA7
Copy CRC 126F4BA7
Track not present in AccurateRip database
Copy OK

Track 5

Filename E:\Video\Audio\[05] Maureen Leeson - Oh! Darling.wav

Peak level 91.7 %
Extraction speed 2.6 X
Track quality 99.9 %
Test CRC D0341EB8
Copy CRC D0341EB8
Track not present in AccurateRip database
Copy OK

Track 6

Filename E:\Video\Audio\[06] Mannix - I'm Down (Live).wav

Peak level 100.0 %
Extraction speed 2.9 X
Track quality 100.0 %
Test CRC C22739F3
Copy CRC C22739F3
Track not present in AccurateRip database
Copy OK

Track 7

Filename E:\Video\Audio\[07] Ed James - Revolution.wav

Peak level 84.1 %
Extraction speed 2.6 X
Track quality 99.9 %
Test CRC D15EC31C
Copy CRC D15EC31C
Track not present in AccurateRip database
Copy OK

Track 8

Filename E:\Video\Audio\[08] Dee Long - Across The Universe.wav

Peak level 89.0 %
Extraction speed 3.5 X
Track quality 100.0 %
Test CRC E7902940
Copy CRC E7902940
Track not present in AccurateRip database
Copy OK

Track 9

Filename E:\Video\Audio\[09] The Ringles - The Inner Light.wav

Peak level 100.0 %
Extraction speed 2.8 X
Track quality 99.9 %
Test CRC 5CDBF93A
Copy CRC 5CDBF93A
Track not present in AccurateRip database
Copy OK

Track 10

Filename E:\Video\Audio\[10] Chris Richards - Savoy Truffle.wav

Peak level 100.0 %
Extraction speed 3.3 X
Track quality 100.0 %
Test CRC 746C4495
Copy CRC 746C4495
Track not present in AccurateRip database
Copy OK

Track 11

Filename E:\Video\Audio\[11] Urban Sprawl - Why Don't We Do It In The Road.wav

Peak level 100.0 %
Extraction speed 3.4 X
Track quality 100.0 %
Test CRC F02EC0FF
Copy CRC F02EC0FF
Track not present in AccurateRip database
Copy OK

Track 12

Filename E:\Video\Audio\[12] Strangecloud - Things We Said Today.wav

Peak level 89.1 %
Extraction speed 3.7 X
Track quality 100.0 %
Test CRC EB0C0B3D
Copy CRC EB0C0B3D
Track not present in AccurateRip database
Copy OK

Track 13

Filename E:\Video\Audio\[13] The Beaverleys - Little Child.wav

Peak level 100.0 %
Extraction speed 2.7 X
Track quality 99.9 %
Test CRC D04418B8
Copy CRC D04418B8
Track not present in AccurateRip database
Copy OK

Track 14

Filename E:\Video\Audio\[14] The Andersons! - Norwegian Wood.wav

Peak level 83.2 %
Extraction speed 4.3 X
Track quality 100.0 %
Test CRC 671BF9C4
Copy CRC 671BF9C4
Track not present in AccurateRip database
Copy OK

Track 15

Filename E:\Video\Audio\[15] Glowfriends - Fool On The Hill.wav

Peak level 100.0 %
Extraction speed 3.6 X
Track quality 99.9 %
Test CRC E012770D
Copy CRC E012770D
Track not present in AccurateRip database
Copy OK

Track 16

Filename E:\Video\Audio\[16] The Brambles - I'll Get You.wav

Peak level 83.2 %
Extraction speed 3.9 X
Track quality 100.0 %
Test CRC 339DC6AB
Copy CRC 339DC6AB
Track not present in AccurateRip database
Copy OK

Track 17

Filename E:\Video\Audio\[17] Jaimie Vernon - I Saw Her Standing There.wav

Peak level 100.0 %
Extraction speed 4.2 X
Track quality 100.0 %
Test CRC 803A7606
Copy CRC 803A7606
Track not present in AccurateRip database
Copy OK

Track 18

Filename E:\Video\Audio\[18] The Roswells - Nowhere Man.wav

Peak level 89.1 %
Extraction speed 4.6 X
Track quality 100.0 %
Test CRC FF74F223
Copy CRC FF74F223
Track not present in AccurateRip database
Copy OK

Track 19

Filename E:\Video\Audio\[19] Stratocruiser - I Call Your Name.wav

Peak level 90.3 %
Extraction speed 4.6 X
Track quality 100.0 %
Test CRC 7D57290C
Copy CRC 7D57290C
Track not present in AccurateRip database
Copy OK

Track 20

Filename E:\Video\Audio\[20] Hoffman, Nilsson & Wicks - We Can Work It Out.wav

Peak level 87.0 %
Extraction speed 4.5 X
Track quality 100.0 %
Test CRC 4EE4D044
Copy CRC 4EE4D044
Track not present in AccurateRip database
Copy OK

Track 21

Filename E:\Video\Audio\[21] The Wackers - She Loves You (Live).wav

Peak level 91.3 %
Extraction speed 4.5 X
Track quality 100.0 %
Test CRC ED22D563
Copy CRC ED22D563
Track not present in AccurateRip database
Copy OK

Track 22

Filename E:\Video\Audio\[22] Terry Draper - 'Til There Was You.wav

Peak level 98.5 %
Extraction speed 4.7 X
Track quality 100.0 %
Test CRC D445B1F7
Copy CRC D445B1F7
Track not present in AccurateRip database
Copy OK

Track 23

Filename E:\Video\Audio\[23] Bednjanec - You're Gonna Lose That Girl.wav

Peak level 84.6 %
Extraction speed 4.5 X
Track quality 100.0 %
Test CRC 6E4EA996
Copy CRC 6E4EA996
Track not present in AccurateRip database
Copy OK


None of the tracks are present in the AccurateRip database

No errors occurred

End of status report

foobar2000 1.2.9 / Dynamic Range Meter 1.1.1
log date: 2015-02-26 23:59:46

––––––––––––––––––––––––––––––––––––––––
Analyzed: Carpet Frogs / The Beatles Not For Sale (1)
Chris Richards / The Beatles Not For Sale (2)
––––––––––––––––––––––––––––––––––––––––

DR Peak RMS Duration Track
––––––––––––––––––––––––––––––––––––––––
DR12 0.00 dB -14.46 dB 3:49 02-Dear Prudence
DR10 0.00 dB -10.90 dB 1:59 10-Savoy Truffle
––––––––––––––––––––––––––––––––––––––––

Number of tracks: 2
Official DR value: DR11

Samplerate: 44100 Hz
Channels: 2
Bits per sample: 16
Bitrate: 944 kbps
Codec: FLAC
================================================================================

––––––––––––––––––––––––––––––––––––––––
Statistics for: 08-Across The Universe
Number of samples: 10879176
Duration: 4:07
––––––––––––––––––––––––––––––––––––––––

Left Right

Peak Value: -1.00 dB –- -1.00 dB
Avg RMS: -12.32 dB –- -11.86 dB
DR channel: 9.14 dB –- 8.98 dB
––––––––––––––––––––––––––––––––––––––––

Official DR Value: DR9

Samplerate: 44100 Hz
Channels: 2
Bits per sample: 16
Bitrate: 944 kbps
Codec: FLAC
================================================================================
––––––––––––––––––––––––––––––––––––––––
Analyzed: Dipsomaniacs / The Beatles Not For Sale (1)
Ed James / The Beatles Not For Sale (2)
––––––––––––––––––––––––––––––––––––––––

DR Peak RMS Duration Track
––––––––––––––––––––––––––––––––––––––––
DR7 -1.70 dB -10.40 dB 2:07 04-Please Please Me
DR8 -1.50 dB -11.14 dB 2:36 07-Revolution
––––––––––––––––––––––––––––––––––––––––

Number of tracks: 2
Official DR value: DR8

Samplerate: 44100 Hz
Channels: 2
Bits per sample: 16
Bitrate: 944 kbps
Codec: FLAC
================================================================================

––––––––––––––––––––––––––––––––––––––––
Analyzed: Eric Baragar & Tim Campbell / The Beatles Not For Sale (1)
Glowfriends / The Beatles Not For Sale (2)
Hoffman, Nilsson & Wicks / The Beatles Not For Sale (3)
––––––––––––––––––––––––––––––––––––––––

DR Peak RMS Duration Track
––––––––––––––––––––––––––––––––––––––––
DR9 -1.30 dB -11.66 dB 3:23 03-Two Of Us
DR12 0.00 dB -14.30 dB 3:23 15-Fool On The Hill
DR4 -1.21 dB -7.94 dB 2:32 20-We Can Work It Out
––––––––––––––––––––––––––––––––––––––––

Number of tracks: 3
Official DR value: DR8

Samplerate: 44100 Hz
Channels: 2
Bits per sample: 16
Bitrate: 944 kbps
Codec: FLAC
================================================================================

––––––––––––––––––––––––––––––––––––––––
Statistics for: 17-I Saw Her Standing There
Number of samples: 6795516
Duration: 2:34
––––––––––––––––––––––––––––––––––––––––

Left Right

Peak Value: 0.00 dB –- 0.00 dB
Avg RMS: -14.00 dB –- -13.68 dB
DR channel: 11.62 dB –- 11.20 dB
––––––––––––––––––––––––––––––––––––––––

Official DR Value: DR11

Samplerate: 44100 Hz
Channels: 2
Bits per sample: 16
Bitrate: 944 kbps
Codec: FLAC
================================================================================
––––––––––––––––––––––––––––––––––––––––
Analyzed: Jeremy Morris / The Beatles Not For Sale (1)
Mannix / The Beatles Not For Sale (2)
––––––––––––––––––––––––––––––––––––––––

DR Peak RMS Duration Track
––––––––––––––––––––––––––––––––––––––––
DR5 -2.00 dB -8.01 dB 2:24 01-Goodnight
DR11 0.00 dB -12.30 dB 2:14 06-I'm Down (Live)
––––––––––––––––––––––––––––––––––––––––

Number of tracks: 2
Official DR value: DR8

Samplerate: 44100 Hz
Channels: 2
Bits per sample: 16
Bitrate: 944 kbps
Codec: FLAC
================================================================================

––––––––––––––––––––––––––––––––––––––––
Analyzed: Maureen Leeson / The Beatles Not For Sale (1)
Strangecloud / The Beatles Not For Sale (2)
Stratocruiser / The Beatles Not For Sale (3)
Terry Draper / The Beatles Not For Sale (4)
––––––––––––––––––––––––––––––––––––––––

DR Peak RMS Duration Track
––––––––––––––––––––––––––––––––––––––––
DR8 -0.75 dB -10.60 dB 3:34 05-Oh! Darling
DR11 -1.00 dB -12.92 dB 3:07 12-Things We Said Today
DR10 -0.89 dB -12.74 dB 3:31 19-I Call Your Name
DR8 -0.12 dB -10.70 dB 2:47 22-'Til There Was You
––––––––––––––––––––––––––––––––––––––––

Number of tracks: 4
Official DR value: DR9

Samplerate: 44100 Hz
Channels: 2
Bits per sample: 16
Bitrate: 944 kbps
Codec: FLAC
================================================================================

––––––––––––––––––––––––––––––––––––––––
Statistics for: 14-Norwegian Wood
Number of samples: 12800760
Duration: 4:50
––––––––––––––––––––––––––––––––––––––––

Left Right

Peak Value: -1.59 dB –- -1.59 dB
Avg RMS: -10.63 dB –- -10.48 dB
DR channel: 7.57 dB –- 7.42 dB
––––––––––––––––––––––––––––––––––––––––

Official DR Value: DR7

Samplerate: 44100 Hz
Channels: 2
Bits per sample: 16
Bitrate: 944 kbps
Codec: FLAC
================================================================================
––––––––––––––––––––––––––––––––––––––––
Analyzed: The Beaverleys / The Beatles Not For Sale (1)
The Brambles / The Beatles Not For Sale (2)
––––––––––––––––––––––––––––––––––––––––

DR Peak RMS Duration Track
––––––––––––––––––––––––––––––––––––––––
DR11 0.00 dB -12.99 dB 1:49 13-Little Child
DR8 -1.60 dB -10.87 dB 2:21 16-I'll Get You
––––––––––––––––––––––––––––––––––––––––

Number of tracks: 2
Official DR value: DR10

Samplerate: 44100 Hz
Channels: 2
Bits per sample: 16
Bitrate: 944 kbps
Codec: FLAC
================================================================================

––––––––––––––––––––––––––––––––––––––––
Analyzed: The Ringles / The Beatles Not For Sale (1)
The Roswells / The Beatles Not For Sale (2)
The Wackers / The Beatles Not For Sale (3)
––––––––––––––––––––––––––––––––––––––––

DR Peak RMS Duration Track
––––––––––––––––––––––––––––––––––––––––
DR9 0.00 dB -9.92 dB 2:30 09-The Inner Light
DR9 -1.00 dB -10.61 dB 4:53 18-Nowhere Man
DR7 -0.78 dB -8.71 dB 2:32 21-She Loves You (Live)
––––––––––––––––––––––––––––––––––––––––

Number of tracks: 3
Official DR value: DR8

Samplerate: 44100 Hz
Channels: 2
Bits per sample: 16
Bitrate: 944 kbps
Codec: FLAC
================================================================================

––––––––––––––––––––––––––––––––––––––––
Statistics for: 11-Why Don't We Do It In The Road
Number of samples: 5511324
Duration: 2:05
––––––––––––––––––––––––––––––––––––––––

Left Right

Peak Value: 0.00 dB –- 0.00 dB
Avg RMS: -12.99 dB –- -12.50 dB
DR channel: 12.00 dB –- 11.49 dB
––––––––––––––––––––––––––––––––––––––––

Official DR Value: DR12

Samplerate: 44100 Hz
Channels: 2
Bits per sample: 16
Bitrate: 944 kbps
Codec: FLAC

[CUETools log; Date: 26.02.2015 23:59:43; Version: 2.1.4]
[CTDB TOCID: taZUc.x.ACxOMSf5OrQmDpi3cX4-] disk not present in database.
[AccurateRip ID: 00378007-039e99ea-600fcb17] disk not present in database.

Track Peak [ CRC32 ] [W/O NULL] [ LOG ]
– 100,0 [DA866BD7] [9926FB81]
01 79,4 [25BFE363] [8F1A4FA0] CRC32
02 100,0 [E5E64DF3] [ABADD49A] CRC32
03 86,0 [3D6544F4] [8390FFD5] CRC32
04 82,1 [126F4BA7] [155B97E2] CRC32
05 91,7 [D0341EB8] [2A9900B7] CRC32
06 100,0 [C22739F3] [863D09CF] CRC32
07 84,1 [D15EC31C] [A29C7A68] CRC32
08 89,0 [E7902940] [7E16C07F] CRC32
09 100,0 [5CDBF93A] [800F05A8] CRC32
10 100,0 [746C4495] [BE2F1ED8] CRC32
11 99,9 [F02EC0FF] [7270DFD5] CRC32
12 89,1 [EB0C0B3D] [8A0EEACC] CRC32
13 100,0 [D04418B8] [2EB3445F] CRC32
14 83,2 [671BF9C4] [0B9CC11C] CRC32
15 100,0 [E012770D] [86D98676] CRC32
16 83,2 [339DC6AB] [6548DD59] CRC32
17 100,0 [803A7606] [A51354FF] CRC32
18 89,1 [FF74F223] [DB74DB5F] CRC32
19 90,3 [7D57290C] [70F20E11] CRC32
20 87,0 [4EE4D044] [05BBBE1E] CRC32
21 91,3 [ED22D563] [9B05E110] CRC32
22 98,5 [D445B1F7] [0F58DFEB] CRC32
23 84,6 [6E4EA996] [E3054512] CRC32

VA - It Was 40 Years Ago Today: Tribute To The Beatles (2004)

All thanks go to the original releaser

Download VA - It Was 40 Years Ago Today: Tribute To The Beatles (2004):