Subcategories
Tags
Language
Tags

J.J. Cale - Naturally (1971) {2013, Japanese Mini LP SHM-CD, Limited Edition, Remastered} Re-Up

Posted By: popsakov
J.J. Cale - Naturally (1971) {2013, Japanese Mini LP SHM-CD, Limited Edition, Remastered} Re-Up

J.J. Cale - Naturally (1971) {2013, Japanese Mini-LP SHM CD, Limited Edition, Remastered}
EAC Rip | FLAC (Img) + Cue + Log ~ 197 Mb | MP3 CBR320 ~ 78 Mb
Full Scans ~ 155 Mb | RAR 5% Recovery
Folk Rock / Blues Rock / Blues / Country / Americana
Mercury / Universal Music Japan #UICY-75627

J.J. Cale's debut album, Naturally, was recorded after Eric Clapton made "After Midnight" a huge success. Instead of following Slowhand's cue and constructing a slick blues-rock album, Cale recruited a number of his Oklahoma friends and made a laid-back country-rock record that firmly established his distinctive, relaxed style. Cale included a new version of "After Midnight" on the album, but the true meat of the record lay in songs like "Crazy Mama," which became a hit single, and "Call Me the Breeze," which Lynyrd Skynyrd later covered. On these songs and many others on Naturally, Cale effortlessly captured a lazy, rolling boogie that contradicted all the commercial styles of boogie, blues, and country-rock at the time. Where his contemporaries concentrated on solos, Cale worked the song and its rhythm, and the result was a pleasant, engaging album that was in no danger of raising anybody's temperature.

~ Thom Owens, All Music

***************

J.J. Cale - Naturally (1971) {2013, Japanese Mini LP SHM-CD, Limited Edition, Remastered} Re-Up

J.J. Cale - Naturally (1971) {2013, Japanese Mini LP SHM-CD, Limited Edition, Remastered} Re-Up

Track List:

01. Call Me The Breeze [2:40]
02. Call The Doctor [2:31]
03. Don't Go To Strangers [2:27]
04. Woman I Love [2:43]
05. Magnolia [3:26]
06. Clyde [2:32]
07. Crazy Mama [2:32]
08. Nowhere To Run [2:27]
09. After Midnight [2:24]
10. River Runs Deep [2:43]
11. Bringing It Back [2:48]
12. Crying Eyes [3:14]

Personnel:
J.J. Cale - guitar, vocals
Karl Himmel - drums
Chuck Browning - drums
Tim Drummond - drums
Carl Radle - bass
Norbert Putnam - bass
Bob Wilson - piano
David Briggs - piano, organ
Jerry Whitehurst - piano
Weldon Myrick - steel guitar
Buddy Spicher - fiddle
Shorty Lavender - fiddle
Walter Hayness - dobro
Mac Gayden - slide guitar
Ed Colis - harmonica
Diane Davidson - backing vocals

Exact Audio Copy V1.0 beta 3 from 29. August 2011

EAC extraction logfile from 24. July 2013, 20:06

J.J. Cale / Naturally

Used drive : PLEXTOR BD-R PX-B950SA Adapter: 6 ID: 0

Read mode : Secure
Utilize accurate stream : Yes
Defeat audio cache : Yes
Make use of C2 pointers : No

Read offset correction : 6
Overread into Lead-In and Lead-Out : No
Fill up missing offset samples with silence : Yes
Delete leading and trailing silent blocks : No
Null samples used in CRC calculations : Yes
Used interface : Native Win32 interface for Win NT & 2000

Used output format : Internal WAV Routines
Sample format : 44.100 Hz; 16 Bit; Stereo


TOC of the extracted CD

Track | Start | Length | Start sector | End sector
––––––––––––––––––––––––––––-
1 | 0:00.00 | 2:39.74 | 0 | 11998
2 | 2:39.74 | 2:30.52 | 11999 | 23300
3 | 5:10.51 | 2:26.62 | 23301 | 34312
4 | 7:37.38 | 2:42.62 | 34313 | 46524
5 | 10:20.25 | 3:26.12 | 46525 | 61986
6 | 13:46.37 | 2:32.12 | 61987 | 73398
7 | 16:18.49 | 2:32.13 | 73399 | 84811
8 | 18:50.62 | 2:27.10 | 84812 | 95846
9 | 21:17.72 | 2:24.26 | 95847 | 106672
10 | 23:42.23 | 2:43.15 | 106673 | 118912
11 | 26:25.38 | 2:47.67 | 118913 | 131504
12 | 29:13.30 | 3:13.40 | 131505 | 146019


Range status and errors

Selected range

Filename C:\Users\Meijin\Desktop\Lossless Galaxy ALLexxess\JJ Cale\1971 Naturally (Mini LP SHM-CD Universal Japan 2013)\J.J. Cale - Naturally.wav

Peak level 98.8 %
Extraction speed 6.2 X
Range quality 100.0 %
Test CRC CD32A1EA
Copy CRC CD32A1EA
Copy OK

No errors occurred


AccurateRip summary

Track 1 not present in database
Track 2 not present in database
Track 3 not present in database
Track 4 not present in database
Track 5 not present in database
Track 6 not present in database
Track 7 not present in database
Track 8 not present in database
Track 9 not present in database
Track 10 not present in database
Track 11 not present in database
Track 12 not present in database

None of the tracks are present in the AccurateRip database

End of status report

==== Log checksum 05E26EAE3847EC65CEC0D381A65B7310A923C11B8FB572A06BB31049B92E4031 ====

[CUETools log; Date: 21.05.2019 22:24:21; Version: 2.1.6]
[CTDB TOCID: Ty2zxDQfEi_bf252sHyv2E3Th1g-] found.
Track | CTDB Status
1 | (22/22) Accurately ripped
2 | (22/22) Accurately ripped
3 | (22/22) Accurately ripped
4 | (22/22) Accurately ripped
5 | (22/22) Accurately ripped
6 | (22/22) Accurately ripped
7 | (22/22) Accurately ripped
8 | (22/22) Accurately ripped
9 | (22/22) Accurately ripped
10 | (22/22) Accurately ripped
11 | (22/22) Accurately ripped
12 | (22/22) Accurately ripped
[AccurateRip ID: 000e457e-0085634a-9b079a0c] found.
Track [ CRC | V2 ] Status
01 [d1151b4f|268e0d04] (00+10/10) Accurately ripped
02 [eef6f0b8|77a78dbe] (00+10/10) Accurately ripped
03 [ce15590b|69c71c13] (00+10/10) Accurately ripped
04 [dbc5520e|2d4c2054] (00+10/10) Accurately ripped
05 [dcb1c863|cf05e31f] (00+10/10) Accurately ripped
06 [7e29bec5|19b77a70] (00+10/10) Accurately ripped
07 [8aa8db87|a976b3ef] (00+10/10) Accurately ripped
08 [656bcac2|ed53defc] (00+10/10) Accurately ripped
09 [47212574|5529f469] (00+10/10) Accurately ripped
10 [84e7d1e9|030448a3] (00+10/10) Accurately ripped
11 [647f12e6|629865bc] (00+10/10) Accurately ripped
12 [a27cb7b7|a90380c0] (00+09/09) Accurately ripped

Track Peak [ CRC32 ] [W/O NULL] [ LOG ]
– 98,8 [CD32A1EA] [F2BCADBB] CRC32
01 98,8 [59258BF8] [28E0DA3A]
02 98,8 [F1E4A2A0] [F82AC5FD]
03 98,8 [D20FE81B] [8DD9CDF8]
04 98,8 [4E973160] [B71E4003]
05 98,8 [08398AF4] [B47FEE06]
06 98,8 [5C4A08AE] [FC2CDDF5]
07 98,8 [E5122797] [68949D0B]
08 98,8 [CE231EAE] [91DF7372]
09 98,8 [C6641CEC] [BEAD4EB2]
10 92,8 [00FBF2FA] [B8A3A2EA]
11 98,8 [D422EA97] [3B90268D]
12 98,8 [A1C88EF2] [95903507]

J.J. Cale - Naturally (1971) {2013, Japanese Mini LP SHM-CD, Limited Edition, Remastered} Re-Up


All thanks go to ALLexxess

>>> J.J. Cale in my Blog <<<

DOWNLOAD: