Tags
Language
Tags

James Taylor - The Collection: 3 Original Album Classics (2000) 3CD Box Set [Re-Up]

Posted By: Designol
James Taylor - The Collection: 3 Original Album Classics (2000) 3CD Box Set [Re-Up]

James Taylor - The Collection: 3 Original Album Classics (2000) 3CD Box Set
EAC | FLAC | Tracks (Cue&Log) ~ 714 Mb | Mp3 (CBR320) ~ 280 Mb | Scans included
Label: Columbia, Sony Music | # 517865 2 | Time: 01:58:19
Singer/Songwriter, Pop/Rock, Soft Rock, Folk-Rock

James Taylor is an American singer-songwriter and guitarist. A five-time Grammy Award winner, he was inducted into the Rock and Roll Hall of Fame in 2000. He is one of the best-selling music artists of all time, having sold more than 100 million records worldwide. 3-disc box set includes classic albums: 'JT' (1977), 'That's Why I'm Here' (1985), and 'Never Die Young' (1988).

James Taylor - The Collection: 3 Original Album Classics (2000) 3CD Box Set [Re-Up]






James Taylor - The Collection: 3 Original Album Classics (2000) 3CD Box Set [Re-Up]

James Taylor - The Collection: 3 Original Album Classics (2000) 3CD Box Set [Re-Up]

CD1: James Taylor - JT (1977)
EAC | FLAC | Tracks (Cue&Log) ~ 206 Mb | Mp3 (CBR320) ~ 91 Mb
Label: Columbia, Sony Music | # 497448 2 | Time: 00:38:00

On his last couple of Warner Brothers albums, Gorilla and In the Pocket, James Taylor seemed to be converting himself from the shrinking violet, too-sensitive-to-live "rainy day man" of his early records into a mainstream, easy-listening crooner with a sunny outlook. JT, his debut album for Columbia Records, was something of a defense of this conversion. Returning to the autobiographical, Taylor declared his love for Carly Simon ("There We Are"), but expressed some surprise at his domestic bliss. "Isn't it amazing a man like me can feel this way?" he sang in the opening song, "Your Smiling Face" (a Top 40 hit). At the same time, domesticity could have its temporary depressions ("Another Grey Morning"). The key track was "Secret O' Life," which Taylor revealed as "enjoying the passage of time." Working with his long-time backup band of Danny Kortchmar, Leland Sklar, and Russell Kunkel, and with Peter Asher back in the producer's chair, Taylor also enjoyed the playing of music, mixing his patented acoustic guitar-based folk sound with elements of rock, blues, and country. He even made the country charts briefly with "Bartender's Blues," a genre exercise complete with steel guitar and references to "honky tonk angels" that he would later re-record with George Jones. The album's Top Ten hit was Taylor's winning remake of Jimmy Jones' "Handy Man," which replaced the grit of the original with his characteristic warmth. JT was James Taylor's best album since Mud Slide Slim and the Blue Horizon because it acknowledged the darkness of his earlier work while explaining the deliberate lightness of his current viewpoint, and because it was his most consistent collection in years. Fans responded: JT sold better than any Taylor album since Sweet Baby James.

Review by William Ruhlmann, Allmusic.com

Tracklist:

01. Your Smiling Face (02:47)
02. There We Are (03:00)
03. Honey Don't Leave L.A. (03:06)
04. Another Grey Morning (02:44)
05. Bartender's Blues (04:12)
06. Secret O' Life (03:35)
07. Handy Man (03:18)
08. I Was Only Telling A Lie (03:24)
09. Looking For Love On Broadway (02:21)
10. Terra Nova (04:32)
11. Traffic Jam (01:58)
12. If I Keep My Heart Out Of Sight (02:58)


Exact Audio Copy V1.0 beta 1 from 15. November 2010

EAC extraction logfile from 4. March 2011, 0:56

James Taylor / JT

Used drive : Optiarc DVD RW AD-7240S Adapter: 2 ID: 1

Read mode : Secure
Utilize accurate stream : Yes
Defeat audio cache : Yes
Make use of C2 pointers : No

Read offset correction : 48
Overread into Lead-In and Lead-Out : No
Fill up missing offset samples with silence : Yes
Delete leading and trailing silent blocks : No
Null samples used in CRC calculations : Yes
Used interface : Native Win32 interface for Win NT & 2000
Gap handling : Appended to previous track

Used output format : User Defined Encoder
Selected bitrate : 896 kBit/s
Quality : High
Add ID3 tag : No
Command line compressor : C:\Program Files (x86)\Exact Audio Copy New\FLAC\FLAC.EXE
Additional command line options : -8 -V -T "ARTIST=%a" -T "TITLE=%t" -T "ALBUM=%g" -T "DATE=%y" -T "TRACKNUMBER=%n" -T "GENRE=%m" -T "COMMENT=EAC FLAC -8" %s


TOC of the extracted CD

Track | Start | Length | Start sector | End sector
––––––––––––––––––––––––––––-
1 | 0:00.00 | 2:47.22 | 0 | 12546
2 | 2:47.22 | 3:00.65 | 12547 | 26111
3 | 5:48.12 | 3:06.25 | 26112 | 40086
4 | 8:54.37 | 2:44.28 | 40087 | 52414
5 | 11:38.65 | 4:12.22 | 52415 | 71336
6 | 15:51.12 | 3:35.28 | 71337 | 87489
7 | 19:26.40 | 3:18.32 | 87490 | 102371
8 | 22:44.72 | 3:24.73 | 102372 | 117744
9 | 26:09.70 | 2:21.60 | 117745 | 128379
10 | 28:31.55 | 4:32.42 | 128380 | 148821
11 | 33:04.22 | 1:58.18 | 148822 | 157689
12 | 35:02.40 | 2:58.10 | 157690 | 171049


Track 1

Filename C:\Lossless\James Taylor - The Collection [flac]\1977 - JT\01 - Your Smiling Face.wav

Pre-gap length 0:00:02.00

Peak level 100.0 %
Extraction speed 2.1 X
Track quality 100.0 %
Test CRC 8DF3532C
Copy CRC 8DF3532C
Accurately ripped (confidence 3) [D44ECAC2]
Copy OK

Track 2

Filename C:\Lossless\James Taylor - The Collection [flac]\1977 - JT\02 - There We Are.wav

Pre-gap length 0:00:01.37

Peak level 99.8 %
Extraction speed 2.3 X
Track quality 100.0 %
Test CRC 54DEF391
Copy CRC 54DEF391
Accurately ripped (confidence 3) [494B8655]
Copy OK

Track 3

Filename C:\Lossless\James Taylor - The Collection [flac]\1977 - JT\03 - Honey Don't Leave L.A..wav

Pre-gap length 0:00:00.12

Peak level 100.0 %
Extraction speed 2.5 X
Track quality 100.0 %
Test CRC 0DAE173A
Copy CRC 0DAE173A
Accurately ripped (confidence 3) [2335E794]
Copy OK

Track 4

Filename C:\Lossless\James Taylor - The Collection [flac]\1977 - JT\04 - Another Grey Morning.wav

Pre-gap length 0:00:00.42

Peak level 60.9 %
Extraction speed 2.2 X
Track quality 99.9 %
Test CRC B34EFD09
Copy CRC B34EFD09
Accurately ripped (confidence 3) [1D92D558]
Copy OK

Track 5

Filename C:\Lossless\James Taylor - The Collection [flac]\1977 - JT\05 - Bartender's Blues.wav

Pre-gap length 0:00:00.05

Peak level 100.0 %
Extraction speed 3.0 X
Track quality 100.0 %
Test CRC 1B9735E1
Copy CRC 1B9735E1
Accurately ripped (confidence 3) [397B6D9A]
Copy OK

Track 6

Filename C:\Lossless\James Taylor - The Collection [flac]\1977 - JT\06 - Secret O' Life.wav

Pre-gap length 0:00:00.15

Peak level 100.0 %
Extraction speed 3.1 X
Track quality 100.0 %
Test CRC A572D035
Copy CRC A572D035
Accurately ripped (confidence 3) [A21908A1]
Copy OK

Track 7

Filename C:\Lossless\James Taylor - The Collection [flac]\1977 - JT\07 - Handy Man.wav

Pre-gap length 0:00:00.68

Peak level 100.0 %
Extraction speed 3.2 X
Track quality 100.0 %
Test CRC 6DA7BEAC
Copy CRC 6DA7BEAC
Accurately ripped (confidence 3) [DB192C90]
Copy OK

Track 8

Filename C:\Lossless\James Taylor - The Collection [flac]\1977 - JT\08 - I Was Only Telling A Lie.wav

Pre-gap length 0:00:01.30

Peak level 100.0 %
Extraction speed 3.4 X
Track quality 100.0 %
Test CRC B7F3FD8B
Copy CRC B7F3FD8B
Accurately ripped (confidence 3) [3C47A8E2]
Copy OK

Track 9

Filename C:\Lossless\James Taylor - The Collection [flac]\1977 - JT\09 - Looking For Love On Broadway.wav

Pre-gap length 0:00:02.05

Peak level 100.0 %
Extraction speed 2.7 X
Track quality 99.9 %
Test CRC B02CA397
Copy CRC B02CA397
Accurately ripped (confidence 2) [D566E0CD]
Copy OK

Track 10

Filename C:\Lossless\James Taylor - The Collection [flac]\1977 - JT\10 - Terra Nova.wav

Peak level 100.0 %
Extraction speed 3.8 X
Track quality 100.0 %
Test CRC C1A9498B
Copy CRC C1A9498B
Accurately ripped (confidence 3) [1E84E6CB]
Copy OK

Track 11

Filename C:\Lossless\James Taylor - The Collection [flac]\1977 - JT\11 - Traffic Jam.wav

Peak level 93.3 %
Extraction speed 2.7 X
Track quality 99.9 %
Test CRC F070D810
Copy CRC F070D810
Accurately ripped (confidence 3) [221C23A4]
Copy OK

Track 12

Filename C:\Lossless\James Taylor - The Collection [flac]\1977 - JT\12 - If I Keep My Heart Out Of Sight.wav

Pre-gap length 0:00:00.03

Peak level 100.0 %
Extraction speed 3.8 X
Track quality 100.0 %
Test CRC 57EC8B1E
Copy CRC 57EC8B1E
Accurately ripped (confidence 3) [9E64A227]
Copy OK


All tracks accurately ripped

No errors occurred

End of status report

==== Log checksum 64E7B4206C05BCAB4B8354CCEB8E95DD341FCEA16D659C8D43FC0602DA8E2556 ====

foobar2000 1.2 / Dynamic Range Meter 1.1.1
log date: 2015-01-08 20:52:47

––––––––––––––––––––––––––––––––––––––––
Analyzed: James Taylor / JT
––––––––––––––––––––––––––––––––––––––––

DR Peak RMS Duration Track
––––––––––––––––––––––––––––––––––––––––
DR11 0.00 dB -12.87 dB 2:47 01-Your Smiling Face
DR13 -0.02 dB -17.26 dB 3:01 02-There We Are
DR12 0.00 dB -13.54 dB 3:06 03-Honey Don't Leave L.A.
DR12 -4.29 dB -19.58 dB 2:44 04-Another Grey Morning
DR12 0.00 dB -14.73 dB 4:12 05-Bartender's Blues
DR13 0.00 dB -15.53 dB 3:35 06-Secret O' Life
DR11 0.00 dB -13.25 dB 3:18 07-Handy Man
DR11 0.00 dB -12.95 dB 3:25 08-I Was Only Telling A Lie
DR12 0.00 dB -14.96 dB 2:22 09-Looking For Love On Broadway
DR12 0.00 dB -15.34 dB 4:33 10-Terra Nova
DR15 -0.60 dB -18.99 dB 1:58 11-Traffic Jam
DR12 0.00 dB -13.84 dB 2:58 12-If I Keep My Heart Out Of Sight
––––––––––––––––––––––––––––––––––––––––

Number of tracks: 12
Official DR value: DR12

Samplerate: 44100 Hz
Channels: 2
Bits per sample: 16
Bitrate: 686 kbps
Codec: FLAC
================================================================================




James Taylor - The Collection: 3 Original Album Classics (2000) 3CD Box Set [Re-Up]

James Taylor - The Collection: 3 Original Album Classics (2000) 3CD Box Set [Re-Up]

CD2: James Taylor - That's Why I'm Here (1985)
EAC | FLAC | Tracks (Cue&Log) ~ 258 Mb | Mp3 (CBR320) ~ 94 Mb
Label: Columbia, Sony Music | # 497451 2 | Time: 00:39:59

Taylor took four and a half years off from record-making in the early '80s, returning with That's Why I'm Here, which suggested he had found his long-term niche with baby boomer fans now permanently tuned to soft rock radio – this was Taylor's first record to spawn three Top Ten adult contemporary hits, with the title track, "Only One," and a cover of Buddy Holly's "Everyday." But those boomers just don't go to the record store as often as their children, and the album failed to go gold and was his lowest-charting effort since his debut. If, in the title song, he had reconciled himself to the notion that he was here to sing "Fire and Rain" at summer concerts, that also meant he was settling for a complacent position in which his new material was virtually irrelevant, and that being the case, why should people buy it? (Notwithstanding its initial commercial reception, That's Why I'm Here eventually went platinum.)

Review by William Ruhlmann, Allmusic.com

Tracklist:

01. That's Why I'm Here (03:39)
02. Song For You Far Away (02:58)
03. Only A Dream In Rio (05:01)
04. Turn Away (03:25)
05. Going Around One More Time (03:27)
06. My Romance (bonus track) (02:48)
07. Everyday (03:16)
08. Limosine Driver (03:53)
09. Only One (04:22)
10. Mona (02:51)
11. The Man Who Shot Liberty Valance (03:46)
12. That's Why I'm Here (Reprise) (bonus track) (00:27)


Exact Audio Copy V1.0 beta 1 from 15. November 2010

EAC extraction logfile from 4. March 2011, 0:26

James Taylor / That's Why I'm Here

Used drive : Optiarc DVD RW AD-7240S Adapter: 2 ID: 1

Read mode : Secure
Utilize accurate stream : Yes
Defeat audio cache : Yes
Make use of C2 pointers : No

Read offset correction : 48
Overread into Lead-In and Lead-Out : No
Fill up missing offset samples with silence : Yes
Delete leading and trailing silent blocks : No
Null samples used in CRC calculations : Yes
Used interface : Native Win32 interface for Win NT & 2000
Gap handling : Appended to previous track

Used output format : User Defined Encoder
Selected bitrate : 896 kBit/s
Quality : High
Add ID3 tag : No
Command line compressor : C:\Program Files (x86)\Exact Audio Copy New\FLAC\FLAC.EXE
Additional command line options : -8 -V -T "ARTIST=%a" -T "TITLE=%t" -T "ALBUM=%g" -T "DATE=%y" -T "TRACKNUMBER=%n" -T "GENRE=%m" -T "COMMENT=EAC FLAC -8" %s


TOC of the extracted CD

Track | Start | Length | Start sector | End sector
––––––––––––––––––––––––––––-
1 | 0:00.00 | 3:39.57 | 0 | 16481
2 | 3:39.57 | 2:58.13 | 16482 | 29844
3 | 6:37.70 | 5:01.17 | 29845 | 52436
4 | 11:39.12 | 3:25.30 | 52437 | 67841
5 | 15:04.42 | 3:27.20 | 67842 | 83386
6 | 18:31.62 | 2:48.70 | 83387 | 96056
7 | 21:20.57 | 3:16.63 | 96057 | 110819
8 | 24:37.45 | 3:53.67 | 110820 | 128361
9 | 28:31.37 | 4:22.40 | 128362 | 148051
10 | 32:54.02 | 2:51.28 | 148052 | 160904
11 | 35:45.30 | 3:46.30 | 160905 | 177884
12 | 39:31.60 | 0:27.17 | 177885 | 179926


Track 1

Filename C:\Lossless\James Taylor - The Collection [flac]\1985 - That's Why I'm Here\01 - That's Why I'm Here.wav

Pre-gap length 0:00:02.00

Peak level 99.8 %
Extraction speed 2.2 X
Track quality 100.0 %
Test CRC 5A128937
Copy CRC 5A128937
Accurately ripped (confidence 5) [5776CD6A]
Copy OK

Track 2

Filename C:\Lossless\James Taylor - The Collection [flac]\1985 - That's Why I'm Here\02 - Song For You Far Away.wav

Peak level 99.8 %
Extraction speed 2.4 X
Track quality 100.0 %
Test CRC 03F2D1F6
Copy CRC 03F2D1F6
Accurately ripped (confidence 5) [AF6236C3]
Copy OK

Track 3

Filename C:\Lossless\James Taylor - The Collection [flac]\1985 - That's Why I'm Here\03 - Only A Dream In Rio.wav

Pre-gap length 0:00:01.28

Peak level 99.8 %
Extraction speed 2.8 X
Track quality 100.0 %
Test CRC 782A77B0
Copy CRC 782A77B0
Accurately ripped (confidence 5) [90206F3F]
Copy OK

Track 4

Filename C:\Lossless\James Taylor - The Collection [flac]\1985 - That's Why I'm Here\04 - Turn Away.wav

Pre-gap length 0:00:01.50

Peak level 99.8 %
Extraction speed 2.9 X
Track quality 100.0 %
Test CRC FC680CEA
Copy CRC FC680CEA
Accurately ripped (confidence 5) [DF5C82C2]
Copy OK

Track 5

Filename C:\Lossless\James Taylor - The Collection [flac]\1985 - That's Why I'm Here\05 - Going Around One More Time.wav

Pre-gap length 0:00:02.20

Peak level 99.8 %
Extraction speed 3.1 X
Track quality 100.0 %
Test CRC EA44B39D
Copy CRC EA44B39D
Accurately ripped (confidence 5) [93C8AA59]
Copy OK

Track 6

Filename C:\Lossless\James Taylor - The Collection [flac]\1985 - That's Why I'm Here\06 - My Romance (bonus track).wav

Pre-gap length 0:00:01.60

Peak level 99.8 %
Extraction speed 3.1 X
Track quality 100.0 %
Test CRC 196E5517
Copy CRC 196E5517
Accurately ripped (confidence 5) [DEF24368]
Copy OK

Track 7

Filename C:\Lossless\James Taylor - The Collection [flac]\1985 - That's Why I'm Here\07 - Everyday.wav

Pre-gap length 0:00:02.02

Peak level 99.8 %
Extraction speed 3.3 X
Track quality 100.0 %
Test CRC 118E2721
Copy CRC 118E2721
Accurately ripped (confidence 5) [A9090B7F]
Copy OK

Track 8

Filename C:\Lossless\James Taylor - The Collection [flac]\1985 - That's Why I'm Here\08 - Limosine Driver.wav

Peak level 99.8 %
Extraction speed 3.6 X
Track quality 100.0 %
Test CRC CA93DF7D
Copy CRC CA93DF7D
Accurately ripped (confidence 5) [143F175A]
Copy OK

Track 9

Filename C:\Lossless\James Taylor - The Collection [flac]\1985 - That's Why I'm Here\09 - Only One.wav

Pre-gap length 0:00:03.07

Peak level 99.8 %
Extraction speed 3.8 X
Track quality 100.0 %
Test CRC 46963B3D
Copy CRC 46963B3D
Accurately ripped (confidence 5) [DE80A721]
Copy OK

Track 10

Filename C:\Lossless\James Taylor - The Collection [flac]\1985 - That's Why I'm Here\10 - Mona.wav

Pre-gap length 0:00:01.72

Peak level 99.8 %
Extraction speed 3.7 X
Track quality 100.0 %
Test CRC 57BAB294
Copy CRC 57BAB294
Accurately ripped (confidence 5) [7315CDCE]
Copy OK

Track 11

Filename C:\Lossless\James Taylor - The Collection [flac]\1985 - That's Why I'm Here\11 - The Man Who Shot Liberty Valance.wav

Pre-gap length 0:00:01.28

Peak level 99.8 %
Extraction speed 4.0 X
Track quality 100.0 %
Test CRC BCA95843
Copy CRC BCA95843
Accurately ripped (confidence 5) [73AFA215]
Copy OK

Track 12

Filename C:\Lossless\James Taylor - The Collection [flac]\1985 - That's Why I'm Here\12 - That's Why I'm Here (Reprise) (bonus track).wav

Peak level 99.8 %
Extraction speed 1.2 X
Track quality 99.6 %
Test CRC 6088BFB5
Copy CRC 6088BFB5
Accurately ripped (confidence 5) [A3AD536E]
Copy OK


All tracks accurately ripped

No errors occurred

End of status report

==== Log checksum 821B173906CA5A34303385DE841C55D32CABC147D0B6C789BFD8292A93B76AED ====

foobar2000 1.2 / Dynamic Range Meter 1.1.1
log date: 2015-01-08 20:52:58

––––––––––––––––––––––––––––––––––––––––
Analyzed: James Taylor / That's Why I'm Here
––––––––––––––––––––––––––––––––––––––––

DR Peak RMS Duration Track
––––––––––––––––––––––––––––––––––––––––
DR8 -0.01 dB -10.23 dB 3:40 01-That's Why I'm Here
DR10 -0.01 dB -12.97 dB 2:58 02-Song For You Far Away
DR9 -0.01 dB -11.32 dB 5:01 03-Only A Dream In Rio
DR8 -0.01 dB -10.07 dB 3:25 04-Turn Away
DR9 -0.01 dB -10.97 dB 3:27 05-Going Around One More Time
DR10 -0.01 dB -13.00 dB 2:49 06-My Romance (bonus track)
DR8 -0.01 dB -10.75 dB 3:17 07-Everyday
DR8 -0.01 dB -10.82 dB 3:54 08-Limosine Driver
DR8 -0.01 dB -11.07 dB 4:23 09-Only One
DR10 -0.01 dB -13.33 dB 2:51 10-Mona
DR9 -0.01 dB -12.35 dB 3:46 11-The Man Who Shot Liberty Valance
DR14 -0.01 dB -16.94 dB 0:27 12-That's Why I'm Here (Reprise) (bonus track)
––––––––––––––––––––––––––––––––––––––––

Number of tracks: 12
Official DR value: DR9

Samplerate: 44100 Hz
Channels: 2
Bits per sample: 16
Bitrate: 820 kbps
Codec: FLAC
================================================================================




James Taylor - The Collection: 3 Original Album Classics (2000) 3CD Box Set [Re-Up]

James Taylor - The Collection: 3 Original Album Classics (2000) 3CD Box Set [Re-Up]

CD 3: James Taylor - Never Die Young (1988)
EAC | FLAC | Tracks (Cue&Log) ~ 250 Mb | Mp3 (CBR320) ~ 95 Mb
Label: Columbia, Sony Music | # 497452 2 | Time: 00:40:19

While his aging contemporaries took a variety of tacks to keep up with changing fashions, from adopting more synthesized, percussive production styles to assembling an orchestra and singing standards, James Taylor just kept playing a summer concert tour each year, and periodically putting out another collection of similar-sounding songs. Never Die Young was unusual only in that there was no big oldies cover from the '50s or '60s – every song was written or co-written by Taylor – but otherwise it addressed the same audience in much the same terms as he always had. The title song and "Baby Boom Baby" (both Adult Contemporary hits) referred to the passage of time, and the rest floated on a sea of yuppie contentment. "I work hard to see that you remember my name," he sang, and that work seemed to consist of reminding his listeners why they had liked him in the first place.

Review by William Ruhlmann, Allmusic.com

Tracklist:

01. Never Die Young (04:24)
02. T-Bone (03:47)
03. Baby Boom Baby (04:59)
04. Runaway Boy (04:18)
05. Valentine's Day (02:35)
06. Sun On The Moon (04:09)
07. Sweet Potato Pie (03:30)
08. Home By Another Way (03:50)
09. Letter In The Mail (04:41)
10. First Of May (04:01)


Exact Audio Copy V1.0 beta 1 from 15. November 2010

EAC extraction logfile from 4. March 2011, 1:26

James Taylor / Never Die Young

Used drive : Optiarc DVD RW AD-7240S Adapter: 2 ID: 1

Read mode : Secure
Utilize accurate stream : Yes
Defeat audio cache : Yes
Make use of C2 pointers : No

Read offset correction : 48
Overread into Lead-In and Lead-Out : No
Fill up missing offset samples with silence : Yes
Delete leading and trailing silent blocks : No
Null samples used in CRC calculations : Yes
Used interface : Native Win32 interface for Win NT & 2000
Gap handling : Appended to previous track

Used output format : User Defined Encoder
Selected bitrate : 896 kBit/s
Quality : High
Add ID3 tag : No
Command line compressor : C:\Program Files (x86)\Exact Audio Copy New\FLAC\FLAC.EXE
Additional command line options : -8 -V -T "ARTIST=%a" -T "TITLE=%t" -T "ALBUM=%g" -T "DATE=%y" -T "TRACKNUMBER=%n" -T "GENRE=%m" -T "COMMENT=EAC FLAC -8" %s


TOC of the extracted CD

Track | Start | Length | Start sector | End sector
––––––––––––––––––––––––––––-
1 | 0:00.00 | 4:24.12 | 0 | 19811
2 | 4:24.12 | 3:47.50 | 19812 | 36886
3 | 8:11.62 | 4:59.60 | 36887 | 59371
4 | 13:11.47 | 4:18.43 | 59372 | 78764
5 | 17:30.15 | 2:35.22 | 78765 | 90411
6 | 20:05.37 | 4:09.45 | 90412 | 109131
7 | 24:15.07 | 3:30.63 | 109132 | 124944
8 | 27:45.70 | 3:50.60 | 124945 | 142254
9 | 31:36.55 | 4:41.10 | 142255 | 163339
10 | 36:17.65 | 4:01.45 | 163340 | 181459


Track 1

Filename C:\Lossless\James Taylor - The Collection [flac]\1988 - Never Die Young\01 - Never Die Young.wav

Pre-gap length 0:00:02.00

Peak level 98.8 %
Extraction speed 2.4 X
Track quality 100.0 %
Test CRC E814E649
Copy CRC E814E649
Accurately ripped (confidence 7) [F4243CDA]
Copy OK

Track 2

Filename C:\Lossless\James Taylor - The Collection [flac]\1988 - Never Die Young\02 - T-Bone.wav

Peak level 98.8 %
Extraction speed 2.5 X
Track quality 100.0 %
Test CRC 9918315C
Copy CRC 9918315C
Accurately ripped (confidence 7) [9A508BAC]
Copy OK

Track 3

Filename C:\Lossless\James Taylor - The Collection [flac]\1988 - Never Die Young\03 - Baby Boom Baby.wav

Peak level 98.8 %
Extraction speed 2.9 X
Track quality 100.0 %
Test CRC 6AD27B4D
Copy CRC 6AD27B4D
Accurately ripped (confidence 7) [04A5FC47]
Copy OK

Track 4

Filename C:\Lossless\James Taylor - The Collection [flac]\1988 - Never Die Young\04 - Runaway Boy.wav

Peak level 98.8 %
Extraction speed 3.1 X
Track quality 100.0 %
Test CRC 3AB3A4C0
Copy CRC 3AB3A4C0
Accurately ripped (confidence 7) [6043D6D4]
Copy OK

Track 5

Filename C:\Lossless\James Taylor - The Collection [flac]\1988 - Never Die Young\05 - Valentine's Day.wav

Pre-gap length 0:00:02.15

Peak level 86.8 %
Extraction speed 3.0 X
Track quality 100.0 %
Test CRC 8C46CCFA
Copy CRC 8C46CCFA
Accurately ripped (confidence 7) [FF2F6840]
Copy OK

Track 6

Filename C:\Lossless\James Taylor - The Collection [flac]\1988 - Never Die Young\06 - Sun On The Moon.wav

Peak level 98.8 %
Extraction speed 3.4 X
Track quality 100.0 %
Test CRC 56A6EA7E
Copy CRC 56A6EA7E
Accurately ripped (confidence 7) [1786ACD6]
Copy OK

Track 7

Filename C:\Lossless\James Taylor - The Collection [flac]\1988 - Never Die Young\07 - Sweet Potato Pie.wav

Peak level 98.8 %
Extraction speed 3.0 X
Track quality 99.9 %
Test CRC 59E1A76D
Copy CRC 59E1A76D
Accurately ripped (confidence 7) [38F79C4F]
Copy OK

Track 8

Filename C:\Lossless\James Taylor - The Collection [flac]\1988 - Never Die Young\08 - Home By Another Way.wav

Peak level 98.8 %
Extraction speed 3.7 X
Track quality 100.0 %
Test CRC 251A0DF5
Copy CRC 251A0DF5
Accurately ripped (confidence 7) [112B5E4A]
Copy OK

Track 9

Filename C:\Lossless\James Taylor - The Collection [flac]\1988 - Never Die Young\09 - Letter In The Mail.wav

Peak level 98.8 %
Extraction speed 3.9 X
Track quality 100.0 %
Test CRC F5A86C1D
Copy CRC F5A86C1D
Accurately ripped (confidence 7) [FFF6685D]
Copy OK

Track 10

Filename C:\Lossless\James Taylor - The Collection [flac]\1988 - Never Die Young\10 - First Of May.wav

Peak level 98.8 %
Extraction speed 4.1 X
Track quality 100.0 %
Test CRC 9772F7CD
Copy CRC 9772F7CD
Accurately ripped (confidence 7) [510A5C40]
Copy OK


All tracks accurately ripped

No errors occurred

End of status report

==== Log checksum 1C4838C3D729618BF600B70B5610A5FE22E396A1E142EBDDF0881B41E1AEB28A ====

AUDIOCHECKER v2.0 beta (build 457) - by Dester - opdester@freemail.hu
~~~~~~~~~~~~~~~~~~~~~~~~~~~~~~~~~~
-=== DO NOT EDIT THIS FILE! ===-

Path: …\1988 - Never Die Young

01 -=- 01 - Never Die Young.flac -=- MPEG (95%)
02 -=- 02 - T-Bone.flac -=- CDDA (100%)
03 -=- 03 - Baby Boom Baby.flac -=- MPEG (95%)
04 -=- 04 - Runaway Boy.flac -=- CDDA (99%)
05 -=- 05 - Valentine's Day.flac -=- CDDA (100%)
06 -=- 06 - Sun On The Moon.flac -=- CDDA (100%)
07 -=- 07 - Sweet Potato Pie.flac -=- CDDA (100%)
08 -=- 08 - Home By Another Way.flac -=- CDDA (99%)
09 -=- 09 - Letter In The Mail.flac -=- CDDA (100%)
10 -=- 10 - First Of May.flac -=- CDDA (87%)

Summary 79,50% CDDA

162503604

foobar2000 1.2 / Dynamic Range Meter 1.1.1
log date: 2015-01-08 20:53:10

––––––––––––––––––––––––––––––––––––––––
Analyzed: James Taylor / Never Die Young
––––––––––––––––––––––––––––––––––––––––

DR Peak RMS Duration Track
––––––––––––––––––––––––––––––––––––––––
DR11 -0.10 dB -12.75 dB 4:24 01-Never Die Young
DR13 -0.11 dB -15.36 dB 3:48 02-T-Bone
DR12 -0.10 dB -14.93 dB 5:00 03-Baby Boom Baby
DR12 -0.10 dB -14.18 dB 4:19 04-Runaway Boy
DR12 -1.23 dB -18.86 dB 2:35 05-Valentine's Day
DR10 -0.10 dB -12.03 dB 4:10 06-Sun On The Moon
DR12 -0.10 dB -14.19 dB 3:31 07-Sweet Potato Pie
DR12 -0.10 dB -14.24 dB 3:51 08-Home By Another Way
DR11 -0.11 dB -14.22 dB 4:41 09-Letter In The Mail
DR13 -0.10 dB -15.05 dB 4:02 10-First Of May
––––––––––––––––––––––––––––––––––––––––

Number of tracks: 10
Official DR value: DR12

Samplerate: 44100 Hz
Channels: 2
Bits per sample: 16
Bitrate: 897 kbps
Codec: FLAC
================================================================================




All thanks to original releaser - abrelapuertaninyo

More interesting music in My Blog