Tags
Language
Tags

Jean-Luc Ponty - Original Album Series Vol. 2 (2016) {5CD Box Set}

Posted By: popsakov
Jean-Luc Ponty - Original Album Series Vol. 2 (2016) {5CD Box Set}

Jean-Luc Ponty - Original Album Series Vol. 2 (2016) {5CD Box Set}
EAC Rip | FLAC (Img) + Cue + Log ~ 1,21 Gb | MP3 CBR320 ~ 511 Mb
Scans Included | 03:18:34 | RAR 5% Recovery
Atlantic / Rhino Records / Warner Music Group #0081227955380
Jazz / Jazz Rock / Fusion

A pioneer of the electric violin in the 1970’s, and an inspired manipulator of sequencers and synthesisers in the 1980’s, Jean-Luc Ponty is the undisputed master of his instrument in this area. Experimenting with electronics and synthesis, he liberated the violin’s image and capabilities from classical or folk settings. After cutting several albums for the World Pacific label in the late 1960s and the early 1970s, In 1974, fresh from a tour with the Mahavishnu Orchestra until he signed a solo deal with Atlantic Records. Throughout the next decade, he was to record a dozen visionary albums, 5 of which are included here.

***************

Jean-Luc Ponty - Original Album Series Vol. 2 (2016) {5CD Box Set}

Track List CD1 - A Taste For Passion (1979):

01. Stay With Me [5:39]
02. Sunset Drive [5:45]
03. Dreamy Eyes [4:20]
04. Beach Girl [4:57]
05. A Taste for Passion [5:26]
06. Life Circle [5:47]
07. Reminiscene [1:28]
08. Give Us a Chance [3:22]
09. Obsession [0:42]
10. Farewell [3:02]

Exact Audio Copy V1.5 from 20. February 2020

EAC extraction logfile from 16. December 2020, 14:54

Jean‐Luc Ponty / A Taste for Passion

Used drive : PLEXTOR DVDR PX-755A Adapter: 1 ID: 1

Read mode : Secure
Utilize accurate stream : Yes
Defeat audio cache : Yes
Make use of C2 pointers : No

Read offset correction : 30
Overread into Lead-In and Lead-Out : No
Fill up missing offset samples with silence : Yes
Delete leading and trailing silent blocks : No
Null samples used in CRC calculations : Yes
Used interface : Native Win32 interface for Win NT & 2000

Used output format : Internal WAV Routines
Sample format : 44.100 Hz; 16 Bit; Stereo


TOC of the extracted CD

Track | Start | Length | Start sector | End sector
––––––––––––––––––––––––––––-
1 | 0:00.00 | 5:38.35 | 0 | 25384
2 | 5:38.35 | 5:44.25 | 25385 | 51209
3 | 11:22.60 | 4:19.65 | 51210 | 70699
4 | 15:42.50 | 4:56.50 | 70700 | 92949
5 | 20:39.25 | 5:25.12 | 92950 | 117336
6 | 26:04.37 | 5:46.43 | 117337 | 143329
7 | 31:51.05 | 1:27.52 | 143330 | 149906
8 | 33:18.57 | 3:21.25 | 149907 | 165006
9 | 36:40.07 | 0:41.13 | 165007 | 168094
10 | 37:21.20 | 3:01.12 | 168095 | 181681


Range status and errors

Selected range

Filename C:\MUSIC\CD Rips_J\Ponty box\CD 1\Jean‐Luc Ponty - A Taste for Passion.wav

Peak level 100.0 %
Extraction speed 2.4 X
Range quality 100.0 %
Test CRC A85012F0
Copy CRC A85012F0
Copy OK

No errors occurred


AccurateRip summary

Track 1 accurately ripped (confidence 22) [84CE0A1F] (AR v2)
Track 2 accurately ripped (confidence 22) [E7723D3B] (AR v2)
Track 3 accurately ripped (confidence 22) [95B2CEE4] (AR v2)
Track 4 accurately ripped (confidence 22) [88C9555B] (AR v2)
Track 5 accurately ripped (confidence 22) [9A9FCDFD] (AR v2)
Track 6 accurately ripped (confidence 22) [F99D01CA] (AR v2)
Track 7 accurately ripped (confidence 22) [4A81687B] (AR v2)
Track 8 accurately ripped (confidence 22) [FAB4E748] (AR v2)
Track 9 accurately ripped (confidence 22) [ECEDB092] (AR v2)
Track 10 accurately ripped (confidence 22) [2CC0DB2B] (AR v2)

All tracks accurately ripped

End of status report

–– CUETools DB Plugin V2.1.6

[CTDB TOCID: xRjbfOrSZYWFNSF2KdpADODr9oA-] found
Submit result: xRjbfOrSZYWFNSF2KdpADODr9oA- has been confirmed
Track | CTDB Status
1 | (79/79) Accurately ripped
2 | (79/79) Accurately ripped
3 | (79/79) Accurately ripped
4 | (79/79) Accurately ripped
5 | (79/79) Accurately ripped
6 | (79/79) Accurately ripped
7 | (79/79) Accurately ripped
8 | (79/79) Accurately ripped
9 | (79/79) Accurately ripped
10 | (79/79) Accurately ripped


==== Log checksum BCECEB089B8CC60CBA865D3EB8F650369BE0942719496AE3BF409B2ECFA266B6 ====

[CUETools log; Date: 25.12.2020 21:55:13; Version: 2.1.6]
[CTDB TOCID: xRjbfOrSZYWFNSF2KdpADODr9oA-] found.
Track | CTDB Status
1 | (80/80) Accurately ripped
2 | (80/80) Accurately ripped
3 | (80/80) Accurately ripped
4 | (80/80) Accurately ripped
5 | (80/80) Accurately ripped
6 | (80/80) Accurately ripped
7 | (80/80) Accurately ripped
8 | (80/80) Accurately ripped
9 | (80/80) Accurately ripped
10 | (80/80) Accurately ripped
[AccurateRip ID: 0011c923-0089ae4e-6709760a] found.
Track [ CRC | V2 ] Status
01 [ba8dbc9a|84ce0a1f] (00+22/22) Accurately ripped
02 [a06b64a6|e7723d3b] (00+22/22) Accurately ripped
03 [1fb3550a|95b2cee4] (00+22/22) Accurately ripped
04 [25fe6753|88c9555b] (00+22/22) Accurately ripped
05 [e5b1b2c9|9a9fcdfd] (00+22/22) Accurately ripped
06 [2ea0325b|f99d01ca] (00+22/22) Accurately ripped
07 [28b90ff8|4a81687b] (00+22/22) Accurately ripped
08 [0633988a|fab4e748] (00+22/22) Accurately ripped
09 [c1edc538|ecedb092] (00+22/22) Accurately ripped
10 [6c9d0824|2cc0db2b] (00+22/22) Accurately ripped

Track Peak [ CRC32 ] [W/O NULL] [ LOG ]
– 100,0 [A85012F0] [0C6A2C89] CRC32
01 95,4 [C6A94A9D] [52059553]
02 85,2 [22B44F06] [AE94E3B7]
03 65,8 [CA588005] [A0536370]
04 85,1 [DFB2A2E3] [7562F67C]
05 100,0 [4B577A5E] [9C89FE0A]
06 95,5 [5B81BDC7] [FE1D07C3]
07 90,4 [573CF4A4] [16FC0FF5]
08 90,4 [22ED18C0] [0589A158]
09 34,8 [9B483F4F] [9FD4E6D6]
10 85,6 [9E2D1DAA] [EF8FBEAF]

Jean-Luc Ponty - Original Album Series Vol. 2 (2016) {5CD Box Set}

Track List CD2 - Jean-Luc Ponty Live (1979):

01. Aurora, Part 1 [2:54]
02. Aurora, Part 2 [6:19]
03. Imaginary Voyage, Part 3 [4:26]
04. Imaginary Voyage, Part 4 [7:10]
05. Mirage [5:47]
06. No Strings Atached [6:00]
07. Egocentric Molecules [7:27]

Exact Audio Copy V1.5 from 20. February 2020

EAC extraction logfile from 16. December 2020, 15:28

Jean‐Luc Ponty / Live

Used drive : PLEXTOR DVDR PX-755A Adapter: 1 ID: 1

Read mode : Secure
Utilize accurate stream : Yes
Defeat audio cache : Yes
Make use of C2 pointers : No

Read offset correction : 30
Overread into Lead-In and Lead-Out : No
Fill up missing offset samples with silence : Yes
Delete leading and trailing silent blocks : No
Null samples used in CRC calculations : Yes
Used interface : Native Win32 interface for Win NT & 2000

Used output format : Internal WAV Routines
Sample format : 44.100 Hz; 16 Bit; Stereo


TOC of the extracted CD

Track | Start | Length | Start sector | End sector
––––––––––––––––––––––––––––-
1 | 0:00.00 | 2:53.33 | 0 | 13007
2 | 2:53.33 | 6:18.12 | 13008 | 41369
3 | 9:11.45 | 4:25.29 | 41370 | 61273
4 | 13:36.74 | 7:09.60 | 61274 | 93508
5 | 20:46.59 | 5:46.37 | 93509 | 119495
6 | 26:33.21 | 5:59.03 | 119496 | 146423
7 | 32:32.24 | 7:26.58 | 146424 | 179931


Range status and errors

Selected range

Filename C:\MUSIC\CD Rips_J\Ponty box\CD 2\Jean‐Luc Ponty - Live.wav

Peak level 99.3 %
Extraction speed 2.4 X
Range quality 100.0 %
Test CRC AB2583F0
Copy CRC AB2583F0
Copy OK

No errors occurred


AccurateRip summary

Track 1 accurately ripped (confidence 17) [39CBF7BA] (AR v2)
Track 2 accurately ripped (confidence 18) [1762007C] (AR v2)
Track 3 accurately ripped (confidence 18) [04AA17C8] (AR v2)
Track 4 accurately ripped (confidence 18) [DA64F0B8] (AR v2)
Track 5 accurately ripped (confidence 19) [6136F0F9] (AR v2)
Track 6 accurately ripped (confidence 19) [F8BCA142] (AR v2)
Track 7 accurately ripped (confidence 17) [1B830F05] (AR v2)

All tracks accurately ripped

End of status report

–– CUETools DB Plugin V2.1.6

[CTDB TOCID: 9X0XO_Z2KKOafW.dOXHHm.BKmfY-] found
Submit result: 9X0XO_Z2KKOafW.dOXHHm.BKmfY- has been confirmed
Track | CTDB Status
1 | (104/104) Accurately ripped
2 | (104/104) Accurately ripped
3 | (104/104) Accurately ripped
4 | (103/104) Accurately ripped
5 | (104/104) Accurately ripped
6 | (104/104) Accurately ripped
7 | (104/104) Accurately ripped


==== Log checksum C773F73F9689FBECA0BE1A098BAFD7EF86F86BAF5440B4DA0DCB3C6BA1922D56 ====

[CUETools log; Date: 25.12.2020 21:57:17; Version: 2.1.6]
[CTDB TOCID: 9X0XO_Z2KKOafW.dOXHHm.BKmfY-] found.
Track | CTDB Status
1 | (105/105) Accurately ripped
2 | (105/105) Accurately ripped
3 | (105/105) Accurately ripped
4 | (104/105) Accurately ripped
5 | (105/105) Accurately ripped
6 | (105/105) Accurately ripped
7 | (105/105) Accurately ripped
[AccurateRip ID: 0009fea5-003db588-63095f07] found.
Track [ CRC | V2 ] Status
01 [cacbe61c|39cbf7ba] (00+17/37) Accurately ripped
02 [76491a3c|1762007c] (00+18/38) Accurately ripped
03 [fa068c64|04aa17c8] (00+18/38) Accurately ripped
04 [780916de|da64f0b8] (00+18/38) Accurately ripped
05 [ba8c5baf|6136f0f9] (00+19/38) Accurately ripped
06 [f280db6f|f8bca142] (00+19/38) Accurately ripped
07 [5a84d050|1b830f05] (00+17/37) Accurately ripped
Offsetted by 18:
01 [593b43c7] (05/37) Accurately ripped
02 [ea45bb1a] (05/38) Accurately ripped
03 [448e652e] (05/38) Accurately ripped
04 [a2bc0f54] (05/38) Accurately ripped
05 [e8a26233] (05/38) Accurately ripped
06 [7fb7883f] (05/38) Accurately ripped
07 [8693ac1b] (05/37) Accurately ripped
Offsetted by -126:
01 [fdaa8a6a] (00/37) No match (V2 was not tested)
02 [bf9cab37] (00/38) No match (V2 was not tested)
03 [12cd9ca9] (00/38) No match (V2 was not tested)
04 [b9cba280] (00/38) No match (V2 was not tested)
05 [42eda44a] (00/38) No match (V2 was not tested)
06 [a866600e] (00/38) No match (V2 was not tested)
07 [e8217e0a] (00/37) No match (V2 was not tested)

Track Peak [ CRC32 ] [W/O NULL] [ LOG ]
– 99,3 [AB2583F0] [6BE79B72] CRC32
01 99,2 [842D0057] [B61388E3]
02 99,1 [4E7AF00A] [5DBE689F]
03 98,6 [FF104B62] [1CCF67F1]
04 99,1 [1AEB6FA3] [C74FCCCD]
05 99,3 [8C8F6599] [9A7D3974]
06 98,7 [6BE7A237] [6445233E]
07 99,2 [7F034E9F] [97B66DBA]

Jean-Luc Ponty - Original Album Series Vol. 2 (2016) {5CD Box Set}

Track List CD3 - Civilized Evil (1980):

01. Demagomania [6:29]
02. In Case We Survive [4:11]
03. Forms Of Life [4:52]
04. Peace Crusaders [5:42]
05. Happy Robots [4:18]
06. Shape Up Your Mind [5:20]
07. Good Guys, Bad Guys [4:48]
08. Once A Blue Planet [4:04]

Exact Audio Copy V1.5 from 20. February 2020

EAC extraction logfile from 16. December 2020, 16:02

Jean-Luc Ponty / Original Album Series Vol 2

Used drive : PLEXTOR DVDR PX-755A Adapter: 1 ID: 1

Read mode : Secure
Utilize accurate stream : Yes
Defeat audio cache : Yes
Make use of C2 pointers : No

Read offset correction : 30
Overread into Lead-In and Lead-Out : No
Fill up missing offset samples with silence : Yes
Delete leading and trailing silent blocks : No
Null samples used in CRC calculations : Yes
Used interface : Native Win32 interface for Win NT & 2000

Used output format : Internal WAV Routines
Sample format : 44.100 Hz; 16 Bit; Stereo


TOC of the extracted CD

Track | Start | Length | Start sector | End sector
––––––––––––––––––––––––––––-
1 | 0:00.00 | 6:28.12 | 0 | 29111
2 | 6:28.12 | 4:10.48 | 29112 | 47909
3 | 10:38.60 | 4:51.30 | 47910 | 69764
4 | 15:30.15 | 5:41.47 | 69765 | 95386
5 | 21:11.62 | 4:17.68 | 95387 | 114729
6 | 25:29.55 | 5:19.22 | 114730 | 138676
7 | 30:49.02 | 4:47.35 | 138677 | 160236
8 | 35:36.37 | 4:03.68 | 160237 | 178529


Range status and errors

Selected range

Filename C:\MUSIC\CD Rips_J\Ponty box\CD 3\Jean-Luc Ponty - Original Album Series Vol 2.wav

Peak level 99.7 %
Extraction speed 2.4 X
Range quality 100.0 %
Test CRC ED60A61B
Copy CRC ED60A61B
Copy OK

No errors occurred


AccurateRip summary

Track 1 accurately ripped (confidence 21) [10060AAB] (AR v2)
Track 2 accurately ripped (confidence 21) [91C1450E] (AR v2)
Track 3 accurately ripped (confidence 21) [3E4F28D8] (AR v2)
Track 4 accurately ripped (confidence 21) [3A274CEB] (AR v2)
Track 5 accurately ripped (confidence 21) [861B2282] (AR v2)
Track 6 accurately ripped (confidence 21) [7105F4F8] (AR v2)
Track 7 accurately ripped (confidence 21) [F4E217FF] (AR v2)
Track 8 accurately ripped (confidence 20) [8B12B123] (AR v2)

All tracks accurately ripped

End of status report

–– CUETools DB Plugin V2.1.6

[CTDB TOCID: g1HRoBaWfSPbLcQDD5i30OurAa4-] found
Submit result: g1HRoBaWfSPbLcQDD5i30OurAa4- has been confirmed
Track | CTDB Status
1 | (80/80) Accurately ripped
2 | (80/80) Accurately ripped
3 | (80/80) Accurately ripped
4 | (80/80) Accurately ripped
5 | (80/80) Accurately ripped
6 | (80/80) Accurately ripped
7 | (80/80) Accurately ripped
8 | (80/80) Accurately ripped


==== Log checksum 364DE279469C43AE5A998F7B2486ED6CD19A55FE4A25612C268C882673D07A83 ====

[CUETools log; Date: 25.12.2020 22:00:24; Version: 2.1.6]
[CTDB TOCID: g1HRoBaWfSPbLcQDD5i30OurAa4-] found.
Track | CTDB Status
1 | (82/82) Accurately ripped
2 | (82/82) Accurately ripped
3 | (82/82) Accurately ripped
4 | (82/82) Accurately ripped
5 | (82/82) Accurately ripped
6 | (82/82) Accurately ripped
7 | (82/82) Accurately ripped
8 | (82/82) Accurately ripped
[AccurateRip ID: 000cbb2c-005402c7-5a094c08] found.
Track [ CRC | V2 ] Status
01 [217bfc35|10060aab] (00+21/21) Accurately ripped
02 [65617092|91c1450e] (00+21/21) Accurately ripped
03 [043f6d7d|3e4f28d8] (00+21/21) Accurately ripped
04 [267de147|3a274ceb] (00+21/21) Accurately ripped
05 [fa5d6235|861b2282] (00+21/21) Accurately ripped
06 [329db258|7105f4f8] (00+21/21) Accurately ripped
07 [73e810c7|f4e217ff] (00+21/21) Accurately ripped
08 [4c04a87c|8b12b123] (00+20/20) Accurately ripped

Track Peak [ CRC32 ] [W/O NULL] [ LOG ]
– 99,7 [ED60A61B] [55F4B39F] CRC32
01 94,0 [3FFCE894] [673CAA86]
02 87,8 [F1A9C93B] [64D0583C]
03 70,9 [A2275496] [BBE62FE9]
04 77,9 [3ED18671] [FCB7BA0B]
05 97,7 [2A446A19] [A87A72F8]
06 99,7 [241A52DC] [7412CCD6]
07 97,7 [A9405AEA] [40D5F36F]
08 65,2 [D26A9AC8] [4F6D0D51]

Jean-Luc Ponty - Original Album Series Vol. 2 (2016) {5CD Box Set}

Track List CD4 - Mystical Adventures (1982):

01. Mystical Adventures (Suite), Part I [3:29]
02. Mystical Adventures, Part II [3:37]
03. Mystical Adventures, Part III [7:30]
04. Mystical Adventures, Part IV [0:48]
05. Mystical Adventures, Part V [5:04]
06. Rhythms of Hope [4:03]
07. As [5:49]
08. Final Truth, Part I [4:55]
09. Final Truth, Part II [2:07]
10. Jig [3:57]

Exact Audio Copy V1.5 from 20. February 2020

EAC extraction logfile from 16. December 2020, 17:51

Jean‐Luc Ponty / Mystical Adventures

Used drive : PLEXTOR DVDR PX-755A Adapter: 1 ID: 1

Read mode : Secure
Utilize accurate stream : Yes
Defeat audio cache : Yes
Make use of C2 pointers : No

Read offset correction : 30
Overread into Lead-In and Lead-Out : No
Fill up missing offset samples with silence : Yes
Delete leading and trailing silent blocks : No
Null samples used in CRC calculations : Yes
Used interface : Native Win32 interface for Win NT & 2000

Used output format : Internal WAV Routines
Sample format : 44.100 Hz; 16 Bit; Stereo


TOC of the extracted CD

Track | Start | Length | Start sector | End sector
––––––––––––––––––––––––––––-
1 | 0:00.00 | 3:28.35 | 0 | 15634
2 | 3:28.35 | 3:36.55 | 15635 | 31889
3 | 7:05.15 | 7:29.52 | 31890 | 65616
4 | 14:34.67 | 0:47.10 | 65617 | 69151
5 | 15:22.02 | 5:04.00 | 69152 | 91951
6 | 20:26.02 | 4:02.65 | 91952 | 110166
7 | 24:28.67 | 5:48.60 | 110167 | 136326
8 | 30:17.52 | 4:54.18 | 136327 | 158394
9 | 35:11.70 | 2:06.47 | 158395 | 167891
10 | 37:18.42 | 3:56.33 | 167892 | 185624


Range status and errors

Selected range

Filename C:\MUSIC\CD Rips_J\Ponty box\CD 4\Jean‐Luc Ponty - Mystical Adventures.wav

Peak level 89.1 %
Extraction speed 2.5 X
Range quality 100.0 %
Test CRC 370DD6FD
Copy CRC 370DD6FD
Copy OK

No errors occurred


AccurateRip summary

Track 1 accurately ripped (confidence 22) [8EC65C88] (AR v2)
Track 2 accurately ripped (confidence 22) [BE7BBD2D] (AR v2)
Track 3 accurately ripped (confidence 22) [4C4B9188] (AR v2)
Track 4 accurately ripped (confidence 22) [47624462] (AR v2)
Track 5 accurately ripped (confidence 22) [5018DCF7] (AR v2)
Track 6 accurately ripped (confidence 22) [1FBD1342] (AR v2)
Track 7 accurately ripped (confidence 22) [C0733794] (AR v2)
Track 8 accurately ripped (confidence 22) [1CB727BA] (AR v2)
Track 9 accurately ripped (confidence 22) [9D10E7B2] (AR v2)
Track 10 accurately ripped (confidence 22) [54A51358] (AR v2)

All tracks accurately ripped

End of status report

–– CUETools DB Plugin V2.1.6

[CTDB TOCID: 91otqhMab4G1QFUfsUek2Wslfr0-] found
Submit result: 91otqhMab4G1QFUfsUek2Wslfr0- has been confirmed
Track | CTDB Status
1 | (81/81) Accurately ripped
2 | (81/81) Accurately ripped
3 | (81/81) Accurately ripped
4 | (81/81) Accurately ripped
5 | (81/81) Accurately ripped
6 | (81/81) Accurately ripped
7 | (81/81) Accurately ripped
8 | (81/81) Accurately ripped
9 | (81/81) Accurately ripped
10 | (81/81) Accurately ripped


==== Log checksum DAFB670A993C7B588DD04A9BE143F1BEA304AD95FE88D69FD87A56F8E7CD8415 ====

[CUETools log; Date: 25.12.2020 22:03:28; Version: 2.1.6]
[CTDB TOCID: 91otqhMab4G1QFUfsUek2Wslfr0-] found.
Track | CTDB Status
1 | (82/82) Accurately ripped
2 | (82/82) Accurately ripped
3 | (82/82) Accurately ripped
4 | (82/82) Accurately ripped
5 | (82/82) Accurately ripped
6 | (82/82) Accurately ripped
7 | (82/82) Accurately ripped
8 | (82/82) Accurately ripped
9 | (82/82) Accurately ripped
10 | (82/82) Accurately ripped
[AccurateRip ID: 000fc1cc-007e9268-7109ab0a] found.
Track [ CRC | V2 ] Status
01 [0ce91ed6|8ec65c88] (00+22/22) Accurately ripped
02 [7efc0fa9|be7bbd2d] (00+22/22) Accurately ripped
03 [2721f37a|4c4b9188] (00+22/22) Accurately ripped
04 [3489883a|47624462] (00+22/22) Accurately ripped
05 [5aa41189|5018dcf7] (00+22/22) Accurately ripped
06 [d4b504c3|1fbd1342] (00+22/22) Accurately ripped
07 [2ca3bffc|c0733794] (00+22/22) Accurately ripped
08 [e1e32e6a|1cb727ba] (00+22/22) Accurately ripped
09 [fe874e87|9d10e7b2] (00+22/22) Accurately ripped
10 [e6840f73|54a51358] (00+22/22) Accurately ripped

Track Peak [ CRC32 ] [W/O NULL] [ LOG ]
– 89,1 [370DD6FD] [E45F3D9E] CRC32
01 77,4 [6954C0B1] [74EE9D6E]
02 80,7 [55980E59] [31E6244D]
03 89,1 [7931D7E7] [F1FC8C24]
04 24,2 [ACF778AA] [B6E9327C]
05 54,2 [9E8A07E1] [2D7982A5]
06 87,0 [26DB7CE8] [8B0FA427]
07 89,1 [AD447495] [3AEB74C9]
08 87,0 [156387C0] [DD9BE3F4]
09 83,0 [A0811A3B] [802B98E6]
10 76,9 [E8689885] [866A632A]

Jean-Luc Ponty - Original Album Series Vol. 2 (2016) {5CD Box Set}

Track List CD5 - Individual Choice (1983):

01. Computer Incantations for World Peace [5:43]
02. Far From the Beaten Paths [6:03]
03. In Spiritual Love [7:03]
04. Eulogy to Oscar Romero [2:33]
05. Nostalgia [5:03]
06. Individual Choice [4:57]
07. In Spite of All [5:56]

Exact Audio Copy V1.5 from 20. February 2020

EAC extraction logfile from 16. December 2020, 18:24

Jean‐Luc Ponty / Individual Choice

Used drive : PLEXTOR DVDR PX-755A Adapter: 1 ID: 1

Read mode : Secure
Utilize accurate stream : Yes
Defeat audio cache : Yes
Make use of C2 pointers : No

Read offset correction : 30
Overread into Lead-In and Lead-Out : No
Fill up missing offset samples with silence : Yes
Delete leading and trailing silent blocks : No
Null samples used in CRC calculations : Yes
Used interface : Native Win32 interface for Win NT & 2000

Used output format : Internal WAV Routines
Sample format : 44.100 Hz; 16 Bit; Stereo


TOC of the extracted CD

Track | Start | Length | Start sector | End sector
––––––––––––––––––––––––––––-
1 | 0:00.00 | 5:42.55 | 0 | 25704
2 | 5:42.55 | 6:02.05 | 25705 | 52859
3 | 11:44.60 | 7:02.02 | 52860 | 84511
4 | 18:46.62 | 2:32.33 | 84512 | 95944
5 | 21:19.20 | 5:02.47 | 95945 | 118641
6 | 26:21.67 | 4:56.55 | 118642 | 140896
7 | 31:18.47 | 5:55.30 | 140897 | 167551


Range status and errors

Selected range

Filename C:\MUSIC\CD Rips_J\Ponty box\CD 5\Jean‐Luc Ponty - Individual Choice.wav

Peak level 75.8 %
Extraction speed 2.3 X
Range quality 99.9 %
Test CRC 42AFC681
Copy CRC 42AFC681
Copy OK

No errors occurred


AccurateRip summary

Track 1 accurately ripped (confidence 20) [551F360E] (AR v2)
Track 2 accurately ripped (confidence 20) [3A143B19] (AR v2)
Track 3 accurately ripped (confidence 20) [076DACE6] (AR v2)
Track 4 accurately ripped (confidence 20) [0DA6CB47] (AR v2)
Track 5 accurately ripped (confidence 20) [D2B3E1FD] (AR v2)
Track 6 accurately ripped (confidence 20) [C307785D] (AR v2)
Track 7 accurately ripped (confidence 20) [C69E7053] (AR v2)

All tracks accurately ripped

End of status report

–– CUETools DB Plugin V2.1.6

[CTDB TOCID: _rsLiXRAUB692GN8U5rN7CeUQAQ-] found
Submit result: _rsLiXRAUB692GN8U5rN7CeUQAQ- has been confirmed
Track | CTDB Status
1 | (82/83) Accurately ripped
2 | (82/83) Accurately ripped
3 | (82/83) Accurately ripped
4 | (82/83) Accurately ripped
5 | (82/83) Accurately ripped
6 | (82/83) Accurately ripped
7 | (82/83) Accurately ripped


==== Log checksum 7A808FFA1B1F9529AC51B9F4286AB0E55D8CB26C2F6DA8AFA655F8E7EBFC1B87 ====

[CUETools log; Date: 25.12.2020 22:05:35; Version: 2.1.6]
[CTDB TOCID: _rsLiXRAUB692GN8U5rN7CeUQAQ-] found.
Track | CTDB Status
1 | (83/84) Accurately ripped
2 | (83/84) Accurately ripped
3 | (83/84) Accurately ripped
4 | (83/84) Accurately ripped
5 | (83/84) Accurately ripped
6 | (83/84) Accurately ripped
7 | (83/84) Accurately ripped
[AccurateRip ID: 000a7821-003e0c07-5408ba07] found.
Track [ CRC | V2 ] Status
01 [5ac52f13|551f360e] (00+20/20) Accurately ripped
02 [068db4ea|3a143b19] (00+20/20) Accurately ripped
03 [762fe140|076dace6] (00+20/20) Accurately ripped
04 [d081012d|0da6cb47] (00+20/20) Accurately ripped
05 [b2d3dadd|d2b3e1fd] (00+20/20) Accurately ripped
06 [b49f4845|c307785d] (00+20/20) Accurately ripped
07 [d97bc816|c69e7053] (00+20/20) Accurately ripped

Track Peak [ CRC32 ] [W/O NULL] [ LOG ]
– 75,8 [42AFC681] [293990D0] CRC32
01 55,7 [5D7F1A07] [13825DF6]
02 75,8 [17E9631D] [36696BFF]
03 72,5 [4BA2432F] [BFFC16BB]
04 54,5 [08C66CDF] [E197A223]
05 58,0 [0027EA79] [0860AA37]
06 59,1 [DC34D270] [89542B09]
07 57,9 [06526E5C] [D11A3C24]

Jean-Luc Ponty - Original Album Series Vol. 2 (2016) {5CD Box Set}


All thanks go to Juergen

>>> My Blog <<<

DOWNLOAD: