Tags
Language
Tags

Jerry Garcia - Garcia Plays Dylan (2005) 2CDs

Posted By: Designol
Jerry Garcia - Garcia Plays Dylan (2005) 2CDs

Jerry Garcia - Garcia Plays Dylan (2005) 2CDs
EAC | FLAC | Image (Cue&Log) ~ 851 Mb | Mp3 (CBR320) ~ 334 Mb | Scans ~ 54 Mb
Label: Rhino Records | # 8122 73263 2 | Time: 02:28:08
Rock, Folk-Rock, Country-Rock, Folk, Blues

Garcia Plays Dylan is an album composed of various live performances featuring Jerry Garcia playing covers of Bob Dylan songs. It is culled from performances from 1973–1995, and features Garcia playing with Grateful Dead, Legion of Mary, Jerry Garcia Band, and Garcia-Saunders. Garcia takes lead vocals on all tracks.

This double-disc anthology works well as a thematic companion to Postcards of the Hanging: The Grateful Dead Perform the Songs of Bob Dylan (2002). Similarly, Ladder to the Stars: Garcia Plays Dylan (2005) examines the unique relationship between the pair, featuring Jerry Garcia (guitar/vocals) in a variety of musical settings spanning nearly a quarter century. While the occasional exception exists, the contents are primarily presented in a chronological fashion. Rather than going all the way back to the pre-psychedelic Grateful Dead – when the band included covers of "It's All Over Now, Baby Blue" and "She Belongs to Me" in its repertoire – the earliest inclusion finds Garcia fronting a quartet alongside Merl Saunders (organ) through a blues-infused treatment of "It Takes a Lot to Laugh, It Takes a Train to Cry." Dylan provided Garcia with perhaps his most intimately interpreted material. As the liner notes point out, Garcia felt "…right in those songs." Adding, "When I sing them I feel like I could have written them. I relate to them that well." Nowhere can that symbiotically beneficial relationship be heard better than the profound and practically spiritual "Positively 4th Street" circa the mid-'70s Jerry Garcia Band with Nicky Hopkins (piano) and Ron Tutt (drums). Garcia also chose obscure, deeper album tracks, making them very much his own. Examples abound, ranging from the brooding and methodical "Wicked Messenger" – courtesy of the short-lived Legion of Mary – to the exploratory funk driving "Tough Mama." On the opposite side of the backbeat are the lamenting "Knockin' on Heaven's Door" and a humbling, if not reverential reading of "I Shall Be Released." By the mid-'80s the quality of Garcia's solo endeavors equalled – if not surpassed – that of the Grateful Dead. One constant was an ever-expanding stable of Dylan tunes. One of the songs that Garcia shared with both was the rollicking "When I Paint My Masterpiece." When it turned up – usually in the first set of Dead shows – Bob Weir (guitar/vocals) took the lead. Here, listeners are treated to a Garcia Band run through guided by some simply smouldering solos from the guitarist. Presumably in an effort to offer unreleased nuggets, the unplugged early-'90s take of "She Belongs to Me," with just Garcia, Weir, and Phil Lesh (bass), was passed over for a rendering by the 1990-era Grateful Dead. The band sounds spent and probably was as this particular performance happened to be the second of a rare double encore. An emotive and gripping "Señor (Tales of Yankee Power)" by the Jerry Garcia Band and the poignant "Visions of Johanna" taken from the Grateful Dead's penultimate live show on August 8, 1995, are among the remaining highlights.

Review by Lindsay Planer, Allmusic.com

Jerry Garcia - Garcia Plays Dylan (2005) 2CDs



Tracklist:

CD1:

01. It Takes A Lot to Laugh, It Takes A Train To Cry (8:12)
02. Tough Mama (9:18)
03. Positively 4th Street (10:44)
04. The Wicked Messenger (13:22)
05. Knockin' On Heaven's Door (17:17)
06. Simple Twist Of Fate (11:00)
07. I Shall Be Released (7:41)

CD2:

01. When I Paint My Masterpiece (14:01)
02. She Belongs To Me (6:33)
03. Forever Young (9:05)
04. Tangled Up In Blue (11:50)
05. Senor (Tales Of Yankee Power) (7:18)
06. Visions Of Johanna (9:22)
07. The Mighty Quinn (Quinn The Eskimo) (5:17)
08. It's All Over Now, Baby Blue (7:08)


Exact Audio Copy V0.99 prebeta 4 from 23. January 2008

EAC extraction logfile from 25. January 2009, 14:09

Jerry Garcia / Garcia Plays Dylan (Disc 1)

Used drive : PIONEER DVD-RW DVR-111D Adapter: 0 ID: 0

Read mode : Secure
Utilize accurate stream : Yes
Defeat audio cache : Yes
Make use of C2 pointers : No

Read offset correction : 48
Overread into Lead-In and Lead-Out : No
Fill up missing offset samples with silence : Yes
Delete leading and trailing silent blocks : No
Null samples used in CRC calculations : Yes
Used interface : Installed external ASPI interface

Used output format : Internal WAV Routines
Sample format : 44.100 Hz; 16 Bit; Stereo


TOC of the extracted CD

Track | Start | Length | Start sector | End sector
––––––––––––––––––––––––––––-
1 | 0:00.00 | 8:12.37 | 0 | 36936
2 | 8:12.37 | 9:18.36 | 36937 | 78822
3 | 17:30.73 | 10:43.41 | 78823 | 127088
4 | 28:14.39 | 13:21.68 | 127089 | 187231
5 | 41:36.32 | 17:17.20 | 187232 | 265026
6 | 58:53.52 | 10:59.52 | 265027 | 314503
7 | 69:53.29 | 7:40.61 | 314504 | 349064


Range status and errors

Selected range

Filename D:\Moji ripovi\Jerry Garcia - Garcia Plays Dylan (Disc 1).wav

Peak level 98.8 %
Range quality 99.9 %
Test CRC 588165D5
Copy CRC 588165D5
Copy OK

No errors occurred


AccurateRip summary

Track 1 cannot be verified as accurate (confidence 4) [3073692F], AccurateRip returned [127EE4B5]
Track 2 cannot be verified as accurate (confidence 4) [5051AD92], AccurateRip returned [4DBB12D3]
Track 3 cannot be verified as accurate (confidence 4) [4D7C8880], AccurateRip returned [3D08A14E]
Track 4 cannot be verified as accurate (confidence 4) [29D1B6B7], AccurateRip returned [ACB6F832]
Track 5 cannot be verified as accurate (confidence 4) [EE2BFD0D], AccurateRip returned [737CB160]
Track 6 cannot be verified as accurate (confidence 4) [32725818], AccurateRip returned [867EE1C3]
Track 7 cannot be verified as accurate (confidence 3) [40662277], AccurateRip returned [3A70CDE5]

No tracks could be verified as accurate
You may have a different pressing from the one(s) in the database

End of status report

[CUETools log; Date: 14.10.2019 20:34:36; Version: 2.1.4]
HDCD: peak extend: none, transient filter: none, gain: none
[CTDB TOCID: vSgaCPf_dQvTwDX_awdE2E3Ifhs-] found.
Track | CTDB Status
1 | (74/74) Accurately ripped
2 | (73/74) Accurately ripped
3 | (73/74) Accurately ripped
4 | (73/74) Accurately ripped
5 | (72/74) Accurately ripped
6 | (73/74) Accurately ripped
7 | (73/74) Accurately ripped
[AccurateRip ID: 0014bb55-007f3e7e-6b122e07] found.
Track [ CRC | V2 ] Status
01 [3073692f|bf6ddaf1] (07+22/91) Accurately ripped
02 [5051ad92|d51934e3] (07+22/91) Accurately ripped
03 [4d7c8880|1df535b8] (07+22/91) Accurately ripped
04 [29d1b6b7|e0f31fcc] (07+22/91) Accurately ripped
05 [ee2bfd0d|410f0c0c] (07+22/91) Accurately ripped
06 [32725818|d2e0acec] (07+22/88) Accurately ripped
07 [40662277|e134ce02] (07+21/85) Accurately ripped
Offsetted by -6:
01 [127ee4b5] (20/91) Accurately ripped
02 [4dbb12d3] (20/91) Accurately ripped
03 [3d08a14e] (20/91) Accurately ripped
04 [acb6f832] (20/91) Accurately ripped
05 [737cb160] (20/91) Accurately ripped
06 [867ee1c3] (19/88) Accurately ripped
07 [3a70cde5] (17/85) Accurately ripped
Offsetted by -36:
01 [16d72e7c] (00/91) No match (V2 was not tested)
02 [6c01dbf2] (00/91) No match (V2 was not tested)
03 [a6a2e96f] (00/91) No match (V2 was not tested)
04 [d7d3581c] (00/91) No match (V2 was not tested)
05 [17924174] (00/91) No match (V2 was not tested)
06 [ca0010d4] (00/88) No match (V2 was not tested)
07 [2189523c] (00/85) No match (V2 was not tested)

Track Peak [ CRC32 ] [W/O NULL] [ LOG ]
– 98,8 [588165D5] [61B535B6] CRC32
01 98,8 [C0386848] [E0E09D2B]
02 98,8 [8401C391] [F02E8DD5]
03 98,8 [EFC97E68] [2F60AE24]
04 98,8 [B723A75C] [E7CFC6C9]
05 98,8 [65A73441] [01776A56]
06 98,8 [96C28251] [D7A73714]
07 98,8 [CA7001C8] [81BDB401]

foobar2000 1.2 / Dynamic Range Meter 1.1.1
log date: 2019-10-14 22:29:42

––––––––––––––––––––––––––––––––––––––––
Analyzed: Jerry Garcia / Garcia Plays Dylan (Disc 1)
––––––––––––––––––––––––––––––––––––––––

DR Peak RMS Duration Track
––––––––––––––––––––––––––––––––––––––––
DR10 -0.10 dB -11.95 dB 8:12 01-It Takes A Lot to Laugh, It Takes A Train To Cry
DR9 -0.10 dB -10.62 dB 9:18 02-Tough Mama
DR10 -0.10 dB -12.03 dB 10:44 03-Positively 4th Street
DR12 -0.10 dB -14.59 dB 13:22 04-The Wicked Messenger
DR10 -0.10 dB -15.49 dB 17:17 05-Knockin' On Heaven's Door
DR11 -0.10 dB -14.90 dB 11:00 06-Simple Twist Of Fate
DR11 -0.10 dB -14.04 dB 7:41 07-I Shall Be Released
––––––––––––––––––––––––––––––––––––––––

Number of tracks: 7
Official DR value: DR10

Samplerate: 44100 Hz
Channels: 2
Bits per sample: 16
Bitrate: 784 kbps
Codec: FLAC
================================================================================


Exact Audio Copy V0.99 prebeta 4 from 23. January 2008

EAC extraction logfile from 25. January 2009, 14:35

Jerry Garcia / Garcia Plays Dylan (Disc 02)

Used drive : PIONEER DVD-RW DVR-111D Adapter: 0 ID: 0

Read mode : Secure
Utilize accurate stream : Yes
Defeat audio cache : Yes
Make use of C2 pointers : No

Read offset correction : 48
Overread into Lead-In and Lead-Out : No
Fill up missing offset samples with silence : Yes
Delete leading and trailing silent blocks : No
Null samples used in CRC calculations : Yes
Used interface : Installed external ASPI interface

Used output format : Internal WAV Routines
Sample format : 44.100 Hz; 16 Bit; Stereo


TOC of the extracted CD

Track | Start | Length | Start sector | End sector
––––––––––––––––––––––––––––-
1 | 0:00.00 | 14:01.23 | 0 | 63097
2 | 14:01.23 | 6:32.50 | 63098 | 92547
3 | 20:33.73 | 9:04.68 | 92548 | 133415
4 | 29:38.66 | 11:50.25 | 133416 | 186690
5 | 41:29.16 | 7:17.68 | 186691 | 219533
6 | 48:47.09 | 9:22.34 | 219534 | 261717
7 | 58:09.43 | 5:16.50 | 261718 | 285467
8 | 63:26.18 | 7:07.47 | 285468 | 317539


Range status and errors

Selected range

Filename D:\Moji ripovi\Jerry Garcia - Garcia Plays Dylan (Disc 02).wav

Peak level 98.8 %
Range quality 100.0 %
Test CRC 51181428
Copy CRC 51181428
Copy OK

No errors occurred


AccurateRip summary

Track 1 cannot be verified as accurate (confidence 4) [F2B6FEC8], AccurateRip returned [1A0C1801]
Track 2 cannot be verified as accurate (confidence 4) [6A7B5547], AccurateRip returned [F3A4F69B]
Track 3 cannot be verified as accurate (confidence 4) [CCA62A12], AccurateRip returned [91E83CF0]
Track 4 cannot be verified as accurate (confidence 4) [945F5BD1], AccurateRip returned [EBB63730]
Track 5 cannot be verified as accurate (confidence 4) [163439FA], AccurateRip returned [D380BAC7]
Track 6 cannot be verified as accurate (confidence 4) [D9987842], AccurateRip returned [8B60093A]
Track 7 cannot be verified as accurate (confidence 4) [BBDA2587], AccurateRip returned [E11CE6E4]
Track 8 cannot be verified as accurate (confidence 3) [A201D771], AccurateRip returned [573359A0]

No tracks could be verified as accurate
You may have a different pressing from the one(s) in the database

End of status report

[CUETools log; Date: 14.10.2019 20:35:03; Version: 2.1.4]
HDCD: peak extend: none, transient filter: none, gain: none
[CTDB TOCID: iOOOlE6V0iom6d8EiKjUbQbbxmc-] found.
Track | CTDB Status
1 | (68/69) Accurately ripped
2 | (69/69) Accurately ripped
3 | (69/69) Accurately ripped
4 | (68/69) Accurately ripped
5 | (67/69) Accurately ripped
6 | (68/69) Accurately ripped
7 | (68/69) Accurately ripped
8 | (65/69) Accurately ripped
[AccurateRip ID: 0017cdcd-009b0e82-76108908] found.
Track [ CRC | V2 ] Status
01 [f2b6fec8|f07b0541] (08+27/89) Accurately ripped
02 [6a7b5547|f247c60e] (08+28/91) Accurately ripped
03 [cca62a12|0f389cd8] (08+28/91) Accurately ripped
04 [945f5bd1|2635ca8c] (08+28/88) Accurately ripped
05 [163439fa|8c4c5955] (08+28/89) Accurately ripped
06 [d9987842|851a0b8e] (08+28/88) Accurately ripped
07 [bbda2587|d84a990e] (08+28/88) Accurately ripped
08 [a201d771|ea3d6c25] (07+26/80) Accurately ripped
Offsetted by -6:
01 [1a0c1801] (20/89) Accurately ripped
02 [f3a4f69b] (20/91) Accurately ripped
03 [91e83cf0] (20/91) Accurately ripped
04 [ebb63730] (19/88) Accurately ripped
05 [d380bac7] (20/89) Accurately ripped
06 [8b60093a] (18/88) Accurately ripped
07 [e11ce6e4] (20/88) Accurately ripped
08 [573359a0] (15/80) Accurately ripped
Offsetted by -36:
01 [4488b67a] (00/89) No match (V2 was not tested)
02 [0a6fba0b] (00/91) No match (V2 was not tested)
03 [bfcfe866] (00/91) No match (V2 was not tested)
04 [918f8e15] (00/88) No match (V2 was not tested)
05 [deaa8db2] (00/89) No match (V2 was not tested)
06 [eeace761] (00/88) No match (V2 was not tested)
07 [c7b77fd7] (00/88) No match (V2 was not tested)
08 [b5f43570] (00/80) No match (V2 was not tested)
Offsetted by 6:
01 [d919e586] (00/89) No match (V2 was not tested)
02 [f570b3f2] (00/91) No match (V2 was not tested)
03 [0a3e709b] (00/91) No match (V2 was not tested)
04 [42667688] (00/88) No match (V2 was not tested)
05 [01856570] (00/89) No match (V2 was not tested)
06 [2c425965] (00/88) No match (V2 was not tested)
07 [818391b7] (00/88) No match (V2 was not tested)
08 [38050b30] (00/80) No match (V2 was not tested)

Track Peak [ CRC32 ] [W/O NULL] [ LOG ]
– 98,8 [51181428] [1452E32B] CRC32
01 98,8 [F97D39AF] [40717EA1]
02 98,8 [DAE12C22] [BAD42A64]
03 98,8 [4E446EDB] [4FCB59D6]
04 98,8 [B7245FE2] [4B8AD054]
05 98,8 [6E9B059B] [F1487A88]
06 98,8 [AE6D383A] [EA29CF1C]
07 88,0 [AAF9E921] [FC55A5B3]
08 98,8 [9FBAFBFF] [39BF74A8]

foobar2000 1.2 / Dynamic Range Meter 1.1.1
log date: 2019-10-14 22:31:23

––––––––––––––––––––––––––––––––––––––––
Analyzed: Jerry Garcia / Garcia Plays Dylan (Disc 02)
––––––––––––––––––––––––––––––––––––––––

DR Peak RMS Duration Track
––––––––––––––––––––––––––––––––––––––––
DR11 -0.10 dB -14.03 dB 14:01 01-When I Paint My Masterpiece
DR9 -0.10 dB -12.83 dB 6:33 02-She Belongs To Me
DR10 -0.10 dB -12.95 dB 9:05 03-Forever Young
DR9 -0.10 dB -11.41 dB 11:50 04-Tangled Up In Blue
DR10 -0.10 dB -13.98 dB 7:18 05-Senor (Tales Of Yankee Power)
DR11 -0.10 dB -14.35 dB 9:22 06-Visions Of Johanna
DR10 -1.10 dB -12.89 dB 5:17 07-The Mighty Quinn (Quinn The Eskimo)
DR10 -0.10 dB -12.43 dB 7:08 08-It's All Over Now, Baby Blue
––––––––––––––––––––––––––––––––––––––––

Number of tracks: 8
Official DR value: DR10

Samplerate: 44100 Hz
Channels: 2
Bits per sample: 16
Bitrate: 825 kbps
Codec: FLAC
================================================================================

Jerry Garcia - Garcia Plays Dylan (2005) 2CDs

Jerry Garcia - Garcia Plays Dylan (2005) 2CDs

All thanks to original releaser - BabyChilly

More interesting music in My Blog