Tags
Language
Tags

Joan Armatrading - Love and Affection: Joan Armatrading Classics 1975-1983 (2003) 2CDs

Posted By: Designol
Joan Armatrading - Love and Affection: Joan Armatrading Classics 1975-1983 (2003) 2CDs

Joan Armatrading - Love and Affection: Joan Armatrading Classics 1975-1983 (2003) 2CDs
EAC | FLAC | Tracks (Cue&Log) ~ 992 Mb | Mp3 (CBR320) ~ 360 Mb | Scans ~ 120 Mb
Label: A&M Records | # 609 493 613-2 | Time: 02:38:35
Singer/Songwriter, Soft Rock, Folk Rock, R&B, Funk, Jazz

This is the way a Joan Armatrading best-of collection should be assembled in the first place. The numerous single-disc compilations never came close to being representative of her achievement as a recording artist. Culling 43 tracks over eight years and 11 albums is even better in many ways than issuing an Armatrading box set. All of the expected material from the early years is included on disc one, such as "Cool Blue Stole My Heart," "Travel So Far," "Dry Land," "Down to Zero," "Love and Affection," "Help Yourself," "Woncha Come on Home," "Show Some Emotion," "Willow," "Barefoot and Pregnant," "Bottom to the Top," "You Rope You Tie Me," "Your Letter," and many more, including "The Flight of the Wild Geese" from the soundtrack to the film. It covers Armatrading's prolific period from 1975-1979, where a lot of old hippies, now upwardly mobile professionals seeking mellow escapes from their relentless and often ruthless pursuit of "the good life," got off the bus and remained stuck, listening only to her early records along with those of the Jacksons, Eagles, and James Taylor. The only problem with this is that Armatrading was just beginning to gain a confidence that led her to become really adventurous, taking huge chances with both her songwriting and production styles in the 1980s. She became a pop singer whose lyrics were anything but pop and whose music expanded the boundaries of pop to include reggae, jazz, and slippery folk music. Admittedly, the results were sometimes erratic, but were never, never less than utterly compelling. Disc two features all four tracks from the excellent How Cruel EP, including the reggae soul-drenched bluster of "Rosie," the title track, and "He Wants Her," with its dubbed-out drums and snaky guitar slinking through her sensual vocal. Eight cuts from the Me Myself I album represent the vast majority of it; it also marked Armatrading's first true rock & roll outing. She had heard the late-'70s music from England and Jamaica – as well as the Lower East Side of New York – and was affected by it. She didn't try to make punk rock or new wave music, but she let its freedom enter her songwriting consciousness and open it up. As she hung out with producers like Richard Gotteher (Robert Gordon, Mink DeVille, and Lou Reed) and Henry Lewy, rock and roll became Armatrading's chosen vehicle of expression.

By the time she made her bravest recordings, Walk Under Ladders in 1981, The Key in 1983, and Track Record with Steve Lillywhite (U2, Ultravox, Psychedelic Furs, etc.) in 1983, the English audiences went crazy while the Americanskis walked away almost entirely. Armatrading's songs had turned dark and grew tenser with the times, dealing with themes of emotional and physical abuse, vulnerability that is not necessarily willful, but is welcomed in a first-person way. They made folks who wore designer clothes, drove BMWs, and spouted "liberal" causes feel queasy – one listen to "The Weakness in Me," "I Really Must Be Going," or the infamous "(I Love It When You) Call Me Names" made the yuppies flee in droves. The final two tracks, "Frustration" and "Heaven," are awesome. The former is post-rock and downright right funky with its collapsible backbeat. She took South African township jive, mixed it with greasy fretless basslines and celebratory melodic schematics, and juxtaposed it against tough lyrics of street life and cultural suffocation. "Heaven" is, in a sense, a small nod back to where Armatrading had come from, asking a wider and darker series of the questions she was asking on her earlier records, but its twists and turns make it as much a spiritual love song as a secular one. For Armatrading, need, love, obsession, sensuality, and excess had all become inseparable from one another in her songwriting; along with the pumped-up rock aesthetic, it made her music downright dangerous. She dared to proclaim her darkness without regretful confession or repentance. She dared to make anthems out of raw need and insecurity, and made the tension between lovers something truly sensual. As an artist, Armatrading never sought to find innocence; her vision as an artist has always been expansive, and she took on race and class issues in her songs via amorous relationships, daring both parties to step out of their fear. These songs tell stories so intimate and so encompassing it's no wonder most that people don't get them; they can't even imagine what addressing that fear would be like, let alone have somebody do it in wondrous pop songs you can hum to. Necessary, explosive, and brilliant, listen and behold the songs of a sage whose wisdom is from the school of hard knocks and transcendent courage, and whose musical sophistication is second to none. This is the only Joan Armatrading collection worth owning.

Review by Thom Jurek, Allmusic.com

Joan Armatrading - Love and Affection: Joan Armatrading Classics 1975-1983 (2003) 2CDs



Tracklist:

CD1:

01. Cool Blue Stole My Heart (5:31)
02. Travel So Far (3:08)
03. Dry Land (4:21)
04. Down To Zero (3:51)
05. Help Yourself (4:04)
06. Love And Affection (4:29)
07. Water With The Wine (2:49)
08. Save Me (3:34)
09. Somebody Who Loves You (3:35)
10. The Flight Of The Wild Geese (2:00)
11. Woncha Come On Home (2:40)
12. Show Some Emotion (3:30)
13. Warm Love (3:02)
14. Kissin' And A Huggin' (4:41)
15. Willow (4:52)
16. Barefoot And Pregnant (3:41)
17. Bottom To The Top (3:35)
18. You Rope You Tie Me (4:08)
19. Your Letter (3:41)
20. Mama Mercy (Live) (3:34)
21. Steppin' Out (Live) (3:50)

CD2:

01. Rosie (3:13)
02. How Cruel (3:06)
03. He Wants Her (3:19)
04. I Really Must Be Going (4:31)
05. Me Myself I (3:18)
06. Ma-Me-O-Beach (3:03)
07. Friends (3:08)
08. Is It Tomorrow Yet? (3:32)
09. Turn Out the Light (4:20)
10. All the Way from America (4:51)
11. Feeling in My Heart (For You) (3:37)
12. Simon (3:40)
13. I'm Lucky (3:05)
14. When I Get It Right (3:03)
15. The Weakness in Me (3:34)
16. No Love (3:58)
17. (I Love It When You) Call Me Names (4:22)
18. Drop the Pilot (3:40)
19. Everybody Gotta Know (3:49)
20. What Do Boys Dream? (2:31)
21. Frustration (3:35)
22. Heaven (4:42)


Exact Audio Copy V1.1 from 23. June 2015

EAC extraction logfile from 5. January 2018, 14:40

Joan Armatrading / Love & Affection: Classics 1975-1983 (Disc 1)

Used drive : ASUS BW-12D1S-U Adapter: 1 ID: 1

Read mode : Secure
Utilize accurate stream : Yes
Defeat audio cache : Yes
Make use of C2 pointers : No

Read offset correction : 667
Overread into Lead-In and Lead-Out : No
Fill up missing offset samples with silence : Yes
Delete leading and trailing silent blocks : No
Null samples used in CRC calculations : Yes
Used interface : Native Win32 interface for Win NT & 2000
Gap handling : Appended to previous track

Used output format : User Defined Encoder
Selected bitrate : 1024 kBit/s
Quality : High
Add ID3 tag : No
Command line compressor : C:\Program Files (x86)\Exact Audio Copy\FLAC\FLAC.EXE
Additional command line options : -6 -V -T "ARTIST=%artist%" -T "TITLE=%title%" -T "ALBUM=%albumtitle%" -T "DATE=%year%" -T "TRACKNUMBER=%tracknr%" -T "GENRE=%genre%" -T "COMMENT=%comment%" -T "BAND=%albuminterpret%" -T "ALBUMARTIST=%albuminterpret%" -T "COMPOSER=%composer%" %haslyrics%–tag-from-file=LYRICS="%lyricsfile%"%haslyrics% -T "DISCNUMBER=%cdnumber%" -T "TOTALDISCS=%totalcds%" -T "TOTALTRACKS=%numtracks%" %hascover%–picture="%coverfile%"%hascover% %source% -o %dest%


TOC of the extracted CD

Track | Start | Length | Start sector | End sector
––––––––––––––––––––––––––––-
1 | 0:00.00 | 5:31.27 | 0 | 24851
2 | 5:31.27 | 3:08.35 | 24852 | 38986
3 | 8:39.62 | 4:21.30 | 38987 | 58591
4 | 13:01.17 | 3:50.43 | 58592 | 75884
5 | 16:51.60 | 4:03.72 | 75885 | 94181
6 | 20:55.57 | 4:29.18 | 94182 | 114374
7 | 25:25.00 | 2:49.05 | 114375 | 127054
8 | 28:14.05 | 3:34.27 | 127055 | 143131
9 | 31:48.32 | 3:34.43 | 143132 | 159224
10 | 35:23.00 | 1:59.55 | 159225 | 168204
11 | 37:22.55 | 2:40.15 | 168205 | 180219
12 | 40:02.70 | 3:30.37 | 180220 | 196006
13 | 43:33.32 | 3:02.13 | 196007 | 209669
14 | 46:35.45 | 4:41.02 | 209670 | 230746
15 | 51:16.47 | 4:52.18 | 230747 | 252664
16 | 56:08.65 | 3:40.50 | 252665 | 269214
17 | 59:49.40 | 3:35.30 | 269215 | 285369
18 | 63:24.70 | 4:08.10 | 285370 | 303979
19 | 67:33.05 | 3:41.30 | 303980 | 320584
20 | 71:14.35 | 3:33.67 | 320585 | 336626
21 | 74:48.27 | 3:50.28 | 336627 | 353904


Track 1

Filename C:\Users\Alexandre\Downloads\Torrents of Autumn\Armatrading, Joan [2003] Love and Affection~ Classics (1975-1983)\CD 1\01. Cool Blue Stole My Heart.wav

Pre-gap length 0:00:02.00

Peak level 98.8 %
Extraction speed 4.5 X
Track quality 99.9 %
Test CRC 4B58DACA
Copy CRC 4B58DACA
Accurately ripped (confidence 27) [57F84334] (AR v2)
Copy OK

Track 2

Filename C:\Users\Alexandre\Downloads\Torrents of Autumn\Armatrading, Joan [2003] Love and Affection~ Classics (1975-1983)\CD 1\02. Travel So Far.wav

Peak level 97.7 %
Extraction speed 5.0 X
Track quality 100.0 %
Test CRC 7F5C462B
Copy CRC 7F5C462B
Accurately ripped (confidence 26) [E9CB841D] (AR v2)
Copy OK

Track 3

Filename C:\Users\Alexandre\Downloads\Torrents of Autumn\Armatrading, Joan [2003] Love and Affection~ Classics (1975-1983)\CD 1\03. Dry Land.wav

Peak level 97.7 %
Extraction speed 5.6 X
Track quality 100.0 %
Test CRC E6EE5516
Copy CRC E6EE5516
Accurately ripped (confidence 26) [58677F2D] (AR v2)
Copy OK

Track 4

Filename C:\Users\Alexandre\Downloads\Torrents of Autumn\Armatrading, Joan [2003] Love and Affection~ Classics (1975-1983)\CD 1\04. Down To Zero.wav

Peak level 97.7 %
Extraction speed 5.9 X
Track quality 100.0 %
Test CRC 94B1A883
Copy CRC 94B1A883
Accurately ripped (confidence 27) [EFF5F2CE] (AR v2)
Copy OK

Track 5

Filename C:\Users\Alexandre\Downloads\Torrents of Autumn\Armatrading, Joan [2003] Love and Affection~ Classics (1975-1983)\CD 1\05. Help Yourself.wav

Peak level 98.8 %
Extraction speed 6.2 X
Track quality 100.0 %
Test CRC 8A47400D
Copy CRC 8A47400D
Accurately ripped (confidence 27) [062228C0] (AR v2)
Copy OK

Track 6

Filename C:\Users\Alexandre\Downloads\Torrents of Autumn\Armatrading, Joan [2003] Love and Affection~ Classics (1975-1983)\CD 1\06. Love And Affection.wav

Peak level 97.7 %
Extraction speed 5.9 X
Track quality 99.9 %
Test CRC FFDA0A9F
Copy CRC FFDA0A9F
Accurately ripped (confidence 28) [87AF4BE2] (AR v2)
Copy OK

Track 7

Filename C:\Users\Alexandre\Downloads\Torrents of Autumn\Armatrading, Joan [2003] Love and Affection~ Classics (1975-1983)\CD 1\07. Water With The Wine.wav

Peak level 98.8 %
Extraction speed 6.3 X
Track quality 100.0 %
Test CRC 5820F1C6
Copy CRC 5820F1C6
Accurately ripped (confidence 27) [EA6240A0] (AR v2)
Copy OK

Track 8

Filename C:\Users\Alexandre\Downloads\Torrents of Autumn\Armatrading, Joan [2003] Love and Affection~ Classics (1975-1983)\CD 1\08. Save Me.wav

Peak level 85.5 %
Extraction speed 6.8 X
Track quality 100.0 %
Test CRC 8B32ADF4
Copy CRC 8B32ADF4
Accurately ripped (confidence 27) [DC07AC0C] (AR v2)
Copy OK

Track 9

Filename C:\Users\Alexandre\Downloads\Torrents of Autumn\Armatrading, Joan [2003] Love and Affection~ Classics (1975-1983)\CD 1\09. Somebody Who Loves You.wav

Peak level 97.7 %
Extraction speed 6.9 X
Track quality 100.0 %
Test CRC 9AC1AF1A
Copy CRC 9AC1AF1A
Accurately ripped (confidence 27) [65E48AAE] (AR v2)
Copy OK

Track 10

Filename C:\Users\Alexandre\Downloads\Torrents of Autumn\Armatrading, Joan [2003] Love and Affection~ Classics (1975-1983)\CD 1\10. The Flight Of The Wild Geese.wav

Peak level 97.7 %
Extraction speed 6.4 X
Track quality 100.0 %
Test CRC 59BE9CAF
Copy CRC 59BE9CAF
Accurately ripped (confidence 27) [C2EFF766] (AR v2)
Copy OK

Track 11

Filename C:\Users\Alexandre\Downloads\Torrents of Autumn\Armatrading, Joan [2003] Love and Affection~ Classics (1975-1983)\CD 1\11. Woncha Come On Home.wav

Peak level 97.7 %
Extraction speed 6.8 X
Track quality 100.0 %
Test CRC 34E0CBAD
Copy CRC 34E0CBAD
Accurately ripped (confidence 29) [A1552D77] (AR v2)
Copy OK

Track 12

Filename C:\Users\Alexandre\Downloads\Torrents of Autumn\Armatrading, Joan [2003] Love and Affection~ Classics (1975-1983)\CD 1\12. Show Some Emotion.wav

Peak level 98.8 %
Extraction speed 6.1 X
Track quality 99.9 %
Test CRC 60F07BE5
Copy CRC 60F07BE5
Accurately ripped (confidence 29) [B0486E72] (AR v2)
Copy OK

Track 13

Filename C:\Users\Alexandre\Downloads\Torrents of Autumn\Armatrading, Joan [2003] Love and Affection~ Classics (1975-1983)\CD 1\13. Warm Love.wav

Peak level 98.8 %
Extraction speed 7.2 X
Track quality 100.0 %
Test CRC 443F5806
Copy CRC 443F5806
Accurately ripped (confidence 28) [F410F737] (AR v2)
Copy OK

Track 14

Filename C:\Users\Alexandre\Downloads\Torrents of Autumn\Armatrading, Joan [2003] Love and Affection~ Classics (1975-1983)\CD 1\14. Kissin' And A Huggin'.wav

Peak level 98.8 %
Extraction speed 7.9 X
Track quality 100.0 %
Test CRC B93B3D11
Copy CRC B93B3D11
Accurately ripped (confidence 27) [399A1184] (AR v2)
Copy OK

Track 15

Filename C:\Users\Alexandre\Downloads\Torrents of Autumn\Armatrading, Joan [2003] Love and Affection~ Classics (1975-1983)\CD 1\15. Willow.wav

Peak level 98.8 %
Extraction speed 8.1 X
Track quality 100.0 %
Test CRC 1607D7D4
Copy CRC 1607D7D4
Accurately ripped (confidence 28) [F0F407AE] (AR v2)
Copy OK

Track 16

Filename C:\Users\Alexandre\Downloads\Torrents of Autumn\Armatrading, Joan [2003] Love and Affection~ Classics (1975-1983)\CD 1\16. Barefoot And Pregnant.wav

Peak level 98.8 %
Extraction speed 8.1 X
Track quality 100.0 %
Test CRC 1A0D23B1
Copy CRC 1A0D23B1
Accurately ripped (confidence 27) [03C65BA7] (AR v2)
Copy OK

Track 17

Filename C:\Users\Alexandre\Downloads\Torrents of Autumn\Armatrading, Joan [2003] Love and Affection~ Classics (1975-1983)\CD 1\17. Bottom To The Top.wav

Peak level 98.8 %
Extraction speed 8.2 X
Track quality 100.0 %
Test CRC 26F2A1AF
Copy CRC 26F2A1AF
Accurately ripped (confidence 28) [D35F3E4E] (AR v2)
Copy OK

Track 18

Filename C:\Users\Alexandre\Downloads\Torrents of Autumn\Armatrading, Joan [2003] Love and Affection~ Classics (1975-1983)\CD 1\18. You Rope You Tie Me.wav

Peak level 98.8 %
Extraction speed 8.5 X
Track quality 100.0 %
Test CRC 14FDCB2E
Copy CRC 14FDCB2E
Accurately ripped (confidence 27) [324F5212] (AR v2)
Copy OK

Track 19

Filename C:\Users\Alexandre\Downloads\Torrents of Autumn\Armatrading, Joan [2003] Love and Affection~ Classics (1975-1983)\CD 1\19. Your Letter.wav

Peak level 98.8 %
Extraction speed 6.3 X
Track quality 99.9 %
Test CRC 9CCCBCF0
Copy CRC 9CCCBCF0
Accurately ripped (confidence 26) [2D198F85] (AR v2)
Copy OK

Track 20

Filename C:\Users\Alexandre\Downloads\Torrents of Autumn\Armatrading, Joan [2003] Love and Affection~ Classics (1975-1983)\CD 1\20. Mama Mercy (Live).wav

Peak level 98.8 %
Extraction speed 8.5 X
Track quality 100.0 %
Test CRC A18E1670
Copy CRC A18E1670
Accurately ripped (confidence 28) [D584A31B] (AR v2)
Copy OK

Track 21

Filename C:\Users\Alexandre\Downloads\Torrents of Autumn\Armatrading, Joan [2003] Love and Affection~ Classics (1975-1983)\CD 1\21. Steppin' Out (Live).wav

Peak level 98.8 %
Extraction speed 8.7 X
Track quality 100.0 %
Test CRC 20E44265
Copy CRC 20E44265
Accurately ripped (confidence 27) [63BA1BA9] (AR v2)
Copy OK


All tracks accurately ripped

No errors occurred

End of status report

–– CUETools DB Plugin V2.1.6

[CTDB TOCID: cXR6MPqVWPq1A9EpRJYgkfxNCEw-] found
Submit result: cXR6MPqVWPq1A9EpRJYgkfxNCEw- has been confirmed
Track | CTDB Status
1 | (162/163) Accurately ripped
2 | (162/163) Accurately ripped
3 | (162/163) Accurately ripped
4 | (160/163) Accurately ripped
5 | (162/163) Accurately ripped
6 | (162/163) Accurately ripped
7 | (162/163) Accurately ripped
8 | (162/163) Accurately ripped
9 | (162/163) Accurately ripped
10 | (162/163) Accurately ripped
11 | (162/163) Accurately ripped
12 | (162/163) Accurately ripped
13 | (161/163) Accurately ripped
14 | (161/163) Accurately ripped
15 | (161/163) Accurately ripped
16 | (161/163) Accurately ripped
17 | (161/163) Accurately ripped
18 | (160/163) Accurately ripped
19 | (160/163) Accurately ripped
20 | (158/163) Accurately ripped
21 | (161/163) Accurately ripped


==== Log checksum 4B0D7919AA839FC95D483A7C2BC52481B77427D27EC52185CF62F307A1186A7B ====

foobar2000 1.2 / Dynamic Range Meter 1.1.1
log date: 2018-01-10 00:59:47

––––––––––––––––––––––––––––––––––––––––
Analyzed: Joan Armatrading / Love & Affection: Classics 1975-1983 (Disc 1)
––––––––––––––––––––––––––––––––––––––––

DR Peak RMS Duration Track
––––––––––––––––––––––––––––––––––––––––
DR8 -0.10 dB -10.91 dB 5:31 01-Cool Blue Stole My Heart
DR8 -0.20 dB -9.19 dB 3:08 02-Travel So Far
DR8 -0.20 dB -12.02 dB 4:21 03-Dry Land
DR7 -0.20 dB -8.99 dB 3:51 04-Down To Zero
DR10 -0.10 dB -12.65 dB 4:04 05-Help Yourself
DR7 -0.20 dB -9.86 dB 4:29 06-Love And Affection
DR10 -0.10 dB -12.11 dB 2:49 07-Water With The Wine
DR11 -1.35 dB -15.75 dB 3:34 08-Save Me
DR10 -0.20 dB -12.16 dB 3:35 09-Somebody Who Loves You
DR8 -0.20 dB -11.49 dB 2:00 10-The Flight Of The Wild Geese
DR12 -0.20 dB -14.71 dB 2:40 11-Woncha Come On Home
DR10 -0.10 dB -12.01 dB 3:30 12-Show Some Emotion
DR10 -0.10 dB -12.49 dB 3:02 13-Warm Love
DR11 -0.10 dB -13.02 dB 4:41 14-Kissin' And A Huggin'
DR10 -0.10 dB -12.96 dB 4:52 15-Willow
DR10 -0.10 dB -12.96 dB 3:41 16-Barefoot And Pregnant
DR12 -0.10 dB -14.35 dB 3:35 17-Bottom To The Top
DR8 -0.10 dB -11.01 dB 4:08 18-You Rope You Tie Me
DR12 -0.10 dB -14.45 dB 3:41 19-Your Letter
DR10 -0.10 dB -11.88 dB 3:34 20-Mama Mercy (Live)
DR12 -0.10 dB -14.37 dB 3:50 21-Steppin' Out (Live)
––––––––––––––––––––––––––––––––––––––––

Number of tracks: 21
Official DR value: DR10

Samplerate: 44100 Hz
Channels: 2
Bits per sample: 16
Bitrate: 778 kbps
Codec: FLAC
================================================================================


Exact Audio Copy V1.1 from 23. June 2015

EAC extraction logfile from 5. January 2018, 15:10

Joan Armatrading / Love and Affection: Classics 1975-1983 (Disc 2)

Used drive : ASUS BW-12D1S-U Adapter: 1 ID: 1

Read mode : Secure
Utilize accurate stream : Yes
Defeat audio cache : Yes
Make use of C2 pointers : No

Read offset correction : 667
Overread into Lead-In and Lead-Out : No
Fill up missing offset samples with silence : Yes
Delete leading and trailing silent blocks : No
Null samples used in CRC calculations : Yes
Used interface : Native Win32 interface for Win NT & 2000
Gap handling : Appended to previous track

Used output format : User Defined Encoder
Selected bitrate : 1024 kBit/s
Quality : High
Add ID3 tag : No
Command line compressor : C:\Program Files (x86)\Exact Audio Copy\FLAC\FLAC.EXE
Additional command line options : -6 -V -T "ARTIST=%artist%" -T "TITLE=%title%" -T "ALBUM=%albumtitle%" -T "DATE=%year%" -T "TRACKNUMBER=%tracknr%" -T "GENRE=%genre%" -T "COMMENT=%comment%" -T "BAND=%albuminterpret%" -T "ALBUMARTIST=%albuminterpret%" -T "COMPOSER=%composer%" %haslyrics%–tag-from-file=LYRICS="%lyricsfile%"%haslyrics% -T "DISCNUMBER=%cdnumber%" -T "TOTALDISCS=%totalcds%" -T "TOTALTRACKS=%numtracks%" %hascover%–picture="%coverfile%"%hascover% %source% -o %dest%


TOC of the extracted CD

Track | Start | Length | Start sector | End sector
––––––––––––––––––––––––––––-
1 | 0:00.00 | 3:13.35 | 0 | 14509
2 | 3:13.35 | 3:05.42 | 14510 | 28426
3 | 6:19.02 | 3:18.40 | 28427 | 43316
4 | 9:37.42 | 4:31.00 | 43317 | 63641
5 | 14:08.42 | 3:17.48 | 63642 | 78464
6 | 17:26.15 | 3:02.50 | 78465 | 92164
7 | 20:28.65 | 3:07.67 | 92165 | 106256
8 | 23:36.57 | 3:31.68 | 106257 | 122149
9 | 27:08.50 | 4:19.60 | 122150 | 141634
10 | 31:28.35 | 4:51.07 | 141635 | 163466
11 | 36:19.42 | 3:36.45 | 163467 | 179711
12 | 39:56.12 | 3:40.33 | 179712 | 196244
13 | 43:36.45 | 3:05.22 | 196245 | 210141
14 | 46:41.67 | 3:03.15 | 210142 | 223881
15 | 49:45.07 | 3:34.08 | 223882 | 239939
16 | 53:19.15 | 3:58.17 | 239940 | 257806
17 | 57:17.32 | 4:21.43 | 257807 | 277424
18 | 61:39.00 | 3:39.55 | 277425 | 293904
19 | 65:18.55 | 3:49.17 | 293905 | 311096
20 | 69:07.72 | 2:31.33 | 311097 | 322454
21 | 71:39.30 | 3:34.67 | 322455 | 338571
22 | 75:14.22 | 4:41.68 | 338572 | 359714


Track 1

Filename C:\Users\Alexandre\Downloads\Torrents of Autumn\Armatrading, Joan [2003] Love and Affection~ Classics (1975-1983)\CD 2\01. Rosie.wav

Pre-gap length 0:00:02.00

Peak level 97.7 %
Extraction speed 4.6 X
Track quality 100.0 %
Test CRC 5B7BA36A
Copy CRC 5B7BA36A
Accurately ripped (confidence 68) [5F904D60] (AR v2)
Copy OK

Track 2

Filename C:\Users\Alexandre\Downloads\Torrents of Autumn\Armatrading, Joan [2003] Love and Affection~ Classics (1975-1983)\CD 2\02. How Cruel.wav

Peak level 97.7 %
Extraction speed 4.3 X
Track quality 99.9 %
Test CRC D6937A47
Copy CRC D6937A47
Accurately ripped (confidence 65) [4E2D9037] (AR v2)
Copy OK

Track 3

Filename C:\Users\Alexandre\Downloads\Torrents of Autumn\Armatrading, Joan [2003] Love and Affection~ Classics (1975-1983)\CD 2\03. He Wants Her.wav

Peak level 98.8 %
Extraction speed 4.6 X
Track quality 99.9 %
Test CRC F4DDC93F
Copy CRC F4DDC93F
Accurately ripped (confidence 67) [F719647D] (AR v2)
Copy OK

Track 4

Filename C:\Users\Alexandre\Downloads\Torrents of Autumn\Armatrading, Joan [2003] Love and Affection~ Classics (1975-1983)\CD 2\04. I Really Must Be Going.wav

Peak level 98.8 %
Extraction speed 5.8 X
Track quality 100.0 %
Test CRC 769D1CF5
Copy CRC 769D1CF5
Accurately ripped (confidence 67) [DAC11468] (AR v2)
Copy OK

Track 5

Filename C:\Users\Alexandre\Downloads\Torrents of Autumn\Armatrading, Joan [2003] Love and Affection~ Classics (1975-1983)\CD 2\05. Me Myself I.wav

Pre-gap length 0:00:01.05

Peak level 97.7 %
Extraction speed 5.8 X
Track quality 100.0 %
Test CRC 283A2118
Copy CRC 283A2118
Accurately ripped (confidence 68) [28745DB9] (AR v2)
Copy OK

Track 6

Filename C:\Users\Alexandre\Downloads\Torrents of Autumn\Armatrading, Joan [2003] Love and Affection~ Classics (1975-1983)\CD 2\06. Ma-Me-O-Beach.wav

Peak level 98.8 %
Extraction speed 5.9 X
Track quality 100.0 %
Test CRC A68306B4
Copy CRC A68306B4
Accurately ripped (confidence 65) [49D36E0F] (AR v2)
Copy OK

Track 7

Filename C:\Users\Alexandre\Downloads\Torrents of Autumn\Armatrading, Joan [2003] Love and Affection~ Classics (1975-1983)\CD 2\07. Friends.wav

Peak level 98.8 %
Extraction speed 5.3 X
Track quality 99.9 %
Test CRC C797C5CD
Copy CRC C797C5CD
Accurately ripped (confidence 66) [E2FAED32] (AR v2)
Copy OK

Track 8

Filename C:\Users\Alexandre\Downloads\Torrents of Autumn\Armatrading, Joan [2003] Love and Affection~ Classics (1975-1983)\CD 2\08. Is It Tomorrow Yet.wav

Peak level 98.8 %
Extraction speed 6.5 X
Track quality 100.0 %
Test CRC BB6E116A
Copy CRC BB6E116A
Accurately ripped (confidence 65) [0F7F95C6] (AR v2)
Copy OK

Track 9

Filename C:\Users\Alexandre\Downloads\Torrents of Autumn\Armatrading, Joan [2003] Love and Affection~ Classics (1975-1983)\CD 2\09. Turn Out the Light.wav

Peak level 98.8 %
Extraction speed 6.9 X
Track quality 100.0 %
Test CRC 24DF74D9
Copy CRC 24DF74D9
Accurately ripped (confidence 66) [23A6B7DE] (AR v2)
Copy OK

Track 10

Filename C:\Users\Alexandre\Downloads\Torrents of Autumn\Armatrading, Joan [2003] Love and Affection~ Classics (1975-1983)\CD 2\10. All the Way from America.wav

Peak level 98.8 %
Extraction speed 7.3 X
Track quality 100.0 %
Test CRC E508C420
Copy CRC E508C420
Accurately ripped (confidence 67) [20038893] (AR v2)
Copy OK

Track 11

Filename C:\Users\Alexandre\Downloads\Torrents of Autumn\Armatrading, Joan [2003] Love and Affection~ Classics (1975-1983)\CD 2\11. Feeling in My Heart (For You).wav

Peak level 98.0 %
Extraction speed 7.2 X
Track quality 100.0 %
Test CRC 13E470F4
Copy CRC 13E470F4
Accurately ripped (confidence 66) [DCB1A887] (AR v2)
Copy OK

Track 12

Filename C:\Users\Alexandre\Downloads\Torrents of Autumn\Armatrading, Joan [2003] Love and Affection~ Classics (1975-1983)\CD 2\12. Simon.wav

Peak level 98.8 %
Extraction speed 6.3 X
Track quality 99.9 %
Test CRC 0BF56E4B
Copy CRC 0BF56E4B
Accurately ripped (confidence 65) [5B9C4573] (AR v2)
Copy OK

Track 13

Filename C:\Users\Alexandre\Downloads\Torrents of Autumn\Armatrading, Joan [2003] Love and Affection~ Classics (1975-1983)\CD 2\13. I'm Lucky.wav

Peak level 98.8 %
Extraction speed 7.2 X
Track quality 100.0 %
Test CRC 30CD384D
Copy CRC 30CD384D
Accurately ripped (confidence 67) [FE6D1E94] (AR v2)
Copy OK

Track 14

Filename C:\Users\Alexandre\Downloads\Torrents of Autumn\Armatrading, Joan [2003] Love and Affection~ Classics (1975-1983)\CD 2\14. When I Get It Right.wav

Peak level 98.8 %
Extraction speed 7.3 X
Track quality 100.0 %
Test CRC 7EC88788
Copy CRC 7EC88788
Accurately ripped (confidence 65) [CB587AD4] (AR v2)
Copy OK

Track 15

Filename C:\Users\Alexandre\Downloads\Torrents of Autumn\Armatrading, Joan [2003] Love and Affection~ Classics (1975-1983)\CD 2\15. The Weakness in Me.wav

Peak level 98.8 %
Extraction speed 6.7 X
Track quality 99.9 %
Test CRC F56F2DE8
Copy CRC F56F2DE8
Accurately ripped (confidence 68) [898D8198] (AR v2)
Copy OK

Track 16

Filename C:\Users\Alexandre\Downloads\Torrents of Autumn\Armatrading, Joan [2003] Love and Affection~ Classics (1975-1983)\CD 2\16. No Love.wav

Peak level 98.8 %
Extraction speed 7.8 X
Track quality 100.0 %
Test CRC 9058855E
Copy CRC 9058855E
Accurately ripped (confidence 65) [87096B64] (AR v2)
Copy OK

Track 17

Filename C:\Users\Alexandre\Downloads\Torrents of Autumn\Armatrading, Joan [2003] Love and Affection~ Classics (1975-1983)\CD 2\17. (I Love It When You) Call Me Names.wav

Peak level 98.8 %
Extraction speed 7.3 X
Track quality 99.9 %
Test CRC C9A21C4E
Copy CRC C9A21C4E
Accurately ripped (confidence 65) [A1A9C9D2] (AR v2)
Copy OK

Track 18

Filename C:\Users\Alexandre\Downloads\Torrents of Autumn\Armatrading, Joan [2003] Love and Affection~ Classics (1975-1983)\CD 2\18. Drop the Pilot.wav

Peak level 98.8 %
Extraction speed 7.1 X
Track quality 99.9 %
Test CRC C8F64A96
Copy CRC C8F64A96
Accurately ripped (confidence 66) [0393E8D4] (AR v2)
Copy OK

Track 19

Filename C:\Users\Alexandre\Downloads\Torrents of Autumn\Armatrading, Joan [2003] Love and Affection~ Classics (1975-1983)\CD 2\19. Everybody Gotta Know.wav

Peak level 98.8 %
Extraction speed 8.2 X
Track quality 100.0 %
Test CRC D0B4EE90
Copy CRC D0B4EE90
Accurately ripped (confidence 63) [43B0A839] (AR v2)
Copy OK

Track 20

Filename C:\Users\Alexandre\Downloads\Torrents of Autumn\Armatrading, Joan [2003] Love and Affection~ Classics (1975-1983)\CD 2\20. What Do Boys Dream.wav

Peak level 98.8 %
Extraction speed 7.7 X
Track quality 100.0 %
Test CRC D2C1DE48
Copy CRC D2C1DE48
Accurately ripped (confidence 64) [BB8D9A26] (AR v2)
Copy OK

Track 21

Filename C:\Users\Alexandre\Downloads\Torrents of Autumn\Armatrading, Joan [2003] Love and Affection~ Classics (1975-1983)\CD 2\21. Frustration.wav

Peak level 98.8 %
Extraction speed 8.1 X
Track quality 100.0 %
Test CRC D8D5AE90
Copy CRC D8D5AE90
Accurately ripped (confidence 65) [8473C811] (AR v2)
Copy OK

Track 22

Filename C:\Users\Alexandre\Downloads\Torrents of Autumn\Armatrading, Joan [2003] Love and Affection~ Classics (1975-1983)\CD 2\22. Heaven.wav

Peak level 98.8 %
Extraction speed 8.1 X
Track quality 99.9 %
Test CRC E2D7D438
Copy CRC E2D7D438
Accurately ripped (confidence 65) [5313F0CE] (AR v2)
Copy OK


All tracks accurately ripped

No errors occurred

End of status report

–– CUETools DB Plugin V2.1.6

[CTDB TOCID: iED6jGNA6xOgAcSX9_UFZGql8iI-] found
Submit result: iED6jGNA6xOgAcSX9_UFZGql8iI- has been confirmed
Track | CTDB Status
1 | (147/148) Accurately ripped
2 | (147/148) Accurately ripped
3 | (148/148) Accurately ripped
4 | (147/148) Accurately ripped
5 | (148/148) Accurately ripped
6 | (147/148) Accurately ripped
7 | (147/148) Accurately ripped
8 | (147/148) Accurately ripped
9 | (148/148) Accurately ripped
10 | (148/148) Accurately ripped
11 | (147/148) Accurately ripped
12 | (148/148) Accurately ripped
13 | (147/148) Accurately ripped
14 | (147/148) Accurately ripped
15 | (146/148) Accurately ripped
16 | (147/148) Accurately ripped
17 | (147/148) Accurately ripped
18 | (147/148) Accurately ripped
19 | (147/148) Accurately ripped
20 | (147/148) Accurately ripped
21 | (146/148) Accurately ripped
22 | (143/148) Accurately ripped


==== Log checksum F13E5B6B1428968C0469503E119478053F6F00686909FB838D36C89DD90C5860 ====

foobar2000 1.2 / Dynamic Range Meter 1.1.1
log date: 2018-01-10 01:00:23

––––––––––––––––––––––––––––––––––––––––
Analyzed: Joan Armatrading / Love and Affection: Classics 1975-1983 (Disc 2)
––––––––––––––––––––––––––––––––––––––––

DR Peak RMS Duration Track
––––––––––––––––––––––––––––––––––––––––
DR9 -0.20 dB -10.70 dB 3:13 01-Rosie
DR8 -0.20 dB -9.37 dB 3:06 02-How Cruel
DR13 -0.10 dB -15.00 dB 3:19 03-He Wants Her
DR11 -0.10 dB -13.43 dB 4:31 04-I Really Must Be Going
DR8 -0.20 dB -10.53 dB 3:18 05-Me Myself I
DR12 -0.10 dB -13.37 dB 3:03 06-Ma-Me-O-Beach
DR12 -0.10 dB -14.61 dB 3:08 07-Friends
DR12 -0.10 dB -13.58 dB 3:32 08-Is It Tomorrow Yet?
DR12 -0.10 dB -14.78 dB 4:20 09-Turn Out the Light
DR12 -0.10 dB -15.80 dB 4:51 10-All the Way from America
DR13 -0.17 dB -15.72 dB 3:37 11-Feeling in My Heart (For You)
DR12 -0.10 dB -14.44 dB 3:40 12-Simon
DR11 -0.10 dB -13.09 dB 3:05 13-I'm Lucky
DR10 -0.10 dB -11.99 dB 3:03 14-When I Get It Right
DR11 -0.10 dB -13.58 dB 3:34 15-The Weakness in Me
DR10 -0.10 dB -12.43 dB 3:58 16-No Love
DR10 -0.10 dB -11.63 dB 4:22 17-(I Love It When You) Call Me Names
DR11 -0.10 dB -12.61 dB 3:40 18-Drop the Pilot
DR10 -0.10 dB -13.49 dB 3:49 19-Everybody Gotta Know
DR9 -0.10 dB -10.88 dB 2:31 20-What Do Boys Dream?
DR9 -0.10 dB -10.63 dB 3:35 21-Frustration
DR10 -0.10 dB -11.71 dB 4:42 22-Heaven
––––––––––––––––––––––––––––––––––––––––

Number of tracks: 22
Official DR value: DR11

Samplerate: 44100 Hz
Channels: 2
Bits per sample: 16
Bitrate: 924 kbps
Codec: FLAC
================================================================================

Joan Armatrading - Love and Affection: Joan Armatrading Classics 1975-1983 (2003) 2CDs

Joan Armatrading - Love and Affection: Joan Armatrading Classics 1975-1983 (2003) 2CDs