Subcategories

Antonio Carlos Jobim - Terra Brasilis (1980)

Posted By: Designol
Antonio Carlos Jobim - Terra Brasilis (1980)

Antonio Carlos Jobim - Terra Brasilis (1980)
EAC | FLAC | Tracks (Cue&Log) ~ 407 Mb (incl 5%) | Mp3 (CBR320) ~ 182 Mb (incl 5%) | Scans ~ 79 Mb
Genre: Bossa Nova, Brazilian Jazz, MBP | Label: | # 7599-23409-2 | Time: 01:11:19

In some ways, this is a strategic retreat for Antonio Carlos Jobim after the classical departures of the '70s – a retrospective of past triumphs, including some of the most trod-upon standards ("Ipanema," "Desafinado," "One-Note Samba," etc.), with Claus Ogerman again at hand. But these are thoughtful retoolings, some subtle, some radical, ranging in backing from a lonely piano to elaborate yet sensitive Ogerman orchestral flights that cram more complexity than ever into the spaces (listen to his beguilingly involved take on "Double Rainbow") with only a few overbearing faux pas. Jobim's own vocals sound increasingly casual in temperament as he serves them up in an unpredictable mixture of Portuguese, English and scat. And there is much unfamiliar material here, often dressed up in a brooding classical manner.

Review by Richard S. Ginell, Allmusic.com

Antonio Carlos Jobim - Terra Brasilis (1980)



Tracklist:

01. Dreamer (Vivo Sonhando) (03:05)
02. Canta Mais (Sing Once More) (04:34)
03. Olha Maria (Amparo) (04:07)
04. One Note Samba (02:20)
05. Dindi (04:18)
06. Quiet Nights Of Quiet Stars (Corcovado) (03:29)
07. Marina (02:57)
08. Off-Key (Desafinado) (03:28)
09. Voce Vai Ver (You'll See) (02:58)
10. Estrada Do Sol (Road To The Sun) (02:07)
11. The Girl From Ipanema (04:50)
12. Double Rainbow (04:06)
13. Triste (03:07)
14. Wave (03:40)
15. Someone To Light Up My Life (Se Todos Fossem Iguais A Voce) (03:07)
16. Falando De Amor (Speaking Of Love) (03:43)
17. Two Kites (04:39)
18. Modinha (Serenade) (03:39)
19. Song Of The Sabia (Sabia) (04:07)
20. This Happy Madness (Estrada Branca) (02:49)


Exact Audio Copy V1.0 beta 4 from 7. December 2014

EAC extraction logfile from 10. October 2015, 21:43

Antonio Carlos Jobim / Terra Brasilis

Used drive : TSSTcorpCDDVDW SH-224DB Adapter: 1 ID: 0

Read mode : Secure
Utilize accurate stream : Yes
Defeat audio cache : Yes
Make use of C2 pointers : No

Read offset correction : 6
Overread into Lead-In and Lead-Out : No
Fill up missing offset samples with silence : Yes
Delete leading and trailing silent blocks : No
Null samples used in CRC calculations : Yes
Used interface : Native Win32 interface for Win NT & 2000
Gap handling : Appended to previous track

Used output format : User Defined Encoder
Selected bitrate : 896 kBit/s
Quality : High
Add ID3 tag : No
Command line compressor : C:\Program Files\Exact Audio Copy\Flac\flac.exe
Additional command line options : -6 -V -T "ARTIST=%artist%" -T "TITLE=%title%" -T "ALBUM=%albumtitle%" -T "DATE=%year%" -T "TRACKNUMBER=%tracknr%" -T "GENRE=%genre%" -T "COMMENT=%comment%" %source% -o %dest%


TOC of the extracted CD

Track | Start | Length | Start sector | End sector
––––––––––––––––––––––––––––-
1 | 0:00.00 | 3:05.72 | 0 | 13946
2 | 3:05.72 | 4:34.23 | 13947 | 34519
3 | 7:40.20 | 4:07.02 | 34520 | 53046
4 | 11:47.22 | 2:20.63 | 53047 | 63609
5 | 14:08.10 | 4:18.60 | 63610 | 83019
6 | 18:26.70 | 3:29.62 | 83020 | 98756
7 | 21:56.57 | 2:57.15 | 98757 | 112046
8 | 24:53.72 | 3:28.10 | 112047 | 127656
9 | 28:22.07 | 2:58.58 | 127657 | 141064
10 | 31:20.65 | 2:07.47 | 141065 | 150636
11 | 33:28.37 | 4:50.35 | 150637 | 172421
12 | 38:18.72 | 4:06.50 | 172422 | 190921
13 | 42:25.47 | 3:07.30 | 190922 | 204976
14 | 45:33.02 | 3:40.53 | 204977 | 221529
15 | 49:13.55 | 3:07.35 | 221530 | 235589
16 | 52:21.15 | 3:43.07 | 235590 | 252321
17 | 56:04.22 | 4:39.40 | 252322 | 273286
18 | 60:43.62 | 3:39.40 | 273287 | 289751
19 | 64:23.27 | 4:07.00 | 289752 | 308276
20 | 68:30.27 | 2:49.05 | 308277 | 320956


Track 1

Filename C:\New Folder\01 - Dreamer (Vivo Sonhando).wav

Pre-gap length 0:00:02.00

Peak level 98.8 %
Extraction speed 1.9 X
Track quality 100.0 %
Test CRC FD5DFE05
Copy CRC FD5DFE05
Accurately ripped (confidence 3) [2DDFAE36] (AR v2)
Copy OK

Track 2

Filename C:\New Folder\02 - Canta Mais (Sing Once More).wav

Pre-gap length 0:00:01.05

Peak level 96.4 %
Extraction speed 2.1 X
Track quality 100.0 %
Test CRC 8963F627
Copy CRC 8963F627
Accurately ripped (confidence 3) [71FB0A0F] (AR v2)
Copy OK

Track 3

Filename C:\New Folder\03 - Olha Maria (Amparo).wav

Pre-gap length 0:00:02.13

Peak level 98.8 %
Extraction speed 2.2 X
Track quality 100.0 %
Test CRC 95992851
Copy CRC 95992851
Accurately ripped (confidence 3) [BC211823] (AR v2)
Copy OK

Track 4

Filename C:\New Folder\04 - One Note Samba.wav

Pre-gap length 0:00:02.47

Peak level 98.8 %
Extraction speed 2.2 X
Track quality 100.0 %
Test CRC E19FFCFF
Copy CRC E19FFCFF
Accurately ripped (confidence 3) [3CA2FFFC] (AR v2)
Copy OK

Track 5

Filename C:\New Folder\05 - Dindi.wav

Pre-gap length 0:00:03.25

Peak level 98.8 %
Extraction speed 2.5 X
Track quality 100.0 %
Test CRC 009B114C
Copy CRC 009B114C
Accurately ripped (confidence 3) [2F99C5FA] (AR v2)
Copy OK

Track 6

Filename C:\New Folder\06 - Quiet Nights Of Quiet Stars (Corcovado).wav

Pre-gap length 0:00:04.05

Peak level 98.8 %
Extraction speed 2.0 X
Track quality 99.9 %
Test CRC 982DD41C
Copy CRC 982DD41C
Accurately ripped (confidence 3) [DEFB5A2B] (AR v2)
Copy OK

Track 7

Filename C:\New Folder\07 - Marina.wav

Pre-gap length 0:00:03.67

Peak level 94.2 %
Extraction speed 2.6 X
Track quality 100.0 %
Test CRC F19CE94B
Copy CRC F19CE94B
Accurately ripped (confidence 3) [4794F8AA] (AR v2)
Copy OK

Track 8

Filename C:\New Folder\08 - Off-Key (Desafinado).wav

Pre-gap length 0:00:04.17

Peak level 98.8 %
Extraction speed 2.2 X
Track quality 99.9 %
Test CRC 4F0FCB72
Copy CRC 4F0FCB72
Accurately ripped (confidence 3) [295EFC50] (AR v2)
Copy OK

Track 9

Filename C:\New Folder\09 - Voce Vai Ver (You'll See).wav

Pre-gap length 0:00:04.32

Peak level 98.8 %
Extraction speed 2.8 X
Track quality 100.0 %
Test CRC 5F2DBF66
Copy CRC 5F2DBF66
Accurately ripped (confidence 3) [E6F97146] (AR v2)
Copy OK

Track 10

Filename C:\New Folder\10 - Estrada Do Sol (Road To The Sun).wav

Pre-gap length 0:00:03.65

Peak level 98.8 %
Extraction speed 2.7 X
Track quality 100.0 %
Test CRC BBAC6AD5
Copy CRC BBAC6AD5
Accurately ripped (confidence 3) [B709BBBE] (AR v2)
Copy OK

Track 11

Filename C:\New Folder\11 - The Girl From Ipanema.wav

Pre-gap length 0:00:03.52

Peak level 98.8 %
Extraction speed 2.5 X
Track quality 99.9 %
Test CRC EC933333
Copy CRC EC933333
Accurately ripped (confidence 3) [BA3E82DF] (AR v2)
Copy OK

Track 12

Filename C:\New Folder\12 - Double Rainbow.wav

Pre-gap length 0:00:03.55

Peak level 98.8 %
Extraction speed 2.5 X
Track quality 99.9 %
Test CRC 9227A203
Copy CRC 9227A203
Accurately ripped (confidence 3) [5EBDF086] (AR v2)
Copy OK

Track 13

Filename C:\New Folder\13 - Triste.wav

Pre-gap length 0:00:03.07

Peak level 98.8 %
Extraction speed 3.2 X
Track quality 100.0 %
Test CRC 0252FB84
Copy CRC 0252FB84
Accurately ripped (confidence 3) [B94BD8AD] (AR v2)
Copy OK

Track 14

Filename C:\New Folder\14 - Wave.wav

Pre-gap length 0:00:02.57

Peak level 98.8 %
Extraction speed 3.3 X
Track quality 100.0 %
Test CRC BB5BB596
Copy CRC BB5BB596
Accurately ripped (confidence 3) [2BB632A8] (AR v2)
Copy OK

Track 15

Filename C:\New Folder\15 - Someone To Light Up My Life (Se Todos Fossem Iguais A Voce).wav

Pre-gap length 0:00:02.13

Peak level 88.1 %
Extraction speed 3.3 X
Track quality 100.0 %
Test CRC CAECA7D9
Copy CRC CAECA7D9
Accurately ripped (confidence 3) [C1562E9D] (AR v2)
Copy OK

Track 16

Filename C:\New Folder\16 - Falando De Amor (Speaking Of Love).wav

Pre-gap length 0:00:03.48

Peak level 96.4 %
Extraction speed 2.7 X
Track quality 99.9 %
Test CRC 4101D81D
Copy CRC 4101D81D
Accurately ripped (confidence 3) [E09435E0] (AR v2)
Copy OK

Track 17

Filename C:\New Folder\17 - Two Kites.wav

Pre-gap length 0:00:03.30

Peak level 88.1 %
Extraction speed 2.9 X
Track quality 99.9 %
Test CRC 4B770B99
Copy CRC 4B770B99
Accurately ripped (confidence 3) [AC58B129] (AR v2)
Copy OK

Track 18

Filename C:\New Folder\18 - Modinha (Serenade).wav

Pre-gap length 0:00:03.47

Peak level 93.6 %
Extraction speed 3.7 X
Track quality 100.0 %
Test CRC 7B6A93EA
Copy CRC 7B6A93EA
Accurately ripped (confidence 3) [14E673EB] (AR v2)
Copy OK

Track 19

Filename C:\New Folder\19 - Song Of The Sabia (Sabia).wav

Pre-gap length 0:00:03.57

Peak level 80.7 %
Extraction speed 2.9 X
Track quality 99.9 %
Test CRC 5C505CD1
Copy CRC 5C505CD1
Accurately ripped (confidence 3) [07BEDE75] (AR v2)
Copy OK

Track 20

Filename C:\New Folder\20 - This Happy Madness (Estrada Branca).wav

Pre-gap length 0:00:02.55

Peak level 76.9 %
Extraction speed 3.7 X
Track quality 100.0 %
Test CRC CD9CE6E3
Copy CRC CD9CE6E3
Accurately ripped (confidence 3) [66A80363] (AR v2)
Copy OK


All tracks accurately ripped

No errors occurred

End of status report

–– CUETools DB Plugin V2.1.4

[CTDB TOCID: w48yL_PNl29NRAGSqFeNd8hDwJI-] found
Submit result: w48yL_PNl29NRAGSqFeNd8hDwJI- has been confirmed
Track | CTDB Status
1 | (4/4) Accurately ripped
2 | (4/4) Accurately ripped
3 | (4/4) Accurately ripped
4 | (4/4) Accurately ripped
5 | (4/4) Accurately ripped
6 | (4/4) Accurately ripped
7 | (4/4) Accurately ripped
8 | (4/4) Accurately ripped
9 | (4/4) Accurately ripped
10 | (4/4) Accurately ripped
11 | (4/4) Accurately ripped
12 | (4/4) Accurately ripped
13 | (4/4) Accurately ripped
14 | (4/4) Accurately ripped
15 | (4/4) Accurately ripped
16 | (4/4) Accurately ripped
17 | (4/4) Accurately ripped
18 | (4/4) Accurately ripped
19 | (4/4) Accurately ripped
20 | (4/4) Accurately ripped


==== Log checksum E5DE98DB77C95B3FC444AEA5805BF80D19ED99C1F4C36763EFA2FE3404E3DE95 ====

foobar2000 1.3.8 / Dynamic Range Meter 1.1.1
log date: 2015-11-26 22:16:39

––––––––––––––––––––––––––––––––––––––––
Analyzed: Antonio Carlos Jobim / Terra Brasilis
––––––––––––––––––––––––––––––––––––––––

DR Peak RMS Duration Track
––––––––––––––––––––––––––––––––––––––––
DR12 -0.10 dB -15.51 dB 3:06 01-Dreamer (Vivo Sonhando)
DR12 -0.31 dB -18.33 dB 4:34 02-Canta Mais (Sing Once More)
DR12 -0.10 dB -16.45 dB 4:07 03-Olha Maria (Amparo)
DR14 -0.10 dB -15.58 dB 2:21 04-One Note Samba
DR12 -0.10 dB -16.40 dB 4:19 05-Dindi
DR12 -0.10 dB -14.91 dB 3:30 06-Quiet Nights Of Quiet Stars (Corcovado)
DR13 -0.52 dB -18.27 dB 2:57 07-Marina
DR13 -0.10 dB -15.53 dB 3:28 08-Off-Key (Desafinado)
DR11 -0.10 dB -13.99 dB 2:59 09-Voce Vai Ver (You'll See)
DR12 -0.10 dB -16.83 dB 2:08 10-Estrada Do Sol (Road To The Sun)
DR12 -0.10 dB -14.78 dB 4:50 11-The Girl From Ipanema
DR11 -0.10 dB -15.81 dB 4:07 12-Double Rainbow
DR11 -0.10 dB -13.67 dB 3:07 13-Triste
DR12 -0.10 dB -18.37 dB 3:41 14-Wave
DR10 -1.10 dB -13.01 dB 3:07 15-Someone To Light Up My Life (Se Todos Fossem Iguais A Voce)
DR11 -0.31 dB -15.25 dB 3:43 16-Falando De Amor (Speaking Of Love)
DR11 -1.10 dB -13.93 dB 4:40 17-Two Kites
DR11 -0.57 dB -16.25 dB 3:40 18-Modinha (Serenade)
DR12 -1.86 dB -17.23 dB 4:07 19-Song Of The Sabia (Sabia)
DR13 -2.28 dB -19.62 dB 2:49 20-This Happy Madness (Estrada Branca)
––––––––––––––––––––––––––––––––––––––––

Number of tracks: 20
Official DR value: DR12

Samplerate: 44100 Hz
Channels: 2
Bits per sample: 16
Bitrate: 702 kbps
Codec: FLAC
================================================================================

Antonio Carlos Jobim - Terra Brasilis (1980)

Antonio Carlos Jobim - Terra Brasilis (1980)

All thanks to original releaser - alekow

More interesting music in My Blog