Tags
Language
Tags

Joe Armon-Jones - Starting Today (2018) Japanese Release

Posted By: Designol
Joe Armon-Jones - Starting Today (2018) Japanese Release

Joe Armon-Jones - Starting Today (2018) Japanese Press
EAC | FLAC | Tracks (Cue&Log) ~ 331 Mb | Mp3 (CBR320) ~ 144 Mb | Scans included
Fusion, Jazz-Funk, Funk, Soul, Dub | Label: Brownswood/Beat | # BRC-572 | 00:54:32

2018 debut album, by prodigious keys player, composer and producer Joe Armon-Jones, is buoyant, celebratory and welcoming. With a background in jazz, he draws from influences in dub, hip-hop and soul. Different traditions are infused and commingled together. Soulful brass arrangements are colored with carefully-tuned atmospherics; individual flashes of brilliance are bound into the album's bigger picture. He's part of London's young, jazz-influenced music scene. Drawn from that same close-knit circle, the album features the likes of Moses Boyd, Nubya Garcia and Oscar Jerome. It's playing with those - along with Ezra Collective, which he co-founded, and touring with the likes of Ata Kak and Pharoahe Monch - which has honed his playing and grown his ideas. It's made for a record with an unmistakable depth. He draws on deep musical understanding, making music which is warm and has a feeling of joy. A document of his vision for bringing together his different influences, it's also a testament to hard-earned, head-turning musical virtuosity.

Something exceptional is happening in London in spring 2018. A succession of albums, recorded by an intimately connected community of around 60 young musicians, is taking jazz in ear-opening new directions. Hybridisation and genretic modification are the names of the game, but the scene also reaffirms the music's traditional building-blocks, among them the creativity of black musicians in Britain, North America, the Caribbean and Africa. Nothing quite like this has happened in Britain for around 30 years. Not on this scale anyway.

First out of the traps was We Out Here (Brownswood Recordings), featuring around 35 members of the new community in various guises: Maisha, Ezra Collective, Triforce, Kokoroko and line-ups led by drummer Moses Boyd, tuba player Theon Cross, saxophonists Nubya Garcia and Shabaka Hutchings and keyboardist Joe Armon-Jones. Hard on its heels was Your Queen Is A Reptile (Impulse!) by Hutchings's Sons Of Kemet and Loveplaydance: 8 Scenes From The Floor (Brownswood) by Toshio Matsuura Group. All three albums have already been reviewed here. And there are more releases in the pipeline, the most immediate being keyboardist and Brownswood alumnus Kamaal Williams's The Return (Black Focus Records), and Garcia's self-released EP When We Are, made with a band drawn from the We Out Here community including Armon-Jones.

Meanwhile, here comes Armon-Jones's own-name debut, Starting Today. A 100% proof blend of jazz, fusion, hip hop and dub, the album showcases Armon-Jones's breathtaking sonic-wizardry. It also reveals him to be a composer of note. His lyrics are perhaps a tad perfunctory, but no matter—he writes great tunes and interesting arrangements. And he brings a seemingly inexhaustible bag of timbral tricks to the Wurlitzer. The band, drawn in the main from the We Out Here family, is top ranking, too, with a killer rhythm section and strong frontline-contributions from Garcia and trumpeter Dylan Jones. Armon-Jones is the main solo voice, however.

Brownswood, the label formed by London club DJ and BBC Radio 6 Music broadcaster Gilles Peterson in 2006, figures large in this spring 2018 musical high-tide. Peterson's previous label, the jazz dance and acid jazz-centric Talkin' Loud, defined one corner of the London jazz world in the 1990s. Brownswood is doing something similar right now. It is the sort of outfit that gives monopolies a good name.

Review by Chris May, AllAboutJazz.com

Personnel:
Joe Armon-Jones: Wurlitzer (tracks 1-5), piano (track 6), vocals (track 2);
Nubya Garcia: tenor saxophone (tracks 1, 3-5); James Mollison: tenor saxophone (tracks 3-5);
Dylan Jones: trumpet (tracks 1, 3-5); Oscar Jerome: guitar (tracks 2-6), vocals (track 4);
David Mrakpor: bass (tracks 2, 3, 5, 6); Mutale Chashi: bass (tracks 1, 4);
Moses Boyd: drums; Kwake Bass: drums (tracks 1, 4); Maxwell Owin: effects (tracks 4, 6);
Asheber: vocals (track 1); Ego Ella May: vocals (tracks 2, 5, 6); Big Sharer: vocals (tracks 5, 6).

Tracklist:

01. Starting Today (feat. Asheber) (9:04)
02. Almost Went Too Far (6:25)
03. Mollison Dub (10:16)
04. London's Face (feat. Oscar Jerome) (9:49)
05. Ragify (feat. Big Sharer) (9:48)
06. Outro (Fornow) (1:27)
07. Go See (7:43)


Exact Audio Copy V1.3 from 2. September 2016

EAC extraction logfile from 18. September 2018, 7:57

Joe Armon-Jones / Starting Today

Used drive : PLEXTOR DVDR PX-891SAW Adapter: 1 ID: 0

Read mode : Secure
Utilize accurate stream : Yes
Defeat audio cache : Yes
Make use of C2 pointers : No

Read offset correction : 48
Overread into Lead-In and Lead-Out : No
Fill up missing offset samples with silence : Yes
Delete leading and trailing silent blocks : No
Null samples used in CRC calculations : Yes
Used interface : Native Win32 interface for Win NT & 2000
Gap handling : Appended to previous track

Used output format : User Defined Encoder
Selected bitrate : 1024 kBit/s
Quality : High
Add ID3 tag : No
Command line compressor : C:\Program Files (x86)\Exact Audio Copy\Flac\flac.exe
Additional command line options : -8 -V -T "ARTIST=%artist%" -T "TITLE=%title%" -T "ALBUM=%albumtitle%" -T "DATE=%year%" -T "TRACKNUMBER=%tracknr%" -T "GENRE=%genre%" -T "PERFORMER=%albuminterpret%" -T "COMPOSER=%composer%" %haslyrics%–tag-from-file=LYRICS="%lyricsfile%"%haslyrics% -T "ALBUMARTIST=%albumartist%" -T "DISCNUMBER=%cdnumber%" -T "TOTALDISCS=%totalcds%" -T "TOTALTRACKS=%numtracks%" -T "COMMENT=%comment%" %source% -o %dest%


TOC of the extracted CD

Track | Start | Length | Start sector | End sector
––––––––––––––––––––––––––––-
1 | 0:00.00 | 9:03.57 | 0 | 40781
2 | 9:03.57 | 6:24.74 | 40782 | 69655
3 | 15:28.56 | 10:15.71 | 69656 | 115851
4 | 25:44.52 | 9:48.71 | 115852 | 160022
5 | 35:33.48 | 9:48.07 | 160023 | 204129
6 | 45:21.55 | 1:26.61 | 204130 | 210640
7 | 46:48.41 | 7:43.07 | 210641 | 245372


Track 1

Filename D:\Rips\01 - Starting Today.wav

Pre-gap length 0:00:02.00

Peak level 97.7 %
Extraction speed 5.5 X
Track quality 100.0 %
Test CRC 8D608BE6
Copy CRC 8D608BE6
Track not present in AccurateRip database
Copy OK

Track 2

Filename D:\Rips\02 - Almost Went Too Far.wav

Peak level 97.5 %
Extraction speed 6.2 X
Track quality 100.0 %
Test CRC 9C54C4D6
Copy CRC 9C54C4D6
Track not present in AccurateRip database
Copy OK

Track 3

Filename D:\Rips\03 - Mollison Dub.wav

Peak level 97.0 %
Extraction speed 7.1 X
Track quality 100.0 %
Test CRC E3C6221A
Copy CRC E3C6221A
Track not present in AccurateRip database
Copy OK

Track 4

Filename D:\Rips\04 - London's Face.wav

Peak level 97.7 %
Extraction speed 6.6 X
Track quality 99.9 %
Test CRC 91EB8D8B
Copy CRC 91EB8D8B
Track not present in AccurateRip database
Copy OK

Track 5

Filename D:\Rips\05 - Ragify.wav

Peak level 97.7 %
Extraction speed 8.7 X
Track quality 100.0 %
Test CRC C259CAB6
Copy CRC C259CAB6
Track not present in AccurateRip database
Copy OK

Track 6

Filename D:\Rips\06 - Outro (Fornow).wav

Peak level 97.5 %
Extraction speed 6.7 X
Track quality 100.0 %
Test CRC F627B547
Copy CRC F627B547
Track not present in AccurateRip database
Copy OK

Track 7

Filename D:\Rips\07 - Go See.wav

Pre-gap length 0:00:02.98

Peak level 98.8 %
Extraction speed 9.3 X
Track quality 100.0 %
Test CRC D73FE219
Copy CRC D73FE219
Track not present in AccurateRip database
Copy OK


None of the tracks are present in the AccurateRip database

No errors occurred

End of status report

–– CUETools DB Plugin V2.1.6

[CTDB TOCID: gLOMKlrVw.nZz.oz563rAdGtCyk-] disk not present in database
Submit result: gLOMKlrVw.nZz.oz563rAdGtCyk- has been uploaded


==== Log checksum D2EF90D2BA4E94C9296380803375ECECBDC635200BFD65E03A842308EECAB4AC ====

foobar2000 1.2 / Dynamic Range Meter 1.1.1
log date: 2018-09-21 19:29:30

––––––––––––––––––––––––––––––––––––––––
Analyzed: Joe Armon-Jones / Starting Today
––––––––––––––––––––––––––––––––––––––––

DR Peak RMS Duration Track
––––––––––––––––––––––––––––––––––––––––
DR7 -0.20 dB -10.15 dB 9:04 01-Starting Today (feat. Asheber)
DR10 -0.21 dB -11.28 dB 6:25 02-Almost Went Too Far
DR9 -0.26 dB -10.37 dB 10:16 03-Mollison Dub
DR9 -0.20 dB -10.24 dB 9:49 04-London's Face (feat. Oscar Jerome)
DR8 -0.20 dB -9.42 dB 9:48 05-Ragify (feat. Big Sharer)
DR10 -0.22 dB -13.27 dB 1:27 06-Outro (Fornow)
DR9 -0.10 dB -11.46 dB 7:43 07-Go See
––––––––––––––––––––––––––––––––––––––––

Number of tracks: 7
Official DR value: DR9

Samplerate: 44100 Hz
Channels: 2
Bits per sample: 16
Bitrate: 787 kbps
Codec: FLAC
================================================================================

Joe Armon-Jones - Starting Today (2018) Japanese Release

All thanks to original releaser - thezabs

More interesting music in My Blog